osu file format v9

[General]
AudioFilename: Fuwa Fuwa Time.mp3
AudioLeadIn: 0
PreviewTime: 44000
Countdown: 0
SampleSet: Soft
StackLeniency: 0.7
Mode: 0
LetterboxInBreaks: 0

[Editor]
Bookmarks: 35143
DistanceSpacing: 1
BeatDivisor: 2
GridSize: 8

[Metadata]
Title:Fuwa Fuwa Time (TV Size)
Artist:HO-KAGO TEA TIME
Creator:Index-San
Version:Easy
Source:K-ON!
Tags:Afterschool Light Fluffy HTT Aki Toyosaki Yui Hirasawa Yoko Hikasa Mio Akiyama

[Difficulty]
HPDrainRate:1
CircleSize:3
OverallDifficulty:2
ApproachRate:2
SliderMultiplier:0.7
SliderTickRate:1

[Events]
//Background and Video events
0,0,"wall.jpg"
//Break Periods
2,63009,73915
//Storyboard Layer 0 (Background)
//Storyboard Layer 1 (Fail)
//Storyboard Layer 2 (Pass)
//Storyboard Layer 3 (Foreground)
//Storyboard Sound Samples
//Background Colour Transformations
3,100,163,162,255

[TimingPoints]
1476,333.333333333333,4,1,1,50,1,0
11809,-100,4,2,1,50,0,0
18059,-100,4,1,0,75,0,0
18225,-100,4,2,1,50,0,0
18725,-100,4,1,0,75,0,0
18892,-100,4,2,1,50,0,0
19392,-100,4,1,0,80,0,0
19559,-100,4,2,1,50,0,0
20559,-100,4,1,0,75,0,0
20725,-100,4,2,1,75,0,0
44143,-100,4,2,1,65,0,1
62809,-100,4,2,1,65,0,0
75309,-100,4,2,1,35,0,0
75642,-100,4,2,1,45,0,0
75975,-100,4,2,1,55,0,0
76143,-100,4,2,1,65,0,1
76642,-100,4,2,1,65,0,1
94809,-100,4,1,1,65,0,0
105809,-100,4,2,1,15,0,0

[Colours]
Combo1 : 255,255,255
Combo2 : 0,128,255
Combo3 : 4,87,179
Combo4 : 243,232,1
Combo5 : 12,0,240
Combo6 : 255,150,0
Combo7 : 1,182,197

[HitObjects]
152,96,6809,1,4
256,192,7475,1,0
120,232,8142,1,0
224,320,8809,2,0,B|304:352|400:320,1,140
440,216,10142,69,0
368,96,10809,1,0
256,184,11475,2,0,B|176:136|176:144,2,70,0|0|4
384,232,12809,22,0,B|416:160,1,70,0|8
320,64,13809,1,8
200,136,14475,2,0,B|168:208,2,70,8|0|8
64,88,15809,1,0
192,40,16476,1,0
280,152,17142,2,0,B|248:240,2,70,0|4|0
408,88,18475,69,8
368,224,19142,1,8
256,312,19809,1,8
152,224,20475,2,0,B|88:208|48:168|40:112|48:72,1,175,8|4
216,72,22142,85,2
240,208,22809,2,0,B|328:208,1,70,2|8
440,152,23809,1,8
368,32,24475,70,8,B|296:24|224:40,1,140
144,152,25809,2,0,B|240:152,2,70,8|0|8
256,240,27142,22,0,B|96:240,1,140,8|8
240,320,28475,1,8
312,296,28808,1,0
336,224,29142,1,8
240,120,29809,69,8
360,48,30475,1,8
360,48,30809,2,8,B|440:48,1,70,0|8
488,176,31809,1,8
368,248,32475,22,0,B|296:248,1,70,8|0
248,296,33142,1,8
184,320,33475,2,0,B|184:248,1,70,4|8
120,120,34475,1,8
64,216,35142,70,0,B|160:200|256:104,1,210,8|0
360,32,36809,1,8
416,160,37475,2,0,B|408:256|360:288|272:296,1,210,8|4
152,240,39142,21,8
264,152,39809,1,8
152,64,40475,1,8
56,160,41142,2,8,B|56:248,1,70,8|12
56,232,41975,1,12
56,232,42475,1,12
256,312,43475,22,0,B|336:312|432:264,1,140,4|8
392,144,44809,2,0,B|312:144,2,70,8|0|8
272,72,46142,1,8
137,109,46809,54,0,B|137:189,2,70,8|0|8
200,233,48142,1,8
272,353,48809,70,0,B|272:283,2,70,8|0|4
398,292,50142,1,8
383,152,50809,1,8
336,24,51475,1,8
218,85,52142,2,0,B|218:173,1,70,8|0
82,190,53142,2,0,B|83:272,1,70,0|8
224,312,54142,21,8
224,312,54475,2,0,B|328:296|376:240,1,140,0|8
432,144,55809,1,8
320,56,56475,2,8,B|232:48|176:56,1,140
80,152,57809,2,8,B|184:168|304:144,1,210
416,200,59475,69,8
296,272,60142,1,8
360,144,60809,1,8
240,216,61475,2,0,B|264:152|248:72,1,140,4|8
216,16,62475,1,8
216,16,62809,1,4
80,96,75475,69,2
80,96,75809,1,2
80,96,76142,2,8,B|80:192|128:240,1,140,4|8
224,320,77475,2,0,B|320:320,2,70,8|0|8
184,184,78809,53,8
320,144,79475,1,8
384,176,79809,1,0
328,216,80142,1,8
224,128,80809,70,0,B|136:128,2,70,8|0|4
320,24,82142,2,8,B|368:16|424:32|456:80,1,140
456,208,83475,2,8,B|408:216|352:200|320:152,1,140
208,96,84809,2,8,B|144:136|128:232,1,140,8|4
208,328,86142,21,8
336,264,86809,2,0,B|416:264,1,70,8|8
432,200,87475,1,0
432,200,87809,2,8,B|432:120,1,70
504,56,88642,1,0
400,24,89142,1,0
360,80,89475,2,8,B|312:144,2,70,8|0|8
224,40,90809,1,8
136,152,91475,70,8,B|155:196|155:252|123:284,1,140
8,360,92809,2,0,B|-12:315|-12:259|20:227,1,140,4|8
152,272,94142,1,4
292,275,94809,1,4
280,144,95475,70,8,B|256:168|208:176|160:168|136:128,1,140
32,64,96809,2,8,B|56:40|104:32|152:40|176:80,1,140
64,168,98142,2,8,B|41:177|33:225|41:273|65:297,1,140
184,224,99475,6,8,B|336:224,1,140
440,296,100809,2,8,B|462:273|470:225|462:177|440:168,1,140
328,88,102142,86,8,B|305:97|297:145|305:193|329:217,2,140
448,152,104142,5,8
416,16,104809,1,8
280,32,105475,1,8
