osu file format v12

[General]
AudioFilename: Fuwa Fuwa Time.mp3
AudioLeadIn: 0
PreviewTime: 42460
Countdown: 1
SampleSet: Soft
StackLeniency: 0.7
Mode: 0
LetterboxInBreaks: 0
WidescreenStoryboard: 0

[Editor]
DistanceSpacing: 0.8
BeatDivisor: 2
GridSize: 8

[Metadata]
Title:Fuwa Fuwa Time
TitleUnicode:ふわふわ時間たいむ
Artist:HO-KAGO TEA TIME
ArtistUnicode:放課後ほうかごティータイム
Creator:Shivarion
Version:Normal
Source:K-ON!!
Tags:htt toyosaki aki hikasa yoko satou satomi kotobuki minako taketatsu ayana hirasawa yui akiyama mio tainaka ritsu kotobuki tsumugi nakano asuza k-on keion hokago tea time
BeatmapID:340764
BeatmapSetID:136118

[Difficulty]
HPDrainRate:1
CircleSize:3
OverallDifficulty:2
ApproachRate:3
SliderMultiplier:1.05
SliderTickRate:1

[Events]
//Background and Video events
0,0,"Yui Normal Background.jpg",0,0
//Break Periods
2,63009,74703
//Storyboard Layer 0 (Background)
//Storyboard Layer 1 (Fail)
//Storyboard Layer 2 (Pass)
//Storyboard Layer 3 (Foreground)
//Storyboard Sound Samples
//Background Colour Transformations
3,100,163,162,255

[TimingPoints]
6810,333.333333333333,4,2,1,75,1,0
35976,-200,4,2,1,65,0,0
37643,-100,4,2,1,75,0,0
44143,-100,4,2,1,90,0,1
62809,-100,4,2,1,75,0,0
76143,-100,4,2,1,90,0,1
94809,-100,4,2,1,75,0,0

[Colours]
Combo1 : 255,150,0
Combo2 : 5,240,5
Combo3 : 5,5,240
Combo4 : 240,5,5
Combo5 : 255,255,0
SliderBorder : 255,255,255

[HitObjects]
64,112,6810,1,8,0:0:0:0:
64,112,7143,1,8,0:0:0:0:
64,112,7476,2,8,B|64:160|96:192|136:192,1,105
176,104,8143,1,8,0:0:0:0:
280,104,8476,2,8,B|392:104,1,105
416,200,9143,1,8,0:0:0:0:
344,272,9476,5,8,0:0:0:0:
240,272,9809,2,8,B|120:272,1,105
168,176,10476,1,8,0:0:0:0:
240,104,10809,2,8,B|240:80|280:72|320:80|320:112,3,105
256,192,12143,5,4,0:0:0:0:
352,192,12476,2,0,B|352:216|352:264|320:288|264:280|256:272,1,105,0|0,0:0|0:0,0:0:0:0:
208,280,13143,2,0,B|184:280|160:248|160:224|168:192|176:184,1,105,0|0,0:0|0:0,0:0:0:0:
224,136,13809,2,8,B|216:104|264:96|312:112|296:144,2,105,0|8|0,0:0|0:0|0:0,0:0:0:0:
128,104,14809,2,8,B|72:72|72:72|72:72,2,52.5
192,24,15476,6,8,B|304:24,1,105,0|8,0:0|0:0,0:0:0:0:
400,24,16143,2,8,B|416:72|392:104|368:112|320:120,1,105,0|8,0:0|0:0,0:0:0:0:
264,128,16809,2,8,B|224:144|208:160|208:192|208:232,1,105,0|8,0:0|0:0,0:0:0:0:
272,264,17476,6,0,L|368:312,1,105
440,328,18143,2,8,B|488:288|488:256|464:232|448:216,1,105,0|8,0:0|0:0,0:0:0:0:
392,192,18809,1,8,0:0:0:0:
304,160,19143,1,8,0:0:0:0:
221,130,19476,2,8,B|247:118|237:78|213:45|192:56,1,105
120,40,20143,6,8,B|72:48|48:120|64:216|120:224,1,210
196,172,21143,2,8,B|236:192|240:120|312:144,1,105
400,192,21809,5,8,0:0:0:0:
384,264,21976,2,8,B|328:328|208:272,1,157.5
156,266,22809,2,8,B|130:202|221:151,1,105
272,144,23476,6,0,B|320:144|360:136|360:72|360:72,1,105,0|8,0:0|0:0,0:0:0:0:
432,88,24143,1,0,0:0:0:0:
408,176,24476,1,8,0:0:0:0:
372,197,24643,6,8,P|329:233|232:208,1,157.5
200,200,25310,1,8,0:0:0:0:
160,160,25476,2,8,B|32:216,1,105
9,261,26143,6,0,B|1:309|33:341|81:349|81:349,1,105,0|8,0:0|0:0,0:0:0:0:
152,336,26810,2,0,B|248:336|248:336|256:336,1,105,0|8,0:0|0:0,0:0:0:0:
304,304,27310,5,8,0:0:0:0:
392,256,27643,2,8,B|392:216|392:168,3,52.5
384,104,28476,2,8,B|320:104|320:104,1,52.5
88,48,29476,6,8,B|48:72|40:104|48:136|48:184,2,105
160,120,30476,1,8,0:0:0:0:
256,96,30809,2,8,B|280:144|256:176|240:192|192:200,2,105
160,120,31809,2,8,B|112:136|112:176|112:216|120:248,1,105,0|8,0:0|0:0,0:0:0:0:
160,296,32476,1,0,0:0:0:0:
208,272,32643,6,8,B|336:216,1,104.999996870756
288,184,33143,2,8,B|264:128,2,52.5,8|8|12,0:0|0:0|0:0,0:0:0:0:
336,272,33809,6,0,B|376:264|408:224|392:184|392:160,1,105,8|0,0:0|0:0,0:0:0:0:
384,96,34476,2,8,B|280:96,2,105,8|8|8,0:0|0:0|0:0,0:0:0:0:
352,192,35476,6,8,B|280:192,2,52.5
352,192,36143,2,8,B|368:229|357:256|342:276|310:299|270:327|228:308|211:270,1,210,12|8,0:0|0:0,0:0:0:0:
224,64,38476,6,8,B|160:96|216:160,1,104.999996870756,12|12,0:0|0:0,0:0:0:0:
256,216,39143,1,8,0:0:0:0:
288,240,39309,1,8,0:0:0:0:
320,216,39476,1,8,0:0:0:0:
392,232,39810,2,8,B|464:288|368:344,1,104.999996870756
304,312,40476,2,8,B|200:312,1,104.999996870756
144,232,41143,1,8,0:0:0:0:
256,192,41476,12,4,43476,0:0:0:0:
88,136,44143,6,8,B|80:96|96:56|128:32|144:40,2,105
96,216,45143,2,8,B|144:240|144:240,1,52.5
184,240,45476,2,8,B|224:248|256:208|256:168|240:136,1,105
288,136,45976,1,8,0:0:0:0:
376,280,46476,6,8,B|376:216|376:216,1,52.5
376,176,46809,2,8,B|376:120|376:120|352:80|328:64,1,105
296,80,47309,2,8,B|184:80,1,105
192,128,47809,2,8,B|192:184|192:184|216:224|240:240,1,105
392,160,48810,6,8,B|352:184|440:208|368:280,2,104.999996870756,8|8|4,0:0|0:0|0:0,0:0:0:0:
272,80,50143,1,8,0:0:0:0:
160,160,50810,2,8,B|120:184|208:208|136:280,3,104.999996870756
248,232,52143,2,8,B|296:176|296:176|344:112|440:120|432:208|432:208|416:272|328:336,1,420
264,328,54143,6,8,B|208:328|208:328|192:304|176:288|152:312|152:320,1,105
112,240,54810,2,0,B|64:168|128:128,1,105,0|8,0:0|0:0,0:0:0:0:
176,96,55476,1,0,0:0:0:0:
233,152,55810,2,0,B|326:162|348:134,1,105,8|0,0:0|0:0,0:3:0:0:
392,96,56476,2,8,B|504:96,1,104.999996870756
480,176,57143,2,8,B|480:208|480:208|472:240|424:272|432:272,4,105
328,176,58810,5,4,0:0:0:0:
216,184,59476,2,0,B|154:165|155:67|163:69,1,104.999996870756,0|8,0:0|0:0,0:0:0:0:
288,88,60143,1,0,0:0:0:0:
424,112,60810,1,8,0:0:0:0:
424,216,61476,2,8,B|384:320|298:265,1,157.5,12|12,0:0|0:0,0:3:0:0:
264,192,62476,2,4,B|264:80,1,104.999996870756,12|12,0:0|0:0,0:0:0:0:
424,248,76143,6,8,B|432:288|416:328|384:352|368:344,2,105
424,144,77143,2,8,B|376:120|376:120,1,52.5
328,144,77476,2,8,B|288:136|256:176|256:216|272:248,1,105
224,248,77976,1,8,0:0:0:0:
136,104,78476,6,8,B|136:168|136:168,1,52.5
136,208,78809,2,8,B|136:264|136:264|160:304|184:320,1,105
216,304,79309,2,8,B|328:304,1,105
328,256,79809,2,8,B|328:200|328:200|304:160|280:144,1,105
112,184,80810,6,8,B|152:160|64:136|136:64,2,104.999996870756,8|8|4,0:0|0:0|0:0,0:0:0:0:
216,280,82143,1,8,0:0:0:0:
352,216,82810,2,8,B|392:192|304:168|376:96,3,104.999996870756
272,176,84143,2,8,B|184:240|184:240|136:272|80:256|72:192|72:192|72:112|184:80,1,420
264,72,86143,6,8,B|320:72|320:72|336:96|352:112|376:88|376:80,1,105
424,168,86810,2,0,B|440:256|400:288,1,105,0|8,0:0|0:0,0:0:0:0:
336,288,87476,1,0,0:0:0:0:
280,232,87810,2,0,B|188:277|189:313,1,104.999996870756,8|0,0:0|0:0,0:0:0:0:
112,296,88476,2,8,B|0:296,1,104.999996870756
112,208,89143,2,8,B|112:176|112:176|120:144|168:112|160:112,4,105
208,232,90810,5,4,0:0:0:0:
376,272,91476,2,0,B|351:331|254:322|256:314,1,104.999996870756,0|8,0:0|0:0,0:0:0:0:
256,240,92143,1,0,0:0:0:0:
72,264,92810,1,8,0:0:0:0:
104,120,93476,2,8,B|168:32|240:120,1,157.5,12|12,0:0|0:0,0:0:0:0:
248,192,94476,2,4,B|248:304,1,104.999996870756,12|12,0:0|0:0,0:0:0:0:
