osu file format v12

[General]
AudioFilename: Fuwa Fuwa Time.mp3
AudioLeadIn: 0
PreviewTime: 42460
Countdown: 1
SampleSet: Soft
StackLeniency: 0.7
Mode: 0
LetterboxInBreaks: 0
WidescreenStoryboard: 0

[Editor]
DistanceSpacing: 0.8
BeatDivisor: 2
GridSize: 8

[Metadata]
Title:Fuwa Fuwa Time
TitleUnicode:ふわふわ時間たいむ
Artist:HO-KAGO TEA TIME
ArtistUnicode:放課後ほうかごティータイム
Creator:Shivarion
Version:Hard
Source:K-ON!!
Tags:htt toyosaki aki hikasa yoko satou satomi kotobuki minako taketatsu ayana hirasawa yui akiyama mio tainaka ritsu kotobuki tsumugi nakano asuza k-on keion hokago tea time
BeatmapID:340762
BeatmapSetID:136118

[Difficulty]
HPDrainRate:5
CircleSize:4
OverallDifficulty:5
ApproachRate:7
SliderMultiplier:1.4
SliderTickRate:2

[Events]
//Background and Video events
0,0,"k-on-insert-cover.jpg",0,0
//Break Periods
2,63009,74576
//Storyboard Layer 0 (Background)
//Storyboard Layer 1 (Fail)
//Storyboard Layer 2 (Pass)
//Storyboard Layer 3 (Foreground)
//Storyboard Sound Samples
//Background Colour Transformations
3,100,163,162,255

[TimingPoints]
6810,333.333333333333,4,2,1,55,1,0
12143,-100,4,2,1,65,0,0
44143,-66.6666666666667,4,2,1,80,0,1
48476,-100,4,2,1,75,0,1
54643,-66.6666666666667,4,2,1,75,0,1
57309,-200,4,2,1,75,0,1
58976,-66.6666666666667,4,2,1,80,0,1
61143,-100,4,2,1,70,0,1
62809,-100,4,2,1,60,0,0
76143,-66.6666666666667,4,2,1,80,0,1
80976,-100,4,2,1,75,0,1
84309,-66.6666666666667,4,2,1,80,0,1
87809,-66.6666666666667,4,2,1,80,0,1
94809,-200,4,2,1,70,0,0
96976,-133.333333333333,4,2,1,70,0,0
99643,-100,4,2,1,65,0,0

[Colours]
Combo1 : 255,150,0
Combo2 : 5,240,5
Combo3 : 5,5,240
Combo4 : 240,5,5
Combo5 : 255,255,0
SliderBorder : 255,255,255

[HitObjects]
256,192,6810,1,8,0:0:0:0:
256,192,7143,1,8,0:0:0:0:
120,192,7476,2,8,B|80:200|64:136|80:72|128:80|128:80,1,140
200,24,8143,2,8,B|240:16|256:80|240:144|192:136|192:136,2,140
112,136,9143,1,8,0:0:0:0:
112,280,9476,6,8,B|256:280|256:280,1,140
320,160,10143,1,8,0:0:0:0:
417,262,10476,2,8,B|488:216|453:141,1,140
454,142,11143,1,8,0:0:0:0:
328,64,11476,2,8,B|408:64|408:64,2,70
256,64,11976,1,4,0:0:0:0:
184,64,12143,1,8,0:0:0:0:
112,64,12310,5,8,0:0:0:0:
40,64,12476,2,8,B|24:128|72:128|88:152,1,70
112,184,12810,1,8,0:0:0:0:
152,248,12976,2,8,B|152:296|200:328|232:328|296:280,2,140
232,224,13809,6,2,B|232:184|272:144,1,70,2|8,0:0|0:0,0:0:0:0:
328,112,14143,2,8,B|368:104|384:168|368:232|320:224|320:224,1,140
264,176,14643,2,8,B|184:176,1,70
128,176,14976,2,8,B|38:176,1,70
248,56,15476,5,2,0:0:0:0:
320,8,15643,2,8,B|360:0|376:64|360:128|312:120|312:120,3,140
264,64,16809,2,8,B|208:72|192:80|192:104|192:176,1,140
280,160,17309,2,8,B|352:160,1,70
376,80,17643,5,0,0:0:0:0:
304,32,17810,2,8,B|216:72,1,70
232,144,18143,2,8,B|232:248,1,70
312,200,18476,2,8,B|384:240|384:240,1,70
328,304,18810,2,8,B|280:368,1,70
224,304,19143,2,8,B|160:256,1,70
96,216,19476,1,8,0:0:0:0:
40,152,19643,1,8,0:0:0:0:
104,96,19810,1,8,0:0:0:0:
160,160,19976,1,8,0:0:0:0:
232,168,20143,6,8,P|256:240|192:224,1,140
112,256,20809,2,8,B|48:248|16:200|64:88|80:120,1,140
112,64,21309,1,8,0:0:0:0:
256,32,21809,5,12,0:0:0:0:
256,136,22143,5,8,0:0:0:0:
256,136,22309,2,8,B|256:216,1,70
256,288,22643,1,8,0:0:0:0:
256,288,22726,1,8,0:0:0:0:
256,288,22809,1,8,0:0:0:0:
336,264,22976,2,0,B|376:256|376:208|376:152,1,70
384,128,23309,5,8,0:0:0:0:
360,48,23476,2,8,B|328:40|288:56|272:96|280:144,1,140
200,152,23976,1,8,0:0:0:0:
120,128,24143,2,8,B|104:160|112:192|136:224|184:232,1,140
208,312,24643,6,8,B|240:320|280:304|296:264|288:216,1,140
288,144,25143,1,8,0:0:0:0:
368,144,25309,1,8,0:0:0:0:
368,224,25476,2,8,B|400:232|440:216|456:176|448:128,1,140
448,56,25976,5,8,0:0:0:0:
368,56,26143,2,8,B|200:56,1,140
160,104,26643,1,8,0:0:0:0:
80,104,26809,2,8,B|72:136|88:176|128:192|176:184,1,140
224,128,27309,2,8,B|248:144|272:176|256:224|224:248,1,140
144,248,27810,5,2,0:0:0:0:
144,248,27976,1,2,0:0:0:0:
152,328,28143,2,2,B|232:328,2,70
72,328,28643,1,2,0:0:0:0:
72,248,28810,1,8,0:0:0:0:
168,112,29143,5,10,0:0:0:0:
304,216,29476,1,2,0:0:0:0:
256,56,29809,1,2,0:0:0:0:
192,216,30143,1,2,0:0:0:0:
336,112,30476,1,2,0:0:0:0:
288,112,30810,1,8,0:0:0:0:
288,112,30893,1,8,0:0:0:0:
288,112,30976,2,8,B|256:72|224:120,1,70
168,104,31310,6,8,B|128:136|168:168,1,70,8|0,0:0|0:0,0:0:0:0:
136,224,31643,2,8,B|168:264|200:224,1,70,8|0,0:0|0:0,0:0:0:0:
264,192,31976,2,8,B|296:224|264:256,1,70,8|0,0:0|0:0,0:0:0:0:
248,320,32310,2,8,B|204:331|192:288,1,70,8|0,0:0|0:0,0:0:0:0:
216,240,32643,5,8,0:0:0:0:
296,200,32810,2,8,B|328:208|368:192|384:152|376:104,1,140
288,112,33310,1,8,0:0:0:0:
304,24,33477,2,8,B|272:8|240:16|208:40|200:88,1,140,4|8,0:0|0:0,0:0:0:0:
112,88,33977,2,8,B|104:120|120:160|160:176|208:168,1,140
208,256,34477,1,8,0:0:0:0:
296,256,34643,1,8,0:0:0:0:
312,168,34810,6,8,B|344:176|384:160|400:120|392:72,1,140,4|8,0:0|0:0,0:0:0:0:
312,88,35310,1,8,0:0:0:0:
248,40,35476,1,8,0:0:0:0:
168,32,35643,1,8,0:0:0:0:
104,80,35810,1,8,0:0:0:0:
56,144,35976,1,8,0:0:0:0:
104,208,36143,6,2,B|176:208|248:208,1,140,4|8,0:0|0:0,0:0:0:0:
321,202,36810,2,2,B|400:200|448:152,1,140,0|8,0:0|0:0,0:0:0:0:
416,88,37476,2,2,B|352:59|280:80,1,140,2|8,0:0|0:0,0:0:0:0:
160,96,38143,1,2,0:0:0:0:
160,96,38310,1,2,0:0:0:0:
160,96,38476,2,12,B|64:144|160:192,1,140
216,152,39143,5,0,0:0:0:0:
280,208,39310,1,4,0:0:0:0:
200,232,39476,1,8,0:0:0:0:
264,288,39643,1,8,0:0:0:0:
192,336,39810,5,4,0:0:0:0:
104,336,39976,1,2,0:0:0:0:
104,336,40143,1,12,0:0:0:0:
48,272,40310,2,0,B|24:240|48:208,1,70,2|0,0:0|0:0,0:0:0:0:
128,176,40643,1,12,0:0:0:0:
128,176,40810,1,12,0:0:0:0:
208,152,40976,1,8,0:0:0:0:
280,208,41143,1,4,0:0:0:0:
448,168,41476,6,4,B|544:240|400:312,2,140,12|4|4,0:0|0:0|0:0,0:0:0:0:
376,128,42476,1,0,0:0:0:0:
312,128,42643,1,4,0:0:0:0:
240,176,42976,2,8,B|200:232|160:200,1,70
264,80,43476,5,8,0:0:0:0:
272,72,43560,1,8,0:0:0:0:
280,64,43643,1,8,0:0:0:0:
288,56,43726,1,8,0:0:0:0:
296,48,43810,1,8,0:0:0:0:
304,40,43893,1,8,0:0:0:0:
312,32,43976,1,8,0:0:0:0:
313,30,44143,6,8,B|368:0|416:8|464:40|464:88|459:110,1,209.999993741512,12|8,0:0|0:0,0:0:0:0:
459,111,44643,1,8,0:0:0:0:
448,216,44809,2,8,B|464:248|440:328|368:344|368:344|336:312,1,210.000008010865
296,240,45310,5,8,0:0:0:0:
264,160,45476,2,8,B|224:104|152:136|104:184|144:264,1,209.999993741512
136,320,45976,1,8,0:0:0:0:
208,320,46143,2,8,B|256:296|256:224|232:168|296:128,3,210.000008010865
352,128,47309,5,8,0:0:0:0:
411,79,47476,2,8,B|408:80|488:56|496:104|544:168|496:216,1,209.999993741512
424,224,48143,2,8,B|397:273|316:261|254:221|266:141,1,209.999993741512
224,80,48810,5,8,0:0:0:0:
296,80,48976,1,10,0:0:0:0:
184,144,49143,1,2,0:0:0:0:
336,144,49310,1,4,0:0:0:0:
192,224,49476,2,0,B|336:224|336:224,1,140
424,120,50143,5,8,0:0:0:0:
344,64,50310,1,10,0:0:0:0:
248,40,50476,1,2,0:0:0:0:
152,64,50643,1,4,0:0:0:0:
96,144,50810,2,0,B|96:288|96:288,1,140
256,184,51476,5,4,0:0:0:0:
336,128,51810,1,2,0:0:0:0:
176,256,52143,1,4,0:0:0:0:
336,256,52476,1,2,0:0:0:0:
184,120,52810,1,4,0:0:0:0:
392,88,53143,1,8,0:0:0:0:
128,304,53476,1,8,0:0:0:0:
384,304,53810,1,4,0:0:0:0:
320,208,53976,5,0,0:0:0:0:
296,208,54060,1,8,0:0:0:0:
272,208,54143,1,8,0:0:0:0:
248,209,54226,1,8,0:0:0:0:
224,209,54310,1,8,0:0:0:0:
200,209,54393,1,8,0:0:0:0:
176,208,54476,1,8,0:0:0:0:
64,224,54643,6,8,B|32:168|40:120|72:72|120:72|176:80,1,209.999993741512,12|8,0:0|0:0,0:0:0:0:
264,80,55143,1,8,0:0:0:0:
384,80,55310,2,8,B|464:96|496:120|504:192|456:248|432:280,1,209.999993741512
384,232,55976,5,8,0:0:0:0:
328,192,56142,2,8,B|256:248|288:312|352:328|408:320,1,210.000008010865
464,328,56643,2,8,B|464:112,1,209.999993741512
464,48,57143,1,8,0:0:0:0:
392,40,57310,2,8,B|344:72|320:152|312:256|208:200,1,280
136,208,59143,6,8,B|94:249|144:320|208:360|280:280|280:336,1,210.000008010865
384,312,59809,2,8,B|424:304|472:288|504:184|456:152|384:136,1,210.000008010865
256,192,60810,5,4,0:0:0:0:
152,304,61476,5,4,0:0:0:0:
408,304,61976,1,4,0:0:0:0:
280,72,62476,1,4,0:0:0:0:
280,240,62809,1,4,0:0:0:0:
256,200,75476,5,8,0:0:0:0:
256,184,75560,1,8,0:0:0:0:
256,168,75643,1,8,0:0:0:0:
256,152,75726,1,8,0:0:0:0:
256,136,75810,1,8,0:0:0:0:
256,104,75976,1,8,0:0:0:0:
328,88,76143,5,12,0:0:0:0:
408,64,76310,1,2,0:0:0:0:
384,176,76476,1,8,0:0:0:0:
384,176,76643,1,2,0:0:0:0:
312,240,76810,1,2,0:0:0:0:
240,184,76976,2,8,P|192:144|144:56,1,105.000004005432
113,39,77476,5,8,0:0:0:0:
113,39,77643,1,2,0:0:0:0:
88,160,77810,1,8,0:0:0:0:
88,160,77976,1,8,0:0:0:0:
88,160,78143,2,8,B|24:184|8:240|24:328|160:328|160:328,1,209.999993741512
176,248,78643,1,8,0:0:0:0:
272,192,78809,2,8,B|496:192,2,209.999993741512
240,88,79810,5,8,0:0:0:0:
120,88,79976,1,8,0:0:0:0:
56,160,80143,2,8,B|32:200|0:256|32:336|152:352,1,209.999993741512
304,288,80810,1,8,0:0:0:0:
376,264,80976,1,8,0:0:0:0:
440,224,81143,6,2,B|400:168,1,70,10|2,0:0|0:0,0:0:0:0:
400,168,81476,1,10,0:0:0:0:
304,168,81810,2,2,B|235:168,1,70
240,168,82143,1,10,0:0:0:0:
296,96,82476,2,2,P|368:88|376:96,1,70
360,80,82810,1,8,0:0:0:0:
432,192,83143,5,2,0:0:0:0:
384,256,83310,1,2,0:0:0:0:
304,272,83476,1,2,0:0:0:0:
240,224,83643,1,10,0:0:0:0:
216,304,83810,2,0,B|104:256|200:128|216:152,1,140,8|8,0:0|0:0,0:0:0:0:
240,224,84476,2,0,B|288:160|200:48|104:152,1,209.999993741512,0|8,0:0|0:0,0:0:0:0:
368,184,85143,1,8,0:0:0:0:
352,184,85476,1,8,0:0:0:0:
336,184,85810,1,12,0:0:0:0:
224,176,85976,5,8,0:0:0:0:
224,160,86060,1,8,0:0:0:0:
224,144,86143,1,8,0:0:0:0:
224,128,86226,1,8,0:0:0:0:
224,112,86310,1,8,0:0:0:0:
224,96,86393,1,8,0:0:0:0:
224,80,86476,1,8,0:0:0:0:
136,40,86643,5,8,0:0:0:0:
72,88,86809,2,2,B|24:112|-16:168|24:232|88:280,1,209.999993741512
176,240,87309,1,8,0:0:0:0:
248,320,87476,2,8,B|304:328|368:304|368:232|368:160,1,209.999993741512
472,224,87976,5,8,0:0:0:0:
456,112,88143,2,8,B|456:64|432:16|376:-8|272:16,1,209.999993741512
344,112,88643,1,0,0:0:0:0:
232,144,88810,2,2,B|168:232|248:336,1,104.999996870756
320,248,89143,1,8,0:0:0:0:
424,192,89309,1,8,0:0:0:0:
344,112,89476,2,12,B|296:64|224:56|176:88|152:136,2,209.999993741512
160,120,90476,1,4,0:0:0:0:
160,120,90810,5,14,0:0:0:0:
344,128,91476,2,2,B|248:32|144:136,1,209.999993741512
256,256,92143,1,0,0:0:0:0:
32,32,92810,1,4,0:0:0:0:
192,280,93476,5,4,0:0:0:0:
256,32,93810,1,4,0:0:0:0:
312,280,94143,1,4,0:0:0:0:
120,128,94476,1,4,0:0:0:0:
384,128,94810,1,4,0:0:0:0:
320,88,95143,6,8,B|240:88,1,70
208,144,95809,1,8,0:0:0:0:
152,184,96143,2,8,B|112:256,1,70
176,280,96809,1,8,0:0:0:0:
280,288,97143,2,8,B|328:192,1,104.999996870756
408,128,97809,5,8,0:0:0:0:
304,128,98143,2,8,B|272:24,1,104.999996870756
176,64,98809,1,8,0:0:0:0:
80,104,99143,2,8,B|40:232,1,104.999996870756
192,224,99809,5,8,0:0:0:0:
304,320,100143,2,8,B|448:304,1,140
424,168,100809,1,8,0:0:0:0:
336,152,101143,2,8,B|164:160,1,140
104,160,101809,1,8,0:0:0:0:
160,288,102143,2,8,B|184:312|224:312|256:288|264:216,2,140
256,136,103143,1,8,0:0:0:0:
304,32,103476,2,8,B|448:32,1,140
392,288,104143,5,8,0:0:0:0:
312,288,104310,1,8,0:0:0:0:
112,232,104810,1,8,0:0:0:0:
112,152,104976,1,8,0:0:0:0:
320,112,105476,1,12,0:0:0:0:
