osu file format v13

[General]
AudioFilename: HISOST - ...ing 1.5.mp3
AudioLeadIn: 0
PreviewTime: 63472
Countdown: 1
SampleSet: Normal
StackLeniency: 0.3
Mode: 0
LetterboxInBreaks: 1
WidescreenStoryboard: 0

[Editor]
Bookmarks: 80081,81928
DistanceSpacing: 0.8
BeatDivisor: 4
GridSize: 8
TimelineZoom: 1

[Metadata]
Title:...ing 1.5
TitleUnicode:...ing 1.5
Artist:HISOST
ArtistUnicode:HISOST
Creator:FFFanatic
Version:Hard
Source:PopStage
Tags:ain053 mm201 aoitenshi metalmario201
BeatmapID:517054
BeatmapSetID:8201

[Difficulty]
HPDrainRate:5
CircleSize:5
OverallDifficulty:6
ApproachRate:6
SliderMultiplier:1.6
SliderTickRate:2

[Events]
//Background and Video events
0,0,"ing15-bg-enhanced.png",0,0
//Break Periods
2,32298,46279
2,107760,121510
//Storyboard Layer 0 (Background)
//Storyboard Layer 1 (Fail)
//Storyboard Layer 2 (Pass)
//Storyboard Layer 3 (Foreground)
//Storyboard Sound Samples
//Background Colour Transformations
3,100,163,162,255

[TimingPoints]
714,461.538461538462,4,1,0,60,1,0
63483,-100,4,1,0,60,0,1
78252,-100,4,1,0,60,0,0
137329,-100,4,1,0,60,0,1
144714,-100,4,1,0,60,0,0

[Colours]
Combo1 : 255,128,192
Combo2 : 184,220,250
Combo3 : 0,128,192
Combo4 : 112,85,56

[HitObjects]
96,192,15483,5,4,0:0:0:0:
136,72,15944,1,0,0:0:0:0:
256,32,16406,1,4,0:0:0:0:
376,72,16867,1,0,0:0:0:0:
376,72,17098,1,0,0:0:0:0:
256,128,17560,2,0,B|217:160|182:131|182:131,2,80,0|0|0,0:0|0:0|0:0,0:0:0:0:
256,128,18252,2,0,B|384:68|336:192|336:192,1,160
416,192,19175,5,4,0:0:0:0:
376,312,19637,1,0,0:0:0:0:
256,352,20098,1,4,0:0:0:0:
136,312,20560,1,0,0:0:0:0:
136,312,20790,1,0,0:0:0:0:
256,256,21252,2,0,B|295:224|330:253|330:253,2,80,0|0|0,0:0|0:0|0:0,0:0:0:0:
256,256,21944,2,0,B|128:316|176:192|176:192,1,160
96,192,22867,5,4,0:0:0:0:
136,72,23329,1,0,0:0:0:0:
256,32,23790,1,4,0:0:0:0:
376,72,24252,1,0,0:0:0:0:
376,72,24483,1,0,0:0:0:0:
256,128,24944,2,0,B|206:137|206:182|206:182,2,80,0|0|0,0:0|0:0|0:0,0:0:0:0:
256,128,25637,2,0,B|384:68|258:25|258:25,1,160
200,96,26560,5,4,0:0:0:0:
200,160,26790,1,0,0:0:0:0:
200,160,26906,1,0,0:0:0:0:
256,192,27137,1,0,0:0:0:0:
312,224,27367,1,0,0:0:0:0:
312,224,27483,1,0,0:0:0:0:
312,288,27714,1,0,0:0:0:0:
256,320,27944,1,4,0:0:0:0:
256,320,28175,1,0,0:0:0:0:
200,288,28406,5,4,0:0:0:0:
200,224,28637,1,0,0:0:0:0:
200,224,28752,1,0,0:0:0:0:
256,192,28983,1,0,0:0:0:0:
312,160,29214,1,0,0:0:0:0:
312,160,29329,1,0,0:0:0:0:
312,96,29560,1,0,0:0:0:0:
256,64,29790,1,4,0:0:0:0:
256,64,30021,1,0,0:0:0:0:
256,192,30252,12,4,32098,0:0:0:0:
256,192,47329,6,0,B|368:112|320:48|320:48,1,160
256,33,48252,2,0,B|212:20|176:24|176:24,1,80
96,48,48944,1,0,0:0:0:0:
48,96,49175,1,0,0:0:0:0:
32,160,49406,1,0,0:0:0:0:
48,224,49637,2,0,B|64:288|144:352|144:352,1,160
208,352,50329,1,0,0:0:0:0:
264,312,50790,5,0,0:0:0:0:
320,312,51021,1,0,0:0:0:0:
360,352,51252,1,0,0:0:0:0:
416,352,51483,2,0,B|368:306|448:208|448:208,1,160
448,208,52175,2,0,B|533:64|444:80|444:80,1,160
488,24,52867,2,0,B|488:96|448:80|448:80,1,80
448,80,53329,2,4,B|308:82|272:144|272:144,1,160
256,192,54714,6,0,B|251:261|256:272|256:272,1,80
288,320,55175,2,0,B|330:339|368:320|368:320,3,80
432,256,56329,2,0,B|464:224|464:176|464:176,2,80
432,256,57021,2,0,B|352:144|368:112|368:112,1,160
352,240,57944,6,4,B|192:128|256:352|256:352,1,240,4|4,0:0|0:0,0:0:0:0:
128,352,59098,1,0,0:0:0:0:
64,336,59329,1,0,0:0:0:0:
48,280,59560,2,4,B|48:174|80:72|160:8|256:8|352:8|432:72|464:174|464:280,1,720
256,192,62098,12,4,63021,0:0:0:0:
432,160,63483,6,0,B|432:104|400:80|400:80,2,80
432,224,64175,1,0,0:0:0:0:
432,224,64290,2,0,B|432:288|368:320|368:320,1,120,0|0,0:0|0:0,0:0:0:0:
368,319,64867,1,0,0:0:0:0:
368,160,65560,5,0,0:0:0:0:
352,104,65790,1,0,0:0:0:0:
304,72,66021,1,0,0:0:0:0:
256,104,66252,2,0,B|336:136|312:240|312:240,1,160
304,296,66944,1,0,0:0:0:0:
288,352,67175,6,0,B|344:352|368:320|368:320,2,80
224,352,67867,1,0,0:0:0:0:
224,352,67983,2,0,B|168:352|144:320|144:320,1,80
224,352,68560,1,0,0:0:0:0:
288,288,69252,2,0,B|248:360|136:344|136:344,1,160
148,346,69944,2,4,B|174:233|80:224|80:224,1,160
24,224,70637,1,0,0:0:0:0:
80,224,70867,6,0,B|80:280|112:304|112:304,2,80
80,160,71560,1,0,0:0:0:0:
80,160,71675,2,0,B|80:96|144:64|144:64,2,120,0|0|0,0:0|0:0|0:0,0:0:0:0:
144,224,72944,5,0,0:0:0:0:
160,280,73175,1,0,0:0:0:0:
208,312,73406,1,0,0:0:0:0:
256,280,73637,2,0,B|176:248|200:144|200:144,1,160
208,88,74329,1,0,0:0:0:0:
224,32,74560,6,0,B|168:32|144:64|144:64,2,80
288,32,75252,1,0,0:0:0:0:
288,32,75367,2,0,B|344:32|368:64|368:64,1,80
288,32,75944,1,0,0:0:0:0:
224,96,76637,2,0,B|264:24|376:40|376:40,1,160
364,38,77329,2,4,B|464:56|432:160|432:160,1,160
392,200,78021,1,0,0:0:0:0:
336,168,78252,6,0,B|272:104|272:104,1,80
232,112,78714,2,0,B|168:176|168:176,1,80
232,216,79175,5,0,0:0:0:0:
232,168,79406,1,0,0:0:0:0:
280,168,79637,1,4,0:0:0:0:
280,216,79867,1,0,0:0:0:0:
280,272,80098,6,0,B|344:208|344:208,1,80
336,168,80560,2,0,B|272:104|272:104,1,80
232,168,81021,5,0,0:0:0:0:
280,168,81252,1,0,0:0:0:0:
280,216,81483,1,4,0:0:0:0:
232,216,81713,1,0,0:0:0:0:
176,216,81944,6,0,B|240:280|240:280,1,80
280,272,82406,2,0,B|344:208|344:208,1,80
280,168,82867,5,0,0:0:0:0:
280,216,83098,1,0,0:0:0:0:
232,216,83329,1,4,0:0:0:0:
232,168,83560,1,0,0:0:0:0:
232,112,83790,6,0,B|168:176|168:176,1,80
176,216,84252,2,0,B|240:280|240:280,1,80
280,216,84713,5,0,0:0:0:0:
232,216,84944,1,0,0:0:0:0:
232,168,85175,1,4,0:0:0:0:
280,168,85406,1,0,0:0:0:0:
336,168,85637,6,0,B|272:104|272:104,1,80
232,112,86098,2,0,B|168:176|168:176,1,80
232,168,86560,5,0,0:0:0:0:
280,216,86790,1,0,0:0:0:0:
280,168,87021,1,4,0:0:0:0:
232,216,87252,1,0,0:0:0:0:
176,216,87483,6,0,B|240:280|240:280,1,80
280,272,87944,2,0,B|344:208|344:208,1,80
280,216,88406,5,0,0:0:0:0:
232,168,88637,1,0,0:0:0:0:
232,216,88867,1,4,0:0:0:0:
280,168,89098,1,0,0:0:0:0:
336,168,89329,6,0,B|272:104|272:104,1,80
232,112,89790,2,0,B|168:176|168:176,1,80
176,216,90252,2,0,B|240:280|240:280,1,80
280,272,90713,2,0,B|344:208|344:208,1,80,0|4,0:0|0:0,0:0:0:0:
232,168,91406,5,0,0:0:0:0:
232,216,91637,1,4,0:0:0:0:
280,216,91867,1,0,0:0:0:0:
280,168,92329,5,0,0:0:0:0:
280,216,92560,1,4,0:0:0:0:
232,216,92790,1,0,0:0:0:0:
96,232,93252,5,0,0:0:0:0:
120,192,93483,1,4,0:0:0:0:
96,152,93713,1,0,0:0:0:0:
184,192,94175,1,0,0:0:0:0:
208,232,94406,1,4,0:0:0:0:
184,272,94637,1,0,0:0:0:0:
272,232,95098,5,0,0:0:0:0:
296,192,95329,1,4,0:0:0:0:
272,152,95560,1,0,0:0:0:0:
360,192,96021,1,0,0:0:0:0:
384,232,96252,1,4,0:0:0:0:
360,272,96483,1,0,0:0:0:0:
440,192,96944,5,0,0:0:0:0:
400,144,97175,1,0,0:0:0:0:
344,120,97406,1,0,0:0:0:0:
280,112,97637,2,4,B|206:103|168:144|168:144,1,120
216,200,98675,1,0,0:0:0:0:
216,200,98790,1,0,0:0:0:0:
272,176,99021,1,0,0:0:0:0:
320,136,99252,1,0,0:0:0:0:
368,96,99483,2,4,B|424:56|488:128|488:128,1,120
416,72,100637,5,0,0:0:0:0:
392,112,100867,1,4,0:0:0:0:
416,152,101098,1,0,0:0:0:0:
328,192,101560,1,0,0:0:0:0:
304,152,101790,1,4,0:0:0:0:
328,112,102021,1,0,0:0:0:0:
240,72,102483,5,0,0:0:0:0:
216,112,102713,1,4,0:0:0:0:
240,152,102944,1,0,0:0:0:0:
152,192,103406,1,0,0:0:0:0:
128,152,103637,1,4,0:0:0:0:
152,112,103867,1,0,0:0:0:0:
80,192,104329,5,0,0:0:0:0:
56,232,104560,1,4,0:0:0:0:
56,280,104790,1,0,0:0:0:0:
104,344,105252,1,0,0:0:0:0:
152,344,105483,1,4,0:0:0:0:
192,320,105713,1,0,0:0:0:0:
264,280,106175,5,0,0:0:0:0:
264,232,106406,1,0,0:0:0:0:
288,192,106637,2,4,B|392:192|424:120|424:120,1,160
424,72,107329,1,0,0:0:0:0:
448,32,107560,1,0,0:0:0:0:
48,192,122560,6,4,B|203:92|352:192|352:192,1,320
464,192,124175,1,0,0:0:0:0:
464,192,124406,2,4,B|309:92|160:192|160:192,1,320
48,192,126252,6,4,B|203:292|352:192|352:192,1,320
464,192,127867,1,0,0:0:0:0:
464,192,128098,2,4,B|309:292|160:192|160:192,1,320
48,192,129944,6,4,B|203:92|352:192|352:192,1,320
464,192,131560,1,0,0:0:0:0:
464,192,131790,2,4,B|309:92|160:192|160:192,1,320
48,192,133637,6,0,B|112:112|184:112|184:112,1,160
240,112,134329,1,0,0:0:0:0:
304,112,134560,2,0,B|384:120|400:176|400:176,1,120
448,208,135137,1,0,0:0:0:0:
448,208,135252,1,0,0:0:0:0:
400,240,135483,5,0,0:0:0:0:
344,240,135713,1,0,0:0:0:0:
288,224,135944,1,0,0:0:0:0:
232,224,136175,1,0,0:0:0:0:
184,192,136406,1,0,0:0:0:0:
128,192,136637,1,0,0:0:0:0:
80,160,136867,5,4,0:0:0:0:
80,160,137098,1,0,0:0:0:0:
80,160,137329,6,0,B|80:104|112:80|112:80,2,80
80,224,138021,1,0,0:0:0:0:
80,224,138137,2,0,B|80:288|144:320|144:320,2,120
136,192,139175,6,4,B|304:192|304:192|272:192,1,160,0|4,0:0|0:0,0:0:0:0:
296,192,139867,1,0,0:0:0:0:
296,192,140213,6,0,B|384:192|384:192,1,80
376,192,140790,1,4,0:0:0:0:
432,224,141021,6,0,B|432:280|400:304|400:304,2,80
432,160,141713,1,0,0:0:0:0:
432,160,141829,2,0,B|432:96|368:64|368:64,2,120
376,192,142867,6,4,B|208:192|208:192|240:192,1,160,0|4,0:0|0:0,0:0:0:0:
216,192,143560,1,0,0:0:0:0:
216,192,143906,6,0,B|128:192|128:192,1,80
136,192,144483,1,4,0:0:0:0:
80,216,144713,6,4,B|80:288|120:328|120:328,1,120
118,326,145406,1,0,0:0:0:0:
168,328,145637,1,0,0:0:0:0:
208,296,145867,1,0,0:0:0:0:
192,248,146098,1,0,0:0:0:0:
232,216,146329,1,0,0:0:0:0:
280,216,146560,6,4,B|280:288|320:328|320:328,1,120
318,326,147252,1,0,0:0:0:0:
368,328,147483,1,0,0:0:0:0:
408,296,147713,1,0,0:0:0:0:
392,248,147944,1,0,0:0:0:0:
432,216,148175,1,0,0:0:0:0:
432,168,148406,6,4,B|432:96|392:56|392:56,1,120
394,58,149098,1,0,0:0:0:0:
344,56,149329,1,0,0:0:0:0:
304,88,149560,1,0,0:0:0:0:
320,136,149790,1,0,0:0:0:0:
280,168,150021,1,0,0:0:0:0:
232,168,150252,6,4,B|232:96|192:56|192:56,1,120
194,58,150944,1,0,0:0:0:0:
144,56,151175,1,0,0:0:0:0:
104,88,151406,1,0,0:0:0:0:
120,136,151637,1,0,0:0:0:0:
80,168,151867,1,0,0:0:0:0:
38,214,152098,6,0,B|38:262|70:294|70:294,1,80
64,288,152444,2,0,B|85:330|126:334|126:334,1,80
125,334,153021,6,0,B|126:246|126:246,1,80
125,255,153483,2,4,B|126:174|126:174,1,80
126,174,153944,6,0,B|126:222|158:254|158:254,1,80
152,248,154290,2,0,B|173:290|214:294|214:294,1,80
213,294,154867,6,0,B|214:206|214:206,1,80
213,215,155329,2,4,B|214:134|214:134,1,80
214,134,155790,6,0,B|214:182|246:214|246:214,1,80
240,208,156137,2,0,B|261:250|302:254|302:254,1,80
301,254,156713,6,0,B|302:166|302:166,1,80
301,175,157175,2,4,B|302:94|302:94,1,80
302,94,157637,6,0,B|302:142|334:174|334:174,1,80
328,168,157983,2,0,B|349:210|390:214|390:214,1,80
389,214,158560,6,0,B|390:126|390:126,1,80
389,135,159021,2,4,B|390:54|390:54,1,80
