osu file format v5

[General]
AudioFilename: 01-the-meaning-of-truth.mp3
AudioLeadIn: 0
PreviewTime: -1
Countdown: 1
SampleSet: Normal
StackLeniency: 0.7
Mode: 0

[Metadata]
Title:The Meaning of Truth
Artist:HIRO-X
Creator:lukewarmholiday
Version:Normal

[Difficulty]
HPDrainRate:5
CircleSize:4
OverallDifficulty:5
SliderMultiplier:2
SliderTickRate:1

[Events]
//Background and Video events
1,0,"falcon punch.wmv"
//Break Periods
2,78894,88957
2,152393,155882
//Storyboard Layer 0 (Background)
//Storyboard Layer 1 (Failing)
//Storyboard Layer 2 (Passing)
//Storyboard Layer 3 (Foreground)
//Storyboard Sound Samples
//Background Colour Transformations
3,100,163,162,255

[TimingPoints]
1170,674.302121225849,4,1,0,100

[HitObjects]
176,96,11958,2,2,B|176:304,3,200
256,304,14656,2,2,B|256:96,3,200
320,96,17353,2,2,B|320:304,3,200
384,304,20050,2,6,B|448:158|351:23|162:24|65:161|128:304,1,600
336,288,22747,5,0
224,256,23422,1,0
112,208,24096,1,0
48,112,24770,1,0
160,112,25444,2,0,B|368:112,3,200
144,192,28479,5,0
272,192,29153,1,4
336,192,29490,1,4
398,192,29827,2,4,B|398:336,2,100
320,192,30839,1,4
224,192,31345,2,0,B|161:257|95:254|32:192,2,200
384,160,33873,6,0,B|384:304,1,100
320,256,34547,2,0,B|208:256|208:256|176:256,1,100
160,256,35222,1,4
96,256,35559,1,4
94,192,35896,2,0,B|94:128,6,50
160,192,37245,2,4,B|174:192|224:192,1,50
160,64,38256,5,0
224,64,38593,1,0
288,64,38930,1,0
352,96,39268,2,4,B|352:192,1,50
256,64,40110,5,0
282,160,40616,1,0
221,195,40953,1,0
154,197,41290,1,0
87,214,41628,1,0
48,304,42133,2,4,B|64:304|272:304,1,200
256,192,44662,5,0
272,256,44999,1,0
208,256,45336,2,0,B|96:256,1,100
112,192,46011,1,0
160,144,46348,1,0
224,128,46685,1,0
288,160,47022,2,0,B|387:241|288:336,1,200
208,336,48202,1,4
96,160,49382,5,0
112,224,49719,1,0
166,250,50056,1,0
248,187,50562,1,4
288,240,50899,2,4,B|432:207|432:80,1,200
288,80,52416,2,4,B|177:88|192:208,1,150
224,256,54777,6,0,B|160:256,2,50
192,176,55451,2,0,B|196:127|221:109|260:96,1,100
336,96,56294,2,4,B|370:175|336:256,1,150
144,240,57474,2,0,B|272:240,1,100
304,224,58148,1,0
304,160,58485,1,0
256,112,58822,1,0
48,96,59665,5,0
128,96,60002,2,0,B|173:106|198:158|208:256,1,150
208,288,60845,1,0
288,288,61182,1,0
368,288,61520,2,4,B|464:240,1,100
416,144,62868,5,0
336,144,63205,2,0,B|335:81|305:48|208:48,1,150
224,192,64554,1,0
256,240,64891,1,0
304,272,65228,1,0
352,288,65565,1,0
400,272,65903,1,0
432,224,66240,1,0
373,207,66577,1,0
416,160,66914,1,0
432,96,67251,1,4
368,80,67588,5,0
304,64,67925,1,0
240,64,68262,1,0
192,80,68600,1,0
144,96,68937,2,4,B|107:168|61:201|80:50|82:53|176:192,1,250
206,272,70454,2,0,B|296:273,3,50
352,224,71803,5,4
416,192,72140,1,4
480,192,72477,2,4,B|485:254|485:305|472:336|424:361|352:357|272:208,1,350
224,160,74331,1,0
176,128,74668,1,0
224,96,75006,1,0
288,80,75343,1,0
347,63,75680,1,0
400,48,76017,2,4,B|436:56|472:149|433:316|377:376|245:372|107:378|34:311|20:150|73:52|96:46|144:32,1,800
256,192,90177,12,0,93380
256,192,95572,12,0,98438
64,80,101303,2,4,B|135:168|220:83|286:88|313:118|327:136|343:144|319:160|303:173|293:183|272:187|272:187|247:195|201:184|141:187|96:225|145:295|316:367,1,700
354,322,104001,1,0
400,272,104338,1,0
432,208,104675,1,0
448,144,105012,1,0
256,192,105686,12,0,109564
256,192,111755,12,4,115631
160,192,116812,6,0,B|288:192,1,100
416,192,117992,2,0,B|360:127|320:128,1,100
128,128,119341,1,0
128,224,119847,2,4,B|255:289|384:321|450:148|356:47|248:81|256:352,1,600
192,336,122207,1,0
128,304,122544,2,4,B|241:219|346:177|496:176,1,350
432,256,124398,5,0
384,240,124567,1,0
320,192,124904,5,0
256,192,125241,2,0,B|128:192,1,100
160,96,126084,2,4,B|288:96,1,100
416,160,127095,2,0,B|416:320|256:320,1,250
224,224,128781,2,4,B|224:112,1,100
256,128,130298,5,0
192,128,130636,2,0,B|119:193|192:256,1,150
320,256,131984,2,0,B|320:128,1,100
256,160,132658,2,0,B|160:192,1,100
112,224,133333,1,0
160,256,133670,1,0
224,272,134007,1,0
288,272,134344,1,0
352,272,134681,1,0
240,128,135356,5,0
176,128,135693,2,0,B|154:177|154:177|176:224,1,100
176,288,136367,1,0
240,288,136704,1,0
304,288,137041,1,4
448,288,137884,6,0,B|384:288,1,50
336,288,138390,2,0,B|335:227|335:227|400:224,1,100
432,224,139064,1,0
400,160,139401,1,4
304,128,139907,2,4,B|109:162|99:206|107:256|304:288,1,400
416,288,141761,5,0
368,320,142099,1,0
306,325,142436,2,0,B|191:327|149:264|144:225,1,200
129,173,143447,1,4
128,112,143784,1,0
144,48,144122,1,4
224,32,144627,2,4,B|480:32|539:526|510:192|0:192|1:352|-312:278|512:352,1,1250
256,192,149179,12,4,152045
256,320,157270,5,0
256,256,157608,2,0,B|256:32,1,200
160,80,158872,2,4,B|160:160,3,75
224,192,160136,2,0,B|272:192,3,25
320,224,161906,6,0,B|256:224,5,50
192,224,163086,2,0,B|80:224,1,100
112,160,163761,2,0,B|176:160,7,50
256,160,165278,1,0
384,160,165952,6,0,B|384:224,8,50
320,160,167638,2,0,B|288:160,2,25
192,288,168734,5,0
192,224,169071,1,0
192,160,169408,1,0
192,96,169745,1,0
256,96,170082,1,0
320,96,170419,1,0
320,160,170756,1,0
320,224,171094,1,0
320,288,171431,1,0
256,288,171768,1,0
192,288,172105,2,0,B|128:288,1,50
256,160,173454,5,0
320,160,173791,1,0
384,160,174128,2,4,B|384:224,1,50
392,270,174634,1,0
336,288,174971,2,0,B|336:256|336:240|320:240|288:240|240:240|208:240,1,150
160,288,175982,1,0
80,288,176488,2,0,B|-18:213|10:163|91:131|464:128,1,550
480,192,178848,5,0
480,128,179185,1,0
464,64,179522,1,0
416,32,179860,1,0
352,32,180197,2,0,B|144:32,1,200
96,32,181208,6,0,B|48:32|29:140|32:320,1,300
96,304,182557,1,0
160,304,182894,1,0
224,304,183231,1,0
320,304,183737,2,0,B|384:304,3,50
432,304,184580,1,0
464,256,184917,1,0
464,192,185254,1,0
464,112,185760,2,0,B|387:148|224:224,1,250
304,256,186940,6,0,B|-16:256|-16:177|320:176,1,500
480,208,189300,1,0
480,144,189637,1,0
464,96,189974,1,0
432,48,190311,1,0
352,32,190817,1,0
288,32,191154,2,0,B|288:224,1,150
352,208,191997,5,0
411,225,192335,1,0
466,248,192672,1,0
462,310,193009,1,0
406,338,193346,2,0,B|118:338,1,250
104,340,194526,2,4,B|8:340|8:212|8:116|42:52|106:37|143:35,1,400
192,32,196211,1,4
256,32,196549,2,4,B|480:32|480:192|480:352|256:352,1,550
224,352,198740,6,4,B|160:352,1,50
148,306,199246,1,4
224,352,199751,1,4
224,288,200089,1,4
224,224,200426,1,4
224,160,200763,1,4
256,192,201100,12,0,203460
320,160,204809,5,0
256,160,205146,1,0
192,160,205483,1,0
192,224,205820,1,0
256,224,206157,1,6
