osu file format v5

[General]
AudioFilename: 01-the-meaning-of-truth.mp3
AudioLeadIn: 0
PreviewTime: -1
Countdown: 1
SampleSet: Normal
StackLeniency: 0.7
Mode: 0

[Metadata]
Title:The Meaning of Truth
Artist:HIRO-X
Creator:lukewarmholiday
Version:Hard

[Difficulty]
HPDrainRate:7
CircleSize:6
OverallDifficulty:5
SliderMultiplier:2
SliderTickRate:1

[Events]
//Background and Video events
1,0,"falcon punch.wmv"
//Break Periods
2,152393,155882
//Storyboard Layer 0 (Background)
//Storyboard Layer 1 (Failing)
//Storyboard Layer 2 (Passing)
//Storyboard Layer 3 (Foreground)
//Storyboard Sound Samples
//Background Colour Transformations
3,100,163,162,255

[TimingPoints]
1150,674.460431654676,4,1,0,71

[HitObjects]
160,96,11940,2,2,B|384:95,3,200
336,160,14638,2,2,B|136:220,3,200
96,256,16998,1,2
160,256,17335,2,2,B|384:256,3,200
480,352,20033,2,6,B|418:223|353:135|161:135|96:225|32:352,1,600
256,192,23068,12,4,25933
160,192,28463,1,0
192,160,28631,1,0
224,192,28800,1,0
256,160,28969,1,0
320,192,29306,1,0
416,192,29812,1,4
416,256,30149,1,4
352,256,30486,1,4
288,256,30823,1,4
224,256,31160,1,4
192,256,31329,2,4,B|127:193|130:127|192:64,2,200
352,160,33858,5,0
384,160,34027,1,0
384,192,34195,1,0
352,256,34532,1,0
320,256,34701,2,0,B|214:256|214:256|224:256,1,100
160,256,35375,1,0
96,224,35713,1,0
96,160,36050,2,0,B|96:96,5,50
144,160,37230,2,4,B|158:160|208:160,1,50
160,64,38073,5,0
192,96,38242,1,0
224,64,38410,1,0
256,96,38579,1,0
288,64,38747,1,0
320,96,38916,1,0
384,96,39253,2,4,B|384:192,1,50
256,64,40096,5,0
230,160,40602,1,0
291,195,40939,1,0
358,197,41276,1,0
425,214,41614,1,0
464,304,42119,2,4,B|448:304|240:304,1,200
256,192,44648,5,0
320,256,44986,1,4
384,288,45323,1,0
384,256,45491,1,0
384,192,45829,1,0
384,128,46166,1,0
384,64,46503,1,4
320,64,46840,1,0
288,64,47009,1,0
224,64,47346,1,4
224,128,47683,1,0
224,160,47852,1,0
224,224,48189,2,4,B|96:224|16:176,1,200
96,160,49369,5,0
128,160,49538,1,0
128,192,49706,1,0
128,256,50044,1,0
160,256,50212,1,0
223,239,50549,1,4
288,224,50887,2,4,B|321:96|448:96,1,200
448,192,52404,2,4,B|440:303|320:288,1,150
224,256,54764,6,0,B|160:256,1,50
140,221,55102,1,0
120,160,55439,1,0
135,127,55607,1,0
191,96,55945,1,0
256,96,56282,2,4,B|258:175|224:256,1,150
192,192,56956,5,0
192,128,57125,1,0
256,128,57293,1,0
256,192,57462,2,0,B|384:192,1,100
416,128,58136,1,0
416,96,58305,1,0
384,32,58642,1,4
320,32,58979,1,4
64,32,59654,5,0
96,64,59822,1,0
128,96,59991,2,0,B|161:119|159:169|96:224,1,150
64,256,60834,1,0
64,288,61003,1,0
128,288,61340,1,4
192,288,61677,1,4
320,288,62857,5,0
416,288,63194,2,0,B|415:225|385:192|288:192,1,150
256,192,64375,1,0
224,192,64543,1,0
160,192,64881,1,0
102,149,65218,1,0
102,78,65555,1,0
160,37,65892,1,0
224,64,66229,1,0
224,96,66398,1,0
224,160,66735,1,4
160,192,67072,1,4
144,80,67747,5,0
176,64,67915,1,0
208,64,68084,1,0
240,64,68253,1,0
272,64,68421,1,0
304,80,68590,1,0
368,96,68927,2,0,B|405:168|451:201|432:50|430:53|336:192,1,250
192,192,70444,1,0
224,192,70613,1,0
288,192,70950,2,0,B|416:192,1,100
480,192,71793,5,0
416,192,72130,1,0
480,192,72468,2,0,B|485:254|485:305|472:336|424:361|352:357|224:352,1,350
190,309,74322,1,0
111,264,74659,1,0
90,238,74828,1,0
64,163,75165,1,0
128,80,75671,1,0
208,64,76008,2,4,B|399:53|488:149|449:316|393:376|261:372|123:378|50:311|27:141|118:60|218:63|208:64,1,900
96,96,79380,5,4
96,160,79717,2,0,B|96:224,2,50
160,160,80392,2,0,B|160:224,2,50
160,96,81066,1,0
192,96,81235,1,0
224,96,81403,1,0
224,160,81741,6,0,B|288:160,2,50
224,240,82415,2,0,B|160:240,2,50
288,240,83089,1,0
320,240,83258,1,0
352,240,83427,1,0
416,240,83764,2,0,B|416:304,2,50
416,176,84438,5,4
480,176,84775,1,4
480,240,85113,2,0,B|416:240,2,50
432,304,85787,2,0,B|496:304,2,50
368,304,86461,1,0
336,304,86630,1,0
304,304,86799,1,0
240,304,87136,6,0,B|240:224,2,50
176,304,87810,2,0,B|176:240,2,50
112,304,88485,1,0
112,272,88653,1,0
112,240,88822,2,4,B|160:176|160:32,1,200
64,32,90171,6,4,B|32:372|523:372|383:-31|187:24|52:71|9:223|192:272|270:281|343:298|343:298|448:320,1,950
64,64,95903,2,4,B|270:35|341:38|420:140|405:235|324:292|204:291|170:254|168:208|177:130|236:95|305:98|358:144|367:217|356:265|325:283|325:283|303:318|236:338|192:341|155:347|100:351|32:352,1,1050
96,96,101298,2,4,B|237:132|260:136|278:146|291:153|302:159|320:163|341:174|355:181|368:195|379:204|379:204|393:219|404:236|173:203|128:241|320:288|416:288,1,650
480,288,103827,1,0
480,256,103996,1,0
480,224,104164,1,0
480,192,104333,1,0
480,128,104670,1,0
448,128,104839,1,0
480,32,105682,2,4,B|416:32|375:38|245:8|231:138|231:138|247:204|398:222|364:36|160:32|111:25|67:36|32:64|32:128|32:192|18:229|32:288|101:352|178:354|238:352|292:361|422:338|467:310|480:160,1,1350
256,192,111751,12,4,115627
160,192,116809,6,0,B|288:192,1,100
320,192,117484,1,4
352,192,117652,1,4
416,192,117990,2,0,B|360:127|320:128,1,100
224,128,118833,1,4
192,128,119001,1,4
128,128,119338,1,4
128,224,119844,2,4,B|255:289|384:321|482:193|384:63|248:81|128:128,1,600
64,96,122205,1,0
64,128,122373,1,0
64,160,122542,2,4,B|177:245|282:287|432:288,1,350
416,192,124323,5,0
384,192,124481,1,0
352,192,124650,1,0
320,192,124818,1,0
288,192,124987,1,0
256,192,125155,2,0,B|112:192,1,125
160,144,125756,1,0
224,144,126093,2,4,B|352:144,1,100
416,160,127094,2,0,B|416:320|256:320,1,250
192,320,128274,1,0
224,288,128443,1,0
224,224,128780,2,4,B|224:112,1,100
256,128,130298,5,0
192,128,130635,2,0,B|119:193|192:256,1,150
288,256,131815,1,0
320,256,131984,2,0,B|320:128,1,100
256,160,132658,2,0,B|160:192,1,100
96,224,133332,1,0
160,256,133670,1,0
192,272,133838,1,0
256,272,134175,1,4
320,240,134513,1,4
272,128,135187,5,0
240,128,135356,1,0
176,128,135693,2,0,B|154:177|154:177|176:224,1,100
256,224,136367,1,0
288,224,136536,1,0
352,224,136873,1,4
352,288,137210,1,4
256,288,137896,5,0
224,288,138065,1,0
160,288,138390,2,0,B|99:289|99:289|96:224,1,100
96,192,139065,1,0
128,192,139233,1,0
192,192,139571,1,4
192,128,139908,2,4,B|387:162|397:206|389:256|192:288,1,400
64,352,141762,5,0
128,352,142100,1,0
160,352,142268,1,0
224,352,142605,1,4
311,303,143111,1,0
345,240,143448,1,4
348,174,143786,1,0
306,110,144123,1,4
224,32,144629,2,4,B|480:32|539:526|510:192|0:192|1:352|-312:278|512:320,1,1250
480,256,149181,1,4
480,320,149518,2,4,B|-41:322|-73:352|480:352,1,800
256,352,157105,5,0
256,320,157274,1,0
256,288,157442,1,0
256,256,157611,2,0,B|256:32,1,200
320,32,158960,1,0
320,85,159212,1,0
320,139,159465,1,0
320,192,159718,1,0
320,288,160140,1,0
325,288,160224,1,0
329,289,160308,1,0
368,288,160477,1,0
416,192,161839,5,0
384,224,162008,1,0
352,192,162176,1,0
320,224,162345,1,0
288,192,162514,1,0
256,224,162682,1,0
224,192,162851,1,0
192,224,163019,2,0,B|32:224,1,150
32,192,163694,5,0
64,160,163862,1,0
96,128,164031,1,0
128,96,164200,1,0
160,64,164368,1,0
192,64,164537,1,0
224,64,164705,1,0
256,64,164874,1,0
352,64,165211,1,0
432,128,166041,5,0
368,128,166378,1,0
336,128,166547,1,0
304,128,166715,1,0
272,128,166884,1,0
240,128,167052,1,0
208,128,167221,1,0
128,144,167573,5,0
129,150,167657,1,0
130,157,167741,1,0
129,184,167910,1,0
129,216,168078,1,0
129,248,168247,1,0
129,280,168416,1,4
192,288,168738,5,0
256,288,169076,1,0
320,288,169413,1,0
352,272,169581,1,0
416,288,169919,1,0
416,224,170256,1,0
352,224,170593,1,0
288,224,170930,1,0
256,224,171099,1,0
192,224,171436,1,0
128,224,171773,1,0
128,160,172110,1,0
160,160,172279,2,4,B|138:36|212:12|256:80,1,200
256,160,173459,5,0
288,160,173628,1,0
320,160,173796,1,0
384,160,174134,1,0
400,160,174302,1,0
400,224,174639,1,0
400,288,174977,2,0,B|332:288|240:288,1,150
224,288,175651,1,0
160,288,175988,1,0
80,288,176494,2,0,B|-18:213|10:163|91:131|464:128,1,550
480,192,178854,5,0
480,224,179023,1,0
480,256,179192,1,0
480,320,179529,1,0
480,352,179697,1,0
416,352,180035,1,0
352,352,180372,2,0,B|192:352,1,150
160,352,181046,6,0,B|64:352|25:254|32:128,1,250
32,96,182226,1,0
32,64,182395,1,0
96,32,182732,1,0
128,96,183069,1,0
224,32,183744,5,0
256,32,183912,1,0
288,32,184081,1,0
320,32,184250,1,0
384,32,184587,1,0
448,32,184924,1,0
480,32,185093,1,0
480,96,185430,1,0
480,160,185767,2,0,B|480:352|480:384,1,200
416,352,186947,6,0,B|80:368|20:275|48:32,1,600
128,32,189308,1,0
192,32,189645,1,0
256,32,189982,1,0
320,32,190319,1,0
352,32,190488,1,0
416,32,190825,1,0
480,32,191162,2,0,B|480:224,1,150
480,224,191837,5,0
448,224,192005,1,0
448,256,192174,1,0
480,256,192343,1,0
480,288,192511,1,0
480,320,192680,1,0
421,353,193017,2,4,B|133:353,1,250
112,352,194534,2,4,B|16:352|16:224|16:128|38:52|112:32|144:32,1,400
192,32,196220,1,4
256,32,196558,2,4,B|480:32|480:192|480:352|256:352,1,550
224,352,198749,5,4
192,352,198918,1,4
128,352,199255,1,4
256,352,199761,1,4
256,288,200098,1,4
256,224,200435,1,4
256,160,200773,1,4
256,64,201278,2,4,B|480:64|480:192|480:288|480:352|352:352|224:352|128:352|64:352|32:320|32:256|32:192|32:128|32:64,1,950
96,96,204819,5,4
96,160,205156,1,4
160,160,205493,1,4
160,224,205831,1,4
224,224,206168,2,2,B|448:224,3,200
416,288,208865,2,2,B|192:288,3,200
208,224,211226,1,2
192,288,211563,2,6,B|96:288|32:256|32:160|32:128|32:32|192:32|280:34|384:32,1,600
448,32,214261,6,2,B|448:256,3,200
448,288,216621,1,2
384,288,216958,2,2,B|160:288,3,200
224,336,219656,2,2,B|0:336,3,200
28,266,222016,1,2
32,192,222353,2,2,B|192:32,3,200
256,48,225051,2,2,B|256:256,2,200
256,192,226737,12,0,232468
