osu file format v5

[General]
AudioFilename: Pride.ogg
AudioLeadIn: 1800
PreviewTime: 71622
Countdown: 1
SampleSet: Normal
StackLeniency: 0.7
Mode: 0
LetterboxInBreaks: 1
EditorBookmarks: 22456
EditorDistanceSpacing: 1

[Metadata]
Title:Pride
Artist:HIGH and MIGHTY COLOUR
Creator:happy30
Version:Normal
Source:
Tags:

[Difficulty]
HPDrainRate:3
CircleSize:4
OverallDifficulty:6
SliderMultiplier:1.2
SliderTickRate:1

[Events]
//Background and Video events
0,0,"pride-bg.jpg"
//Break Periods
2,69483,71067
2,97650,97904
//Storyboard Layer 0 (Background)
//Storyboard Layer 1 (Failing)
//Storyboard Layer 2 (Passing)
//Storyboard Layer 3 (Foreground)
//Storyboard Sound Samples
//Background Colour Transformations
3,100,163,162,255

[TimingPoints]
1130,333.288894814025,4,2,0,100,1,0
22118,-100,4,1,0,90,0,0
22618,-100,4,1,0,40,0,0
23034,-100,4,1,0,54,0,0
23368,-100,4,1,0,70,0,0
23701,-100,4,1,0,85,0,0

[Colours]
Combo1 : 0,0,255
Combo2 : 255,0,0
Combo3 : 226,226,226

[HitObjects]
96,296,1463,2,0,B|352:296,1,240,2|0
288,336,2296,2,0,B|232:240|288:144,1,180,0|2
328,56,3129,1,0
208,56,3463,6,0,B|72:56,1,120,0|0
24,56,3962,2,0,B|72:144|16:296,1,240,0|0
72,320,4796,2,0,B|200:320,3,120,0|0|2|0
312,320,6129,1,0
176,200,6629,6,0,B|224:88,1,120
240,144,7129,2,0,B|376:144,1,120,0|2
328,192,7629,2,0,B|280:304,1,120
96,296,8462,1,0
160,192,8795,6,0,B|200:112|152:56,1,120
112,96,9295,2,0,B|384:232,1,300
152,304,11461,6,0,B|152:168,1,120,2|0
96,200,11961,2,0,B|224:256|288:168,2,180,0|2|0
96,136,13128,6,0,B|96:72,2,60
208,88,13794,1,2
320,136,14128,2,0,B|408:136|432:176|400:256,1,180
352,280,14794,2,0,B|104:280,2,240,2|0|2
208,88,16794,5,0
144,184,17127,1,0
224,272,17461,2,0,B|296:288,3,60,2|0|2|2
392,144,18461,5,0
320,48,18794,1,2
240,136,19127,1,2
240,136,19294,1,2
128,88,19627,1,0
128,208,19960,1,2
256,192,20127,12,4,21460
256,320,22793,5,0
201,308,22960,1,0
157,274,23127,1,0
132,225,23293,1,0
129,169,23460,1,0
151,118,23627,1,0
192,81,23793,1,0
244,64,23960,1,0
280,112,24126,6,0,B|408:112,1,120,4|0
368,160,24626,2,0,B|432:160,1,60
312,200,25126,1,0
208,264,25460,2,0,B|80:264,1,120,4|0
128,304,25960,2,0,B|40:304,3,60
120,72,27126,6,0,B|176:72|176:72|160:96|160:96|264:96,1,180,4|0
408,192,28126,2,0,B|352:224,1,60
296,224,28459,2,0,B|296:296,4,60,4|0|0|0|0
88,40,30126,6,0,B|88:176,1,120
32,136,30626,2,0,B|96:96|168:104|224:136,1,180
152,232,31459,2,0,B|200:256|240:224,1,60
304,312,31959,6,0,B|496:312,2,180
256,272,33125,2,0,B|256:208,5,60,0|0|2|2|0|0
256,152,34125,2,0,B|256:24,2,120,2|2|2
72,312,35458,6,0,B|112:256|112:192,1,120
48,192,35958,2,0,B|160:32,1,180
168,160,36791,2,0,B|208:96,1,60
304,48,37291,6,0,B|376:88|416:16|480:72,2,180
288,104,38458,2,0,B|328:160,1,60
360,200,38791,2,0,B|224:200,2,120
312,312,39791,5,0
200,272,40124,2,0,B|120:264|80:216|104:144,2,180
248,240,41291,2,0,B|248:56,1,180
336,144,42124,5,0
424,224,42457,1,0
360,328,42791,2,0,B|240:360|120:304,1,240
80,264,43624,2,0,B|112:200,1,60
56,176,43957,2,0,B|72:72|176:32,1,180
256,112,44790,6,0,B|320:112,4,60,0|0|2|2|2
360,328,46124,6,0,B|336:248|208:264,1,120
288,320,46623,2,0,B|288:136,1,180
176,176,47457,2,0,B|176:248,1,60
88,320,47957,6,0,B|24:232|56:128,2,180
144,312,49123,2,0,B|208:312,1,60
408,192,49956,2,0,B|344:192,1,60
288,88,50456,2,0,B|160:88,1,120
256,312,51456,6,0,B|312:272|384:280,1,120
344,336,51956,2,0,B|328:152,1,180
216,192,52789,2,0,B|240:144|224:104,1,60
168,32,53289,6,0,B|352:32,2,180
104,32,54456,2,0,B|120:96,1,60
64,120,54789,2,0,B|48:200|104:248|144:288,1,180
96,328,55456,6,0,B|296:328,2,180
40,296,56622,2,0,B|32:232,1,60
144,192,57122,1,0
144,192,57289,2,0,B|352:192,1,180
416,112,58122,6,0,B|464:232,1,120
392,320,58788,2,0,B|144:320,1,240
144,256,59622,2,0,B|80:256,1,60
48,208,59955,1,0
408,232,60955,5,0
424,176,61122,1,0
424,112,61288,2,0,B|344:-16|152:56,1,300,4|0
56,120,62455,5,0
112,224,62788,2,0,B|176:272|240:208,1,120,2|0
256,272,63288,2,0,B|312:320|376:264,1,120,2|0
424,272,63788,2,0,B|424:200,1,60,2|2
400,152,64121,2,0,B|272:152,1,120,2|0
248,104,64621,2,0,B|392:104,1,120,2|0
344,48,65121,5,2
224,48,65454,1,0
104,48,65788,1,2
0,48,66121,1,4
0,48,66287,2,0,B|48:120|32:176,1,120
24,216,66787,2,0,B|272:216,1,240
200,320,67787,6,0,B|288:320,1,60,4|0
312,352,68121,2,0,B|384:304|376:224,1,120
432,256,68621,2,0,B|432:128,2,120,4|0|0
416,88,72120,6,0,B|160:88,1,240,4|0
224,48,72953,2,0,B|280:144|224:240,1,180
184,328,73786,1,0
304,328,74120,2,0,B|440:328,1,120
488,328,74620,6,0,B|440:240|496:88,1,240,4|0
440,64,75453,2,0,B|312:64,3,120,0|0|2|2
200,64,76786,1,2
336,184,77286,6,0,B|288:296,1,120,4|0
272,240,77786,2,0,B|136:240,1,120
184,192,78286,2,0,B|232:80,1,120,0|4
416,88,79119,5,0
352,192,79452,2,0,B|312:272|360:328,1,120
400,288,79952,2,0,B|128:152,1,300
360,80,82119,6,0,B|360:216,1,120
416,184,82619,2,0,B|288:128|224:216,2,180
416,248,83785,6,0,B|416:312,2,60,0|0|4
304,296,84452,1,4
192,240,84785,2,0,B|104:240|80:200|112:120,1,180
160,96,85452,2,0,B|408:96,2,240,0|4|4
304,296,87451,5,0
368,200,87785,1,0
288,112,88118,1,0
120,240,89118,5,0
192,336,89451,1,0
272,248,89784,1,0
272,248,89951,1,0
384,296,90284,1,0
408,176,90618,2,0,B|328:32|256:8|184:32|104:176,1,420
56,280,92117,2,0,B|184:272,1,120
272,344,92784,5,0
392,320,93117,1,0
456,216,93451,1,4
136,56,94450,1,0
240,112,94784,1,0
344,56,95117,1,0
344,56,95284,1,0
408,152,95617,1,0
256,192,95950,12,0,97450
360,192,98950,6,0,B|360:272,3,60,0|2|2|2
256,312,99783,5,0
200,288,99950,1,2
176,232,100116,1,2
176,168,100283,2,0,B|112:168,2,60,2|2|2
336,216,100950,2,0,B|400:216,2,60,0|2|2
256,56,101783,5,0
304,88,101949,1,2
360,80,102116,1,2
416,104,102283,2,0,B|496:80,2,60,2|2|2
312,248,103116,1,2
200,304,103449,6,0,B|168:240,1,60,4|0
200,200,103782,2,0,B|232:256,1,60
264,304,104116,2,0,B|448:304,2,180,4|0|4
264,304,105616,2,0,B|328:200|248:112,1,180
40,56,106782,5,4
88,232,107282,1,0
336,72,107782,1,0
376,184,108115,1,2
280,256,108449,6,0,B|208:296,4,60,4|0|0|0|0
