osu file format v5

[General]
AudioFilename: Pride.ogg
AudioLeadIn: 1800
PreviewTime: 71622
Countdown: 1
SampleSet: Normal
StackLeniency: 0.7
Mode: 0
LetterboxInBreaks: 1
EditorBookmarks: 22456
EditorDistanceSpacing: 1.5

[Metadata]
Title:Pride
Artist:HIGH and MIGHTY COLOUR
Creator:happy30
Version:Hard
Source:
Tags:

[Difficulty]
HPDrainRate:6
CircleSize:4
OverallDifficulty:7
SliderMultiplier:1
SliderTickRate:1

[Events]
//Background and Video events
0,0,"pride-bg.jpg"
//Break Periods
2,97650,98054
//Storyboard Layer 0 (Background)
//Storyboard Layer 1 (Failing)
//Storyboard Layer 2 (Passing)
//Storyboard Layer 3 (Foreground)
//Storyboard Sound Samples
//Background Colour Transformations
3,100,163,162,255

[TimingPoints]
1130,333.288894814025,4,2,0,100,1,0
22118,-100,4,1,0,90,0,0
22618,-100,4,1,0,40,0,0
23034,-100,4,1,0,54,0,0
23368,-100,4,1,0,70,0,0
23701,-100,4,1,0,85,0,0
24118,-100,4,1,0,100,0,0
29784,-100,4,1,0,85,0,0

[Colours]
Combo1 : 0,0,255
Combo2 : 255,0,0
Combo3 : 226,226,226

[HitObjects]
72,144,963,1,0
56,192,1130,1,0
72,240,1296,2,0,B|176:312|240:240,1,150,2|0
344,184,2129,2,0,B|376:152|384:120,1,50,2|0
448,80,2629,6,0,B|504:152|456:240,1,150,2|0
408,304,3463,2,0,B|376:360|288:344,1,100,2|0
280,328,3962,6,0,B|216:368|104:312,1,150,2|0
56,264,4796,2,0,B|8:200|16:144|40:88|72:64,2,200,2|0|2
104,240,6295,5,0
144,208,6462,1,0
184,176,6629,2,0,B|256:232|280:216|312:160,1,150,2|0
384,104,7462,2,0,B|432:112|440:160,1,50,2|0
480,208,7962,6,0,B|496:312|384:320,1,150,2|0
304,336,8795,2,0,B|240:328|216:256,1,100,2|0
176,288,9295,6,0,B|40:224|80:72,1,250,2|0
464,176,11461,6,0,B|464:248|416:272,1,100,2|0
376,248,11961,2,0,B|304:248|248:320,1,150,2|0
184,128,13128,5,0
160,176,13295,1,0
120,208,13461,2,0,B|88:272|8:272,1,100,2|0
136,304,14128,2,0,B|184:272|232:296,1,100,2|0
320,336,14794,6,0,B|424:344|480:280|480:192,2,200,2|0|2
160,216,16794,5,0
256,216,17127,1,0
352,216,17461,1,4
80,80,18461,5,0
80,80,18794,2,0,B|160:40|216:96,1,100,2|0
200,112,19294,2,0,B|272:152|320:104,1,100,2|0
256,192,20127,12,4,22127
208,144,22793,5,4
208,144,22960,1,0
304,144,23127,5,0
304,144,23293,1,0
304,240,23460,5,4
304,240,23627,1,0
208,240,23793,2,0,B|184:272|152:272,1,50
216,320,24126,6,0,B|240:352|264:344,1,50,4|0
408,328,24626,1,0
408,328,24793,2,0,B|448:320|456:288,1,50
424,232,25126,1,0
448,160,25293,1,0
408,96,25460,6,0,B|432:56|472:64,2,50
344,144,25960,2,0,B|304:120|264:144,2,50
320,216,26459,1,4
56,72,27126,5,0
56,312,27626,1,0
280,328,28126,5,4
344,288,28293,1,0
368,216,28459,2,0,B|384:184|360:144,1,50
344,96,28792,1,0
280,56,28959,1,0
280,56,29126,1,0
136,104,29459,6,0,B|128:168,1,50
200,152,29792,2,0,B|192:208,1,50
264,208,30126,2,0,B|248:264,1,50,0|0
224,328,30459,1,0
152,304,30626,6,0,B|88:296|152:232|56:208,1,100,0|0
48,168,31126,2,0,B|112:152,1,50,0|0
64,88,31459,2,0,B|136:88,1,50,0|0
176,56,31792,1,0
224,112,31959,6,0,B|296:192|216:192|288:240,2,150,0|0|0
288,72,33125,2,0,B|360:48,1,50,2|0
344,128,33459,2,0,B|408:144,1,50,2|2
336,200,33792,5,2
336,200,33958,1,0
288,256,34125,2,0,B|288:320,1,50,2|0
216,272,34458,2,0,B|184:320,1,50,2|2
112,296,34792,6,0,B|104:232,1,50
176,248,35125,2,0,B|168:192,1,50
240,192,35458,6,0,B|224:136,1,50,0|0
200,72,35792,1,0
128,96,35958,2,0,B|64:104|128:168|32:192,1,100,0|0
24,232,36458,2,0,B|88:248,1,50,0|0
40,312,36791,2,0,B|112:312,1,50,0|0
152,344,37125,1,0
200,288,37291,6,0,B|272:256|192:208|264:160,2,150,0|0|0
264,328,38458,1,0
336,304,38625,1,0
360,232,38791,2,0,B|312:200,1,50,0|0
368,144,39124,2,0,B|416:120,1,50,0|0
456,184,39458,6,0,B|496:248|408:280|488:336,2,150,0|0|0
456,104,40624,2,0,B|488:56,1,50,0|0
336,56,41124,2,0,B|304:104,1,50,0|0
256,152,41457,6,0,B|216:216|304:248|224:304,2,150,0|0|0
184,120,42624,1,0
112,152,42791,2,0,B|72:88|160:56|80:0,2,150,0|0|0
128,224,43957,1,0
152,296,44124,6,0,B|192:336,1,50,2|0
216,264,44457,2,0,B|272:288,1,50,2|2
272,208,44790,2,0,B|336:224,1,50,2|0
328,144,45124,2,0,B|384:152,1,50,2|2
448,152,45457,1,0
448,152,45624,1,0
416,216,45790,1,0
416,216,45957,1,0
440,288,46124,6,0,B|384:320,1,50,0|0
336,264,46457,1,0
288,320,46623,2,0,B|232:336|208:240|136:296,1,150,0|0
80,312,47290,1,0
56,240,47457,2,0,B|40:192,1,50,0|0
112,176,47790,2,0,B|152:136,1,50,0|0
216,168,48123,6,0,B|288:200|320:120|376:176,2,150,0|0|0
184,96,49290,1,2
248,64,49456,2,0,B|304:40,1,50,2|0
368,32,49790,2,0,B|416:64,1,50,2|2
456,120,50123,2,0,B|424:160,1,50,2|0
440,232,50456,2,0,B|448:288,1,50,2|2
392,336,50790,6,0,B|328:352|296:304|240:336,1,150,0|0
184,288,51456,2,0,B|240:240|216:192,1,100,0|0
240,128,51956,2,0,B|288:160|344:128,1,100,0|0
392,80,52456,1,0
440,224,52789,2,0,B|392:264,1,50,0|0
272,336,53289,6,0,B|216:248|128:264,1,150,0|0
72,256,53956,2,0,B|96:200,1,50
136,144,54289,2,0,B|184:200,1,50,0|0
224,128,54622,2,0,B|336:160|368:104,1,150,0|0
416,160,55289,6,0,B|424:216,1,50,0|0
376,264,55622,2,0,B|328:240,1,50,0|0
320,312,55956,2,0,B|360:352,1,50,0|0
424,328,56289,1,0
472,272,56455,1,0
480,200,56622,1,0
456,128,56789,1,0
344,32,57122,5,0
280,72,57289,2,0,B|248:128|320:224,1,150,0|0
192,112,58122,1,0
256,248,58455,1,0
88,328,58788,5,0
40,272,58955,1,0
32,200,59122,1,0
56,128,59288,1,0
104,72,59455,1,0
168,40,59622,2,0,B|224:56,1,50,0|0
208,128,59955,2,0,B|280:160|352:96,1,150,0|0
346,100,60622,1,0
424,224,60955,5,0
432,296,61122,1,0
376,336,61288,2,0,B|312:352|256:328,1,100,4|0
232,280,61788,2,0,B|184:304|136:264,1,100
80,304,62288,2,0,B|64:248,1,50
32,192,62621,1,0
88,144,62788,6,0,B|136:184|200:128,1,100,2|0
248,104,63288,2,0,B|296:72|352:104,1,100,2|0
328,168,63788,2,0,B|376:208,1,50,2|0
440,224,64121,6,0,B|424:288,1,50,2|0
352,288,64454,1,2
280,296,64621,2,0,B|224:272|184:344|136:304,1,150,2|2
40,184,65454,6,0,B|112:176|112:104,1,100,2|2
240,48,66121,1,2
240,48,66287,2,0,B|256:120|304:128,1,100
368,136,66787,1,2
464,248,67121,6,0,B|440:296,1,50,2|0
392,232,67454,2,0,B|336:272,1,50,2|0
288,296,67787,1,2
216,280,67954,1,0
160,232,68121,6,0,B|112:184|128:128,1,100,2|0
48,160,68621,2,0,B|80:224|56:264,1,100,2|0
24,320,69120,2,0,B|80:352,1,50,2|0
136,320,69454,1,4
256,192,69620,12,4,70787
400,288,71620,5,0
432,224,71787,1,0
432,152,71953,2,0,B|416:88|360:64,1,100,4|0
304,96,72453,2,0,B|248:128,1,50,0|0
216,56,72787,2,0,B|160:32,1,50,0|0
128,96,73120,1,0
56,80,73287,6,0,B|24:136|56:192,1,100,4|0
64,248,73786,2,0,B|104:288,1,50,0|0
136,352,74120,2,0,B|184:320,1,50,0|0
248,352,74453,1,0
320,328,74620,6,8,B|376:288|352:184,1,150,4|0
208,240,75453,2,0,B|232:128,1,100,4|0
112,48,76120,2,0,B|136:112|96:160,1,100
64,208,76619,1,0
24,272,76786,6,0,B|72:304,1,50
136,288,77119,1,0
200,328,77286,2,0,B|264:336,1,50,0|0
288,272,77619,2,0,B|352:288,1,50,0|0
360,216,77953,1,0
296,184,78119,2,0,B|264:176|256:128,1,50,0|0
200,192,78453,1,0
128,176,78619,6,0,B|120:96|152:64,1,100,4|0
216,72,79119,2,0,B|280:104,1,50,0|0
336,104,79452,2,0,B|384:64,1,50,0|0
448,96,79786,1,0
448,96,79952,2,0,B|472:160|432:256,1,150
320,336,80786,6,0,B|336:264|296:232,1,100
248,192,81285,1,4
112,264,81619,1,0
112,264,81785,1,0
72,120,82119,6,0,B|136:144|168:88,1,100,4|0
216,48,82619,2,0,B|272:88,1,50,0|0
328,56,82952,1,0
392,88,83119,2,0,B|440:128|416:192,1,100,0|0
344,200,83619,2,0,B|368:256,1,50,0|0
296,272,83952,5,0
232,312,84118,2,0,B|168:336|80:280|96:208,1,200,0|0
72,64,85118,1,0
224,56,85452,6,0,B|264:112|248:160,1,100,4|0
216,216,85952,2,0,B|240:272|312:240,1,100,0|0
344,304,86451,2,0,B|400:280,1,50,4|0
408,208,86785,2,0,B|432:152|376:120,1,100,4|0
328,64,87285,2,0,B|296:128|248:80,1,100,0|0
184,40,87785,5,0
136,96,87951,1,0
64,88,88118,2,0,B|0:200|104:280,1,200,0|0
224,200,89118,2,0,B|264:240|328:200,1,100,0|0
440,120,89784,1,0
440,120,89951,2,0,B|464:176|456:232,1,100
400,264,90451,1,0
376,336,90618,6,0,B|288:352|224:304,1,150,4|0
88,272,91451,2,0,B|192:216,1,100,0|0
56,136,92117,1,4
176,48,92451,1,4
328,56,92784,2,0,B|368:104|328:160,1,100,0|0
456,232,93451,6,0,B|456:296|400:320,1,100,4|0
360,256,93950,2,0,B|288:248|248:288,1,100,0|0
224,336,94450,2,0,B|176:312,1,50,4|0
152,240,94784,2,0,B|176:192,1,50,0|0
112,152,95117,1,0
136,80,95284,2,0,B|192:40|240:72,1,100,0|0
256,192,95950,12,0,97450
256,192,98950,5,0
312,240,99116,1,4
384,216,99283,1,0
432,272,99450,1,0
296,328,99783,5,0
224,344,99950,1,0
176,280,100116,1,4
104,312,100283,1,0
176,280,100450,1,0
144,208,100616,1,0
144,208,100950,6,0,B|184:160,1,50
224,112,101283,1,0
224,112,101616,5,0
280,160,101783,1,0
344,120,101949,1,0
392,176,102116,1,4
456,136,102283,1,0
392,176,102449,1,0
400,248,102616,1,0
400,248,103283,6,0,B|344:288,1,50
280,280,103616,2,0,B|240:248,1,50
168,256,103949,1,0
88,256,104116,5,6
152,120,104449,1,0
152,120,104616,1,2
296,152,104949,1,0
296,152,105116,1,2
416,344,105616,6,0,B|448:280|440:240,1,100,2|0
432,176,106116,1,2
160,56,106782,6,0,B|88:48|56:96,1,100,2|0
96,152,107282,2,0,B|128:208|96:256,1,100,2|0
64,312,107782,1,2
136,328,107949,1,0
208,312,108115,1,2
232,160,108449,5,2
304,136,108615,1,0
368,168,108782,1,2
400,232,108948,1,0
360,296,109115,1,4
