osu file format v9

[General]
AudioFilename: Ichirin No Hana.mp3
AudioLeadIn: 0
PreviewTime: -1
Countdown: 0
SampleSet: Soft
StackLeniency: 0.7
Mode: 0
LetterboxInBreaks: 1

[Editor]
DistanceSpacing: 0.8
BeatDivisor: 3
GridSize: 8

[Metadata]
Title:Ichirin No Hana
Artist:HIGH And MIGHTY COLOR
Creator:Zexous
Version:Normal
Source:Bleach Opening 3
Tags:bleach op

[Difficulty]
HPDrainRate:4
CircleSize:5
OverallDifficulty:4
ApproachRate:5
SliderMultiplier:1.4
SliderTickRate:1

[Events]
//Background and Video events
0,0,"beatmap logo bleach.jpg"
//Break Periods
2,25753,33601
//Storyboard Layer 0 (Background)
//Storyboard Layer 1 (Fail)
//Storyboard Layer 2 (Pass)
//Storyboard Layer 3 (Foreground)
//Storyboard Sound Samples
//Background Colour Transformations
3,100,163,162,255

[TimingPoints]
10040.5700179165,308.229733894996,4,2,0,100,1,0

[HitObjects]
256,192,2951,12,0,9526
120,192,10040,5,0
256,56,11273,1,0
432,192,12506,1,0
192,224,13739,1,0
256,128,14150,1,0
320,224,14561,1,0
200,192,14972,1,0
256,128,15280,1,0
304,192,15485,1,0
256,248,15691,1,0
176,192,16205,1,0
256,128,16513,1,0
320,192,16718,1,0
392,144,16924,1,0
456,88,17232,1,0
256,56,18465,2,0,B|360:192|248:368|88:200,2,373.333333333333
256,80,20725,1,0
256,192,21034,1,0
256,296,21547,1,0
256,192,21958,1,0
256,80,22267,1,0
288,88,23191,1,0
320,88,23294,1,0
352,192,23602,1,0
272,240,24013,1,0
168,264,24321,1,0
56,192,24732,2,0,B|456:192,1,373.333333333333
248,160,34801,5,0
312,184,35109,1,0
288,240,35315,1,0
224,216,35623,1,0
248,160,35931,2,0,B|440:160,1,186.666666666667
416,216,36548,1,0
368,176,36856,1,0
424,152,37164,1,0
472,200,37575,1,0
448,264,37883,1,0
384,288,38192,1,0
320,272,38500,1,0
272,224,38808,1,0
248,160,39116,5,0
200,120,39425,1,0
136,104,39733,1,0
80,128,40041,1,0
56,184,40349,1,0
88,240,40658,1,0
152,248,40966,1,0
192,200,41274,1,0
152,152,41582,1,0
112,200,41890,1,0
152,248,42199,1,0
216,248,42507,1,0
264,208,42815,1,0
288,152,43123,1,0
344,192,43432,1,0
304,240,43740,1,0
264,208,44048,1,0
56,328,44665,5,0
56,264,44973,1,0
56,200,45281,1,0
56,136,45589,1,0
56,72,45897,1,0
112,112,46206,1,0
168,152,46514,1,0
304,232,46719,1,0
360,272,47028,1,0
408,312,47336,1,0
464,344,47644,1,0
464,280,47952,1,0
464,216,48261,1,0
464,152,48569,1,0
464,88,48877,1,0
400,88,49185,1,0
336,88,49493,1,0
272,88,49802,1,0
208,88,50110,1,0
144,88,50418,1,0
80,88,50726,1,0
80,152,51035,1,0
80,216,51343,1,0
80,280,51651,1,0
144,280,51959,1,0
208,280,52268,1,0
208,216,52576,1,0
144,216,52884,1,0
144,280,53192,1,0
208,280,53500,1,0
208,216,53809,1,0
248,96,54322,2,0,B|560:296|232:440|144:136,1,560
200,80,56069,2,0,B|80:304|192:320,1,280
190,319,56788,2,0,B|352:304|352:96,1,280
200,72,58535,2,0,B|128:184|152:240|176:280|256:352,1,280
223,321,59254,2,0,B|352:256|400:248|408:112,1,280
256,104,61001,1,0
256,168,61412,1,0
256,232,61617,1,0
64,168,62336,5,0
104,120,62645,1,0
144,72,62953,2,0,B|256:32|336:96,1,186.666666666667
400,152,63878,1,0
248,320,64186,5,0
248,256,64494,1,0
248,216,64699,6,0,B|248:80,1,93.3333333333333
248,40,65213,1,0
312,40,65624,1,0
376,40,65932,1,0
408,64,66138,1,0
440,144,66446,1,0
64,192,67371,5,0
96,144,67782,6,0,B|176:80,1,93.3333333333333
168,85,68090,6,0,B|240:160,1,93.3333333333333
233,153,68398,6,0,B|304:64,1,93.3333333333333
291,79,68706,6,0,B|360:80,1,46.6666666666667
360,152,69015,5,0
352,232,69323,1,0
296,288,69631,1,0
272,296,69837,1,0
176,272,70145,1,0
136,224,70556,1,0
176,104,70864,1,0
208,80,71070,1,0
232,64,71378,2,0,B|408:248,1,233.333333333333
400,312,72713,5,0
376,288,72919,1,0
304,320,73330,1,0
264,272,73535,1,0
216,320,73844,2,0,B|64:320,1,140
64,280,74974,5,0
112,232,75282,1,0
168,272,75693,1,0
288,184,76207,1,0
336,240,76412,1,0
256,192,77542,12,0,79700
