osu file format v9

[General]
AudioFilename: 22-CurriculuMachine (Theme Song).mp3
AudioLeadIn: 1996
PreviewTime: 53510
Countdown: 0
SampleSet: Soft
StackLeniency: 0.7
Mode: 0
LetterboxInBreaks: 1

[Editor]
Bookmarks: 13700,34234,53486,70491,108673,120224,137229
DistanceSpacing: 0.8
BeatDivisor: 4
GridSize: 8

[Metadata]
Title:CurriculuMachine
Artist:HIDEKI
Creator:Kiiwa
Version:Hard
Source:Togainu no Chi
Tags:Akira Shiki Yaoi BL Alace

[Difficulty]
HPDrainRate:5
CircleSize:4
OverallDifficulty:6
ApproachRate:8
SliderMultiplier:1.6
SliderTickRate:1

[Events]
//Background and Video events
0,0,"Togainu_no_Chi_-_Akira.jpg"
//Break Periods
2,84498,107933
//Storyboard Layer 0 (Background)
//Storyboard Layer 1 (Fail)
//Storyboard Layer 2 (Pass)
//Storyboard Layer 3 (Foreground)
//Storyboard Sound Samples
//Background Colour Transformations
3,100,163,162,255

[TimingPoints]
876,320.855614973262,4,2,0,50,1,0
4485,-100,4,2,0,70,0,0
6250,-100,4,1,0,30,0,0
6410,-100,4,1,0,40,0,0
6571,-100,4,1,0,50,0,0
6731,-100,4,1,0,60,0,0
6892,-100,4,1,0,70,0,0
7213,-100,4,2,0,70,0,0
8977,-100,4,1,0,30,0,0
9138,-100,4,1,0,40,0,0
9298,-100,4,1,0,50,0,0
9459,-100,4,1,0,60,0,0
9619,-100,4,1,0,70,0,0
9779,-100,4,2,0,70,0,0
11544,-100,4,1,0,40,0,0
11705,-100,4,1,0,50,0,0
11865,-100,4,1,0,60,0,0
12025,-100,4,1,0,70,0,0
12346,-100,4,2,0,70,0,0
13630,-100,4,1,0,40,0,0
14351,-100,4,1,0,60,0,0
14993,-100,4,1,0,60,0,1
15074,-100,4,1,0,60,0,0
25181,-100,4,1,0,46,0,0
26464,-100,4,2,0,80,0,0
26624,-100,4,1,0,45,0,0
27747,-100,4,2,0,80,0,0
27908,-100,4,1,0,45,0,0
29031,-100,4,2,0,80,0,0
30314,-100,4,1,0,50,0,0
31598,-100,4,2,0,80,0,0
31758,-100,4,1,0,50,0,0
32881,-100,4,2,0,80,0,0
33041,-100,4,1,0,50,0,0
34164,-100,4,2,0,80,0,0
35448,-100,4,1,0,50,0,0
36731,-100,4,2,0,80,0,0
36972,-100,4,1,0,50,0,0
38015,-100,4,2,0,80,0,0
38255,-100,4,1,0,50,0,0
39298,-100,4,2,0,80,0,0
40582,-100,4,1,0,50,0,0
54699,-100,4,2,0,80,0,0
54860,-100,4,1,0,50,0,0
55983,-100,4,2,0,80,0,0
56143,-100,4,1,0,50,0,0
57266,-100,4,2,0,80,0,0
58550,-100,4,1,0,50,0,0
59833,-100,4,2,0,80,0,0
59993,-100,4,1,0,50,0,0
61116,-100,4,2,0,80,0,0
61517,-100,4,1,0,50,0,0
62400,-100,4,2,0,80,0,0
63603,-100,4,1,0,50,0,0
64967,-100,4,2,0,80,0,0
65207,-100,4,1,0,50,0,0
66250,-100,4,2,0,80,0,0
66490,-100,4,1,0,50,0,0
67533,-100,4,2,0,80,0,0
68015,-133.333333333333,4,2,0,80,0,0
68416,-100,4,2,0,80,0,0
68817,-100,4,1,0,15,0,0
68977,-100,4,1,0,20,0,0
69138,-100,4,1,0,25,0,0
69298,-100,4,1,0,30,0,0
69459,-100,4,1,0,35,0,0
69619,-100,4,1,0,40,0,0
69779,-100,4,1,0,45,0,0
69940,-100,4,1,0,50,0,0
70100,-100,4,1,0,60,0,0
74031,-100,4,1,0,60,0,1
74351,-100,4,1,0,60,0,0
75715,-133.333333333333,4,1,0,60,0,0
76116,-100,4,1,0,70,0,0
84298,-100,4,1,0,60,0,1
84378,-100,4,1,0,60,0,0
109966,-100,4,1,0,60,0,1
110127,-100,4,1,0,60,0,0
119031,-100,4,2,0,80,0,0
119271,-100,4,1,0,60,0,0
119352,-100,4,2,0,80,0,0
119592,-100,4,1,0,60,0,0
119673,-100,4,2,0,80,0,0
119913,-100,4,1,0,60,0,0
121437,-100,4,2,0,80,0,0
121598,-100,4,1,0,60,0,0
122721,-100,4,2,0,80,0,0
122881,-100,4,1,0,60,0,0
124004,-100,4,2,0,80,0,0
125207,-100,4,1,0,60,0,0
126571,-100,4,2,0,80,0,0
126811,-100,4,1,0,60,0,0
127854,-100,4,2,0,80,0,0
128095,-100,4,1,0,60,0,0
129138,-100,4,2,0,80,0,0
130341,-100,4,1,0,60,0,0
131705,-100,4,2,0,80,0,0
131945,-100,4,1,0,60,0,0
132988,-100,4,2,0,80,0,0
133228,-100,4,1,0,60,0,0
134271,-100,4,2,0,80,0,0
135555,-100,4,1,0,15,0,0
135715,-100,4,1,0,20,0,0
135876,-100,4,1,0,25,0,0
136036,-100,4,1,0,30,0,0
136197,-100,4,1,0,35,0,0
136357,-100,4,1,0,40,0,0
136517,-100,4,1,0,45,0,0
136678,-100,4,1,0,50,0,0
136838,-100,4,1,0,60,0,0
137640,-100,4,1,0,30,0,0
137801,-100,4,1,0,50,0,0

[Colours]
Combo1 : 251,70,74
Combo2 : 249,87,143

[HitObjects]
216,168,1036,2,2,B|200:112,1,35
256,152,1196,2,2,B|256:104,1,35
296,168,1357,2,2,B|312:112,1,35
256,192,1517,12,4,4726
320,232,4886,6,0,B|392:272,1,80,2|0
280,272,5207,2,0,B|312:352,1,80,2|0
231,272,5528,2,0,B|202:346,1,80,2|0
192,232,5849,2,0,B|122:270,2,80,2|0|0
120,112,6330,5,0
64,136,6490,1,0
40,192,6651,1,0
64,248,6811,1,0
120,272,6972,1,0
256,296,7293,5,2
257,232,7453,1,0
191,208,7613,2,0,B|119:168,1,80,2|0
231,168,7934,2,0,B|199:88,1,80,2|0
280,168,8255,2,0,B|309:94,1,80,2|0
319,208,8576,2,0,B|389:170,2,80,2|0|0
392,272,9057,5,0
448,248,9218,1,0
472,192,9378,1,0
448,136,9539,1,0
392,112,9699,1,0
328,104,9859,6,0,B|168:104,1,160,2|0
184,280,10501,2,0,B|344:280,1,160,2|0
328,104,11143,2,0,B|168:104,1,160,2|0
160,160,11624,5,0
224,176,11785,1,0
288,176,11945,1,0
352,160,12105,1,0
456,264,12426,6,0,B|296:264,1,160,2|0
200,176,13068,2,0,B|360:176,1,160,2|0
232,264,13710,1,0
224,264,13790,1,0
216,264,13870,1,0
208,264,13950,1,0
200,264,14031,1,0
192,264,14111,1,0
184,264,14191,1,0
176,264,14271,1,0
168,264,14351,6,0,C|128:264,3,40
112,264,14672,2,0,C|72:264,3,40
64,184,14993,6,0,B|32:104|64:24,1,160
136,104,15474,2,0,B|296:136,1,160
200,32,15956,2,0,B|288:56,1,80
360,80,16277,1,0
360,80,16597,1,0
352,168,16758,2,0,B|456:176|448:72,1,160
360,80,17239,2,0,B|280:80,1,80
280,80,17560,5,0
248,160,17720,1,0
280,240,17881,2,0,B|368:240,2,80
192,240,18362,1,0
144,320,18523,2,0,B|304:320,1,160
392,320,19004,1,0
480,320,19164,2,0,B|480:240,1,80
480,144,19485,5,0
480,48,19646,2,0,B|376:48|392:176,1,160
392,240,20127,1,0
392,240,20287,2,0,B|288:240,1,80
344,328,20608,1,0
344,328,20688,1,0
344,328,20769,1,0
344,328,20849,1,0
344,328,20929,1,0
344,328,21009,1,0
344,328,21089,6,0,B|264:304|184:328,1,160
136,256,21571,1,0
56,240,21731,1,0
40,312,21892,1,0
120,328,22052,1,0
136,256,22212,2,0,B|152:176,1,80
168,104,22533,5,0
248,64,22694,2,0,B|352:80|327:185,1,160
328,256,23175,2,0,B|328:344,2,80
328,176,23656,1,0
328,80,23817,2,0,B|408:80,1,80
496,80,24138,1,0
496,80,24298,5,0
424,144,24458,1,0
384,232,24619,1,0
376,328,24779,1,0
376,328,24940,2,0,B|272:328,1,80
208,328,25261,5,0
200,328,25421,1,0
192,328,25581,1,0
184,328,25742,1,0
176,328,25902,1,0
168,328,26063,1,0
160,328,26223,1,0
152,328,26384,1,0
152,248,26544,5,2
128,168,26704,5,0
120,168,26865,1,0
112,168,27025,1,0
104,168,27186,1,0
96,168,27346,1,0
88,168,27507,1,0
80,168,27667,1,0
144,88,27827,6,2,B|144:8,1,80,2|0
224,8,28148,5,0
232,8,28309,1,0
240,8,28469,1,0
248,8,28630,1,0
256,8,28790,1,0
264,8,28950,1,0
256,96,29111,6,2,B|360:96|344:-24,1,160
424,16,29592,2,2,B|416:120|336:160,1,160
280,192,30073,1,2
160,296,30394,5,0
224,360,30555,5,0
232,360,30715,1,0
240,360,30875,1,0
248,360,31036,1,0
256,360,31196,1,0
264,360,31357,1,0
272,360,31517,1,0
336,288,31678,5,2
400,360,31838,5,0
408,360,31998,1,0
416,360,32159,1,0
424,352,32319,1,0
432,344,32480,1,0
440,336,32640,1,0
440,328,32801,1,0
440,320,32961,6,0,B|440:240,1,80,2|0
440,152,33282,5,0
440,144,33442,1,0
440,136,33603,1,0
440,128,33763,1,0
440,120,33924,1,0
440,112,34084,1,0
408,16,34244,6,2,B|376:96|264:80,1,160
192,80,34726,2,2,B|192:240,1,160
112,240,35207,1,2
112,240,35367,1,0
72,152,35528,6,0,B|144:192,1,80
192,128,35849,2,0,B|264:168,1,80
312,104,36170,2,0,B|392:152,1,80
432,80,36490,2,0,B|512:128,1,80
432,184,36811,6,2,B|368:240,1,80,2|0
368,328,37132,6,0,B|296:272,1,80
248,344,37453,2,0,B|184:288,1,80
128,360,37774,2,0,B|64:304,1,80
0,216,38095,6,2,B|80:216,1,80,2|0
64,112,38416,6,0,B|96:32,1,80
168,104,38736,2,0,B|200:24,1,80
272,96,39057,2,0,B|304:16,1,80
408,24,39378,6,2,B|400:128|496:136,1,160
432,208,39859,2,2,B|416:248|352:256|304:240|296:192,1,160
256,128,40341,1,2
256,192,40662,12,4,43228
256,192,43549,5,0
176,104,43870,2,0,B|96:104,1,80
8,104,44191,1,0
8,104,44512,2,0,B|8:200|136:192,1,160,0|0
208,192,44993,2,0,B|296:192,1,80
384,192,45314,1,0
384,192,45474,1,0
384,192,45635,2,0,B|384:232,2,40,0|0|0
488,192,45956,5,0
456,280,46116,1,0
368,320,46277,1,0
280,344,46437,1,0
184,344,46597,1,0
184,344,46758,2,0,B|176:256|64:264,1,160
112,40,47400,6,0,B|112:120,2,80
200,40,47881,1,0
280,80,48041,2,0,B|328:96|312:168,1,80
320,240,48362,1,0
472,240,48683,1,0
472,240,48843,2,0,B|472:320,1,80
472,320,49164,2,0,B|392:320,1,80
304,320,49485,2,0,B|224:320,1,80
232,184,49966,5,0
136,184,50127,2,0,B|48:192|56:304,1,160
55,299,50608,1,0
152,304,50769,1,0
248,304,50929,1,0
416,232,51250,6,0,B|328:232,2,80
448,144,51731,1,0
472,48,51892,2,0,B|392:48,1,80
296,56,52212,2,0,B|232:72|240:128,2,80
392,48,52694,2,0,B|424:136,1,80
328,152,53015,2,0,B|224:144|240:264,1,160
240,336,53496,5,0
248,336,53656,1,0
256,336,53817,1,0
264,336,53977,1,0
272,336,54138,1,0
280,336,54298,1,0
288,336,54458,1,0
296,336,54619,1,0
400,336,54779,5,2
480,272,54940,5,0
480,264,55100,1,0
480,256,55261,1,0
480,248,55421,1,0
480,240,55581,1,0
480,232,55742,1,0
480,224,55902,1,0
480,120,56063,5,2
384,120,56223,5,0
384,112,56384,1,0
384,104,56544,1,0
384,96,56704,1,0
384,88,56865,1,0
384,80,57025,1,0
384,72,57186,1,0
384,64,57346,6,2,B|224:64,1,160,2|0
136,64,57827,2,2,B|40:64|48:200,1,160,2|0
40,264,58309,1,2
40,352,58469,1,0
144,352,58630,5,0
152,352,58790,1,0
160,352,58950,1,0
168,352,59111,1,0
176,352,59271,1,0
184,352,59432,1,0
192,352,59592,1,0
200,352,59753,1,0
288,328,59913,5,2
360,256,60073,5,0
368,256,60234,1,0
376,256,60394,1,0
384,256,60555,1,0
392,256,60715,1,0
400,256,60875,1,0
408,256,61036,1,0
504,256,61196,6,2,B|504:152|392:160,1,160,2|0
312,160,61678,5,0
304,160,61838,1,0
296,160,61998,1,0
288,160,62159,1,0
280,160,62319,1,0
272,160,62480,6,2,B|112:160,1,160,2|0
16,160,62961,2,2,B|16:64|120:64,1,160,2|0
208,64,63442,2,2,B|288:64,1,80,2|0
400,64,63763,6,0,B|344:144,1,80
288,64,64084,2,0,B|240:128,1,80
176,64,64405,2,0,B|128:128,1,80
64,64,64726,2,0,B|16:128,1,80
96,184,65047,6,2,B|184:208,1,80,2|0
176,320,65367,6,0,B|240:272,1,80
304,344,65688,2,0,B|368:296,1,80
432,368,66009,2,0,B|496:320,1,80
464,216,66330,6,2,B|376:200,1,80,2|0
376,88,66651,6,0,B|304:136,1,80
248,64,66972,2,0,B|176:112,1,80
120,40,67293,2,0,B|48:88,1,80
154,131,67613,6,2,B|24:224,1,160,2|0
200,200,68095,2,2,B|98:272,1,119.999996423721,2|0
240,272,68576,2,2,B|168:320,1,80,2|0
256,192,68897,5,0
256,176,69057,1,0
256,160,69218,1,0
256,144,69378,1,0
256,128,69539,1,0
256,112,69699,1,0
256,96,69859,1,0
256,80,70020,1,0
344,24,70180,5,0
168,24,70501,1,0
216,144,70822,2,0,B|296:144,1,80
296,144,71143,1,0
464,144,71464,6,0,B|464:192,2,40
376,184,71785,2,0,B|400:224,2,40
320,264,72105,2,0,B|352:288,2,40
288,360,72426,2,0,B|336:368,2,40
192,360,72747,5,0
192,360,72827,1,0
192,360,72908,1,0
128,296,73068,1,0
128,296,73148,1,0
128,296,73228,1,0
104,208,73389,1,0
104,208,73469,1,0
104,208,73549,1,0
96,104,73710,6,0,B|96:16,1,80
184,24,74031,2,0,B|280:16|264:152,1,160
264,224,74512,2,0,B|248:344|312:376|416:352,1,240
344,120,75314,2,0,B|344:288,1,160
424,120,75795,2,0,B|424:248,1,120
504,120,76277,1,0
256,192,76597,12,0,79164
256,192,79485,6,0,B|184:168|200:56,2,160
408,288,80448,1,0
256,328,80769,2,0,B|96:328,2,160
256,192,81731,12,0,84298
256,192,108683,5,0
256,192,108763,1,0
256,192,108843,1,0
256,192,108924,1,0
256,192,109004,1,0
256,192,109084,1,0
256,192,109164,1,0
256,192,109244,1,0
256,192,109325,6,0,B|256:232,8,40
256,64,110287,6,0,B|176:64,1,80,0|0
96,64,110608,2,0,B|-16:48|16:192,1,160
8,272,111250,1,0
136,272,111571,2,0,B|224:272,2,80
136,272,112212,1,0
168,128,112533,5,0
328,128,112854,2,0,B|424:136|400:0,1,160
312,16,113335,2,0,B|232:-8,2,80
404,17,113817,2,0,B|404:177,1,160
400,280,114298,1,0
320,224,114458,6,0,B|256:168,1,80
224,264,114779,2,0,B|136:232,1,80
120,336,115100,2,0,B|24:344|32:256|32:224,1,160
24,120,115581,1,0
104,40,115742,5,0
128,136,115902,1,0
208,56,116063,1,0
368,56,116384,2,0,B|448:56,2,80
368,56,116865,5,0
352,152,117025,1,0
304,240,117186,1,0
232,304,117346,1,0
136,328,117507,1,0
40,336,117667,6,0,B|40:176,1,160
128,256,118148,2,0,B|128:176,1,80
224,184,118469,1,0
224,88,118630,2,0,B|144:88,1,80
48,88,118950,5,0
24,192,119111,2,2,B|72:256,1,80,2|0
176,192,119432,2,2,B|256:216,1,80,2|0
168,312,119753,2,2,B|192:392,1,80,2|0
256,248,120234,5,0
264,240,120394,1,0
272,232,120555,1,0
280,224,120715,1,0
288,216,120876,1,0
296,208,121036,1,0
304,200,121196,1,0
312,192,121357,1,0
408,144,121517,5,2
408,240,121678,5,0
408,248,121838,1,0
408,256,121998,1,0
408,264,122159,1,0
408,272,122319,1,0
408,280,122480,1,0
408,288,122640,1,0
408,384,122801,5,2
512,376,122961,5,0
512,368,123121,1,0
512,360,123282,1,0
512,352,123442,1,0
512,344,123603,1,0
512,336,123763,1,0
512,328,123924,1,0
512,320,124084,6,2,B|512:160,1,160,2|0
512,64,124565,2,2,B|424:56|432:192,1,160,2|0
432,256,125047,2,2,B|352:256,1,80,2|0
256,256,125367,5,0
248,256,125528,1,0
240,256,125688,1,0
232,256,125849,1,0
224,256,126009,1,0
216,256,126170,1,0
208,256,126330,1,0
200,256,126490,1,0
192,256,126651,6,2,B|104:256,1,80,2|0
16,248,126972,5,0
16,240,127132,1,0
16,232,127293,1,0
16,224,127453,1,0
16,216,127613,1,0
16,208,127774,1,0
16,200,127934,6,2,B|16:152|80:160,1,80,2|0
176,160,128255,5,0
184,160,128416,1,0
192,160,128576,1,0
200,160,128736,1,0
208,160,128897,1,0
216,160,129057,1,0
224,160,129218,6,2,B|384:160,1,160,2|0
472,160,129699,2,2,B|496:64|368:64,1,160,2|0
288,64,130180,2,2,B|208:64,1,80,2|0
104,40,130501,6,0,B|128:120,1,80
208,64,130822,2,0,B|232:144,1,80
312,88,131143,2,0,B|336:168,1,80
416,112,131464,2,0,B|440:192,1,80
464,280,131785,6,0,B|384:304,1,80
288,336,132105,6,0,B|240:264,1,80
184,360,132426,2,0,B|136:288,1,80
80,384,132747,2,0,B|32:312,1,80
8,208,133068,6,2,B|8:128,1,80,2|0
56,24,133389,6,0,B|120:80,1,80
200,24,133710,2,0,B|264:80,1,80
344,24,134031,2,0,B|408:80,1,80
480,152,134351,6,2,B|438:206|375:220|292:182|277:105|300:77,2,240
312,264,135635,5,0
296,264,135795,1,0
280,264,135956,1,0
264,264,136116,1,0
248,264,136277,1,0
232,264,136437,1,0
216,264,136597,1,0
200,264,136758,1,0
136,192,136918,5,0
376,192,137239,1,0
256,80,137560,2,0,B|256:0,2,80
