osu file format v14

[General]
AudioFilename: Oboro.mp3
AudioLeadIn: 0
PreviewTime: 57532
Countdown: 0
SampleSet: Soft
StackLeniency: 0.7
Mode: 3
LetterboxInBreaks: 0
SpecialStyle: 0
WidescreenStoryboard: 0

[Editor]
Bookmarks: 374,6816,21313,22924,29367,30978,43035,43840,58360,63169,64780,68002,69612,71246,74467,84132,88941,90552,95384,97018,101827,103438,106257,108270,109904
DistanceSpacing: 0.8
BeatDivisor: 4
GridSize: 4
TimelineZoom: 2.4

[Metadata]
Title:Oboro
TitleUnicode:Oboro
Artist:HHHxMMxST
ArtistUnicode:HHHxMMxST
Creator:_Xenophilius_
Version:Lv. 87
Source:
Tags:O2Jam
BeatmapID:778797
BeatmapSetID:338406

[Difficulty]
HPDrainRate:9
CircleSize:7
OverallDifficulty:8
ApproachRate:5
SliderMultiplier:1.4
SliderTickRate:1

[Events]
//Background and Video events
0,0,"b1.jpg",0,0
//Break Periods
//Storyboard Layer 0 (Background)
//Storyboard Layer 1 (Fail)
//Storyboard Layer 2 (Pass)
//Storyboard Layer 3 (Foreground)
//Storyboard Sound Samples

[TimingPoints]
351,402.684563758389,4,2,0,18,1,0
351,-133.333333333333,4,2,0,18,0,0
5787,-66.6666666666667,4,2,0,18,0,0
6592,-200,4,2,0,18,0,0
6793,-133.333333333333,4,2,0,18,0,0
21290,-100,4,2,0,18,0,0
29344,-66.6666666666667,4,2,0,18,0,0
30552,-200,4,2,0,18,0,0
30955,-100,4,2,0,18,0,0
53304,-66.6666666666667,4,2,0,18,0,0
53404,-133.333333333333,4,2,0,18,0,0
53505,-66.6666666666667,4,2,0,18,0,0
53606,-133.333333333333,4,2,0,18,0,0
53706,-66.6666666666667,4,2,0,18,0,0
53807,-133.333333333333,4,2,0,18,0,0
53908,-66.6666666666667,4,2,0,18,0,0
54008,-133.333333333333,4,2,0,18,0,0
54109,-66.6666666666667,4,2,0,18,0,0
54210,-133.333333333333,4,2,0,18,0,0
54310,-66.6666666666667,4,2,0,18,0,0
54411,-133.333333333333,4,2,0,18,0,0
54512,-66.6666666666667,4,2,0,18,0,0
54612,-133.333333333333,4,2,0,18,0,0
54713,-66.6666666666667,4,2,0,18,0,0
54814,-133.333333333333,4,2,0,18,0,0
54914,-66.6666666666667,4,2,0,18,0,0
55015,-133.333333333333,4,2,0,18,0,0
55116,-66.6666666666667,4,2,0,18,0,0
55317,-133.333333333333,4,2,0,18,0,0
55518,-66.6666666666667,4,2,0,18,0,0
55720,-133.333333333333,4,2,0,18,0,0
55921,-200,4,2,0,18,0,0
56324,-66.6666666666667,4,2,0,18,0,0
56726,-133.333333333333,4,2,0,18,0,0
57028,-66.6666666666667,4,2,0,18,0,0
57330,-133.333333333333,4,2,0,18,0,0
57532,-100,4,2,0,18,0,0
58337,-100,4,2,0,18,0,1
67800,-66.6666666666667,4,2,0,18,0,1
67901,-133.333333333333,4,2,0,18,0,1
68002,-66.6666666666667,4,2,0,18,0,1
68102,-133.333333333333,4,2,0,18,0,1
68203,-66.6666666666667,4,2,0,18,0,1
68304,-133.333333333333,4,2,0,18,0,1
68404,-66.6666666666667,4,2,0,18,0,1
68505,-133.333333333333,4,2,0,18,0,1
68606,-100,4,2,0,18,0,1
68706,-66.6666666666667,4,2,0,18,0,1
68857,-133.333333333333,4,2,0,18,0,1
69008,-66.6666666666667,4,2,0,18,0,1
69109,-133.333333333333,4,2,0,18,0,1
69210,-66.6666666666667,4,2,0,18,0,1
69310,-133.333333333333,4,2,0,18,0,1
69411,-200,4,2,0,18,0,1
69612,-100,4,2,0,18,0,1
71223,-133.333333333333,4,2,0,18,0,0
83002,-100,4,2,0,18,0,0
96995,-100,4,2,0,18,0,1
106458,-66.6666666666667,4,2,0,18,0,1
106559,-133.333333333333,4,2,0,18,0,1
106659,-66.6666666666667,4,2,0,18,0,1
106760,-133.333333333333,4,2,0,18,0,1
106861,-66.6666666666667,4,2,0,18,0,1
106961,-133.333333333333,4,2,0,18,0,1
107062,-66.6666666666667,4,2,0,18,0,1
107163,-133.333333333333,4,2,0,18,0,1
107263,-100,4,2,0,18,0,1
107364,-66.6666666666667,4,2,0,18,0,1
107515,-133.333333333333,4,2,0,18,0,1
107666,-66.6666666666667,4,2,0,18,0,1
107767,-133.333333333333,4,2,0,18,0,1
107867,-66.6666666666667,4,2,0,18,0,1
107968,-133.333333333333,4,2,0,18,0,1
108069,-200,4,2,0,18,0,1
108270,-100,4,2,0,18,0,1
109878,-133.333333333333,4,2,0,9,0,0

[HitObjects]
36,192,351,128,2,451:0:0:0:0:
256,192,451,128,2,552:0:0:0:0:
475,192,552,128,2,653:0:0:0:0:
36,192,653,128,2,753:0:0:0:0:
182,192,753,128,2,854:0:0:0:0:
329,192,854,128,2,955:0:0:0:0:
475,192,955,128,2,1559:0:0:0:0:
329,192,1559,128,2,1760:0:0:0:0:
182,192,1760,128,2,1961:0:0:0:0:
475,192,1961,128,2,2062:0:0:0:0:
256,192,2062,128,2,2163:0:0:0:0:
36,192,2163,128,2,2263:0:0:0:0:
475,192,2263,128,2,2364:0:0:0:0:
329,192,2364,128,2,2465:0:0:0:0:
182,192,2465,128,2,2565:0:0:0:0:
36,192,2565,128,2,3169:0:0:0:0:
402,192,3169,128,2,3371:0:0:0:0:
182,192,3371,128,2,3572:0:0:0:0:
475,192,3572,128,2,3673:0:0:0:0:
256,192,3673,128,2,3773:0:0:0:0:
36,192,3773,128,2,3874:0:0:0:0:
475,192,3874,128,2,3975:0:0:0:0:
329,192,3975,128,2,4075:0:0:0:0:
182,192,4075,128,2,4176:0:0:0:0:
36,192,4176,128,2,4780:0:0:0:0:
182,192,4780,128,2,4981:0:0:0:0:
329,192,4981,128,2,5183:0:0:0:0:
36,192,5183,128,2,5283:0:0:0:0:
256,192,5283,128,2,5384:0:0:0:0:
36,192,5384,128,2,5485:0:0:0:0:
475,192,5485,128,2,5585:0:0:0:0:
256,192,5585,128,2,5686:0:0:0:0:
475,192,5686,128,2,5787:0:0:0:0:
256,192,5787,128,2,6793:0:0:0:0:
402,192,6793,128,0,8404:0:0:0:0:
109,192,6793,1,4,1:0:0:0:
475,192,6793,1,2,0:0:0:0:
329,192,6995,1,2,0:0:0:0:
182,192,7196,128,0,8404:0:0:0:0:
256,192,7196,1,2,0:0:0:0:
329,192,7397,1,2,0:0:0:0:
36,192,7599,128,0,8404:0:0:0:0:
256,192,7599,1,2,0:0:0:0:
475,192,8002,1,2,0:0:0:0:
109,192,8404,128,0,10015:0:0:0:0:
329,192,8404,1,2,0:0:0:0:
256,192,8606,1,2,0:0:0:0:
329,192,8807,128,0,10015:0:0:0:0:
182,192,8807,1,2,0:0:0:0:
256,192,9008,1,2,0:0:0:0:
475,192,9210,128,0,10015:0:0:0:0:
182,192,9210,1,2,0:0:0:0:
402,192,9612,1,2,0:0:0:0:
256,192,10015,128,0,11626:0:0:0:0:
36,192,10015,1,2,0:0:0:0:
182,192,10216,1,2,0:0:0:0:
475,192,10418,1,2,0:0:0:0:
329,192,10619,1,2,0:0:0:0:
36,192,10820,1,2,0:0:0:0:
182,192,11022,1,2,0:0:0:0:
475,192,11223,1,2,0:0:0:0:
329,192,11424,1,2,0:0:0:0:
475,192,11626,128,0,12431:0:0:0:0:
109,192,11626,1,2,0:0:0:0:
329,192,11827,128,0,12431:0:0:0:0:
402,192,11827,1,2,0:0:0:0:
36,192,12028,128,0,12431:0:0:0:0:
109,192,12028,1,2,0:0:0:0:
182,192,12230,128,0,12431:0:0:0:0:
402,192,12230,1,2,0:0:0:0:
256,192,12431,128,0,12834:0:0:0:0:
109,192,12431,1,2,0:0:0:0:
402,192,12834,128,0,13035:0:0:0:0:
109,192,12834,128,0,13035:0:0:0:0:
182,192,13035,128,0,13236:0:0:0:0:
329,192,13035,128,0,13236:0:0:0:0:
256,192,13236,128,0,14847:0:0:0:0:
475,192,13236,128,0,19075:0:0:0:0:
36,192,13236,1,2,0:0:0:0:
402,192,13236,1,4,1:0:0:0:
182,192,13639,1,2,0:0:0:0:
329,192,14042,1,2,0:0:0:0:
402,192,14042,1,2,0:0:0:0:
109,192,14444,1,2,0:0:0:0:
182,192,14847,128,0,16055:0:0:0:0:
402,192,15250,1,2,0:0:0:0:
256,192,15653,1,2,0:0:0:0:
36,192,15653,1,2,0:0:0:0:
402,192,16055,1,2,0:0:0:0:
109,192,16055,128,0,16257:0:0:0:0:
36,192,16257,128,0,16458:0:0:0:0:
402,192,16458,128,0,16659:0:0:0:0:
329,192,16458,1,2,0:0:0:0:
256,192,16659,128,0,16861:0:0:0:0:
109,192,16861,128,0,17062:0:0:0:0:
36,192,16861,1,2,0:0:0:0:
329,192,17062,128,0,17112:0:0:0:0:
329,192,17163,128,0,17465:0:0:0:0:
256,192,17263,1,2,0:0:0:0:
182,192,17465,128,0,17666:0:0:0:0:
402,192,17666,128,0,17867:0:0:0:0:
109,192,17666,1,2,0:0:0:0:
36,192,17867,128,0,18069:0:0:0:0:
109,192,18069,128,0,18270:0:0:0:0:
182,192,18069,1,2,0:0:0:0:
256,192,18270,128,0,18471:0:0:0:0:
329,192,18270,1,2,0:0:0:0:
36,192,18471,1,2,0:0:0:0:
402,192,18471,128,0,18673:0:0:0:0:
182,192,18673,128,0,18723:0:0:0:0:
182,192,18773,128,0,19075:0:0:0:0:
109,192,18874,1,2,0:0:0:0:
402,192,19075,128,0,19679:0:0:0:0:
329,192,19277,1,2,0:0:0:0:
256,192,19277,128,0,19679:0:0:0:0:
109,192,19478,128,0,19679:0:0:0:0:
329,192,19679,128,0,20082:0:0:0:0:
182,192,19679,128,0,20082:0:0:0:0:
36,192,19679,1,2,0:0:0:0:
256,192,19881,1,2,0:0:0:0:
475,192,20082,1,2,0:0:0:0:
329,192,20485,128,0,20686:0:0:0:0:
475,192,20485,128,0,20686:0:0:0:0:
402,192,20485,128,2,21290:0:0:0:0:
182,192,20686,128,0,20887:0:0:0:0:
36,192,20686,128,0,20887:0:0:0:0:
329,192,20887,128,0,21089:0:0:0:0:
475,192,20887,128,0,21089:0:0:0:0:
109,192,20887,128,2,21290:0:0:0:0:
182,192,21089,128,0,21290:0:0:0:0:
36,192,21089,128,0,21290:0:0:0:0:
256,192,21290,128,2,22901:0:0:0:0:
329,192,21290,128,2,21391:0:0:0:0:
182,192,21391,128,2,21491:0:0:0:0:
475,192,21491,128,2,21592:0:0:0:0:
402,192,21592,128,2,21693:0:0:0:0:
475,192,21693,128,2,22800:0:0:0:0:
36,192,21793,128,2,21894:0:0:0:0:
109,192,21894,128,2,21995:0:0:0:0:
36,192,21995,128,2,22800:0:0:0:0:
402,192,22095,128,2,22196:0:0:0:0:
329,192,22196,128,2,22297:0:0:0:0:
402,192,22297,128,2,22800:0:0:0:0:
109,192,22397,128,2,22498:0:0:0:0:
182,192,22498,128,2,22599:0:0:0:0:
109,192,22599,128,2,22800:0:0:0:0:
329,192,22699,128,2,22800:0:0:0:0:
182,192,22800,128,2,22901:0:0:0:0:
109,192,22901,128,2,23002:0:0:0:0:
329,192,22901,128,2,23002:0:0:0:0:
36,192,22901,1,8,0:0:0:0:
475,192,22901,1,8,0:0:0:0:
182,192,23002,128,2,23102:0:0:0:0:
402,192,23002,128,2,23102:0:0:0:0:
256,192,23102,128,2,23203:0:0:0:0:
475,192,23102,128,2,23203:0:0:0:0:
182,192,23203,128,2,23304:0:0:0:0:
402,192,23203,128,2,23304:0:0:0:0:
109,192,23304,128,2,23404:0:0:0:0:
329,192,23304,128,2,23404:0:0:0:0:
256,192,23304,1,8,0:0:0:0:
36,192,23304,1,8,0:0:0:0:
182,192,23404,128,2,23505:0:0:0:0:
402,192,23404,128,2,23505:0:0:0:0:
256,192,23505,128,2,23706:0:0:0:0:
475,192,23505,128,2,23706:0:0:0:0:
109,192,23706,1,8,0:0:0:0:
329,192,23706,1,8,0:0:0:0:
402,192,24109,128,2,24310:0:0:0:0:
182,192,24109,128,2,24310:0:0:0:0:
256,192,24109,1,8,0:0:0:0:
475,192,24109,1,8,0:0:0:0:
329,192,24310,128,2,24512:0:0:0:0:
109,192,24310,128,2,24512:0:0:0:0:
475,192,24512,1,8,0:0:0:0:
36,192,24512,1,8,0:0:0:0:
182,192,24512,128,2,24612:0:0:0:0:
402,192,24512,128,2,24612:0:0:0:0:
109,192,24612,128,2,24713:0:0:0:0:
329,192,24612,128,2,24713:0:0:0:0:
36,192,24713,128,2,24814:0:0:0:0:
256,192,24713,128,2,24814:0:0:0:0:
109,192,24814,128,2,24914:0:0:0:0:
329,192,24814,128,2,24914:0:0:0:0:
256,192,24914,1,8,0:0:0:0:
182,192,24914,128,2,25015:0:0:0:0:
475,192,24914,1,8,0:0:0:0:
402,192,24914,128,2,25015:0:0:0:0:
109,192,25015,128,2,25116:0:0:0:0:
329,192,25015,128,2,25116:0:0:0:0:
36,192,25116,128,2,25317:0:0:0:0:
256,192,25116,128,2,25317:0:0:0:0:
182,192,25317,1,8,0:0:0:0:
402,192,25317,1,8,0:0:0:0:
329,192,25720,128,2,25921:0:0:0:0:
109,192,25720,128,2,25921:0:0:0:0:
36,192,25720,1,8,0:0:0:0:
256,192,25720,1,8,0:0:0:0:
402,192,25921,128,2,26122:0:0:0:0:
182,192,25921,128,2,26122:0:0:0:0:
256,192,25921,1,8,0:0:0:0:
36,192,25921,1,8,0:0:0:0:
475,192,26122,128,2,26223:0:0:0:0:
36,192,26122,128,2,26223:0:0:0:0:
256,192,26122,1,8,0:0:0:0:
402,192,26223,128,2,26324:0:0:0:0:
109,192,26223,128,2,26324:0:0:0:0:
329,192,26324,128,2,26424:0:0:0:0:
182,192,26324,128,2,26424:0:0:0:0:
475,192,26424,128,2,26525:0:0:0:0:
36,192,26424,128,2,26525:0:0:0:0:
402,192,26525,128,2,26626:0:0:0:0:
109,192,26525,128,2,26626:0:0:0:0:
256,192,26525,1,8,0:0:0:0:
329,192,26626,128,2,26726:0:0:0:0:
182,192,26626,128,2,26726:0:0:0:0:
36,192,26726,128,2,26827:0:0:0:0:
475,192,26726,128,2,26827:0:0:0:0:
109,192,26928,1,0,3:0:0:0:
182,192,26928,1,0,3:0:0:0:
329,192,27028,1,0,3:0:0:0:
402,192,27028,1,0,3:0:0:0:
109,192,27129,1,0,3:0:0:0:
182,192,27129,1,0,3:0:0:0:
329,192,27230,1,0,3:0:0:0:
402,192,27230,1,0,3:0:0:0:
36,192,27330,1,0,3:0:0:0:
256,192,27330,1,0,3:0:0:0:
475,192,27330,1,0,3:0:0:0:
36,192,27532,1,0,3:0:0:0:
256,192,27532,1,0,3:0:0:0:
475,192,27532,1,0,3:0:0:0:
109,192,27733,128,4,28941:1:0:0:0:
402,192,27733,128,4,28941:1:0:0:0:
182,192,27733,1,0,3:0:0:0:
329,192,27733,1,0,3:0:0:0:
36,192,27934,1,0,3:0:0:0:
256,192,28035,1,0,3:0:0:0:
475,192,28136,1,0,3:0:0:0:
329,192,28337,1,0,3:0:0:0:
182,192,28337,1,0,3:0:0:0:
475,192,28639,1,0,3:0:0:0:
256,192,28740,1,0,3:0:0:0:
36,192,28840,1,0,3:0:0:0:
182,192,28941,1,8,0:0:0:0:
256,192,28941,1,8,0:0:0:0:
329,192,28941,1,8,0:0:0:0:
475,192,28941,128,2,29344:0:0:0:0:
36,192,29142,128,2,29344:0:0:0:0:
256,192,29344,128,2,30955:0:0:0:0:
402,192,29344,128,0,30955:0:0:0:0:
109,192,29344,128,0,30955:0:0:0:0:
329,192,30955,1,0,3:0:0:0:
475,192,30955,1,0,3:0:0:0:
182,192,30955,1,8,0:0:0:0:
36,192,30955,1,0,3:0:0:0:
109,192,31156,128,0,31357:0:0:0:0:
256,192,31156,1,0,3:0:0:0:
402,192,31357,128,0,31559:0:0:0:0:
329,192,31357,1,8,0:0:0:0:
36,192,31357,1,0,3:0:0:0:
109,192,31559,128,0,31760:0:0:0:0:
182,192,31559,1,0,3:0:0:0:
402,192,31760,128,0,31961:0:0:0:0:
36,192,31760,1,0,3:0:0:0:
475,192,31760,1,8,0:0:0:0:
256,192,31961,128,0,32163:0:0:0:0:
182,192,31961,1,0,3:0:0:0:
109,192,32163,128,0,32364:0:0:0:0:
329,192,32163,1,2,0:0:0:0:
36,192,32163,1,0,3:0:0:0:
475,192,32163,1,8,0:0:0:0:
402,192,32364,128,0,32565:0:0:0:0:
182,192,32364,1,0,3:0:0:0:
256,192,32565,128,0,32968:0:0:0:0:
109,192,32565,1,2,0:0:0:0:
329,192,32565,1,8,0:0:0:0:
475,192,32565,1,0,3:0:0:0:
402,192,32767,1,0,3:0:0:0:
182,192,32968,128,0,33371:0:0:0:0:
329,192,32968,1,8,0:0:0:0:
36,192,32968,1,0,3:0:0:0:
402,192,33169,1,0,3:0:0:0:
109,192,33371,128,0,33975:0:0:0:0:
475,192,33371,1,2,0:0:0:0:
329,192,33371,1,0,3:0:0:0:
256,192,33371,1,8,0:0:0:0:
36,192,33572,1,0,3:0:0:0:
329,192,33773,1,2,0:0:0:0:
182,192,33773,1,8,0:0:0:0:
402,192,33773,1,0,3:0:0:0:
475,192,33975,128,0,34176:0:0:0:0:
256,192,33975,1,0,3:0:0:0:
329,192,34176,128,0,34780:0:0:0:0:
182,192,34176,1,8,0:0:0:0:
36,192,34176,1,0,3:0:0:0:
256,192,34377,1,0,3:0:0:0:
109,192,34579,1,0,3:0:0:0:
475,192,34579,1,8,0:0:0:0:
36,192,34780,128,0,34981:0:0:0:0:
402,192,34780,1,0,3:0:0:0:
182,192,34981,128,0,35183:0:0:0:0:
475,192,34981,1,8,0:0:0:0:
256,192,34981,1,0,3:0:0:0:
475,192,35183,128,0,35283:0:0:0:0:
329,192,35183,1,0,3:0:0:0:
256,192,35283,128,0,35384:0:0:0:0:
36,192,35384,128,0,35585:0:0:0:0:
402,192,35384,1,8,0:0:0:0:
109,192,35384,1,0,3:0:0:0:
475,192,35585,128,0,35787:0:0:0:0:
256,192,35585,1,0,3:0:0:0:
109,192,35787,128,0,36189:0:0:0:0:
182,192,35787,1,8,0:0:0:0:
402,192,35787,1,0,3:0:0:0:
329,192,35988,1,0,3:0:0:0:
256,192,36189,128,0,36592:0:0:0:0:
475,192,36189,1,0,3:0:0:0:
36,192,36189,1,8,0:0:0:0:
329,192,36391,1,0,3:0:0:0:
402,192,36592,128,0,37196:0:0:0:0:
475,192,36592,1,2,0:0:0:0:
182,192,36592,1,8,0:0:0:0:
36,192,36592,1,0,3:0:0:0:
109,192,36693,1,0,0:0:0:0:
329,192,36793,1,2,0:0:0:0:
182,192,36793,1,0,3:0:0:0:
256,192,36894,1,2,0:0:0:0:
182,192,36995,1,2,0:0:0:0:
36,192,36995,1,8,0:0:0:0:
475,192,36995,1,0,3:0:0:0:
109,192,37196,1,2,0:0:0:0:
329,192,37196,1,0,3:0:0:0:
256,192,37297,1,0,0:0:0:0:
182,192,37397,1,8,0:0:0:0:
475,192,37397,1,0,3:0:0:0:
36,192,37599,128,0,37800:0:0:0:0:
402,192,37599,1,0,3:0:0:0:
182,192,37800,128,0,38002:0:0:0:0:
256,192,37800,1,0,3:0:0:0:
329,192,37800,1,8,0:0:0:0:
475,192,38002,128,0,38203:0:0:0:0:
402,192,38002,1,0,3:0:0:0:
329,192,38203,128,0,38404:0:0:0:0:
256,192,38203,1,8,0:0:0:0:
36,192,38203,1,0,3:0:0:0:
109,192,38404,128,0,38606:0:0:0:0:
182,192,38404,1,0,3:0:0:0:
256,192,38606,128,0,38807:0:0:0:0:
329,192,38606,1,8,0:0:0:0:
475,192,38606,1,0,3:0:0:0:
402,192,38807,128,0,39008:0:0:0:0:
182,192,38807,1,0,3:0:0:0:
475,192,39008,128,0,39411:0:0:0:0:
36,192,39008,1,2,0:0:0:0:
109,192,39008,1,8,0:0:0:0:
329,192,39008,1,0,3:0:0:0:
182,192,39210,1,0,3:0:0:0:
256,192,39411,128,0,39814:0:0:0:0:
109,192,39411,1,2,0:0:0:0:
329,192,39411,1,0,3:0:0:0:
402,192,39411,1,8,0:0:0:0:
475,192,39612,1,0,3:0:0:0:
36,192,39814,128,0,40216:0:0:0:0:
402,192,39814,1,2,0:0:0:0:
329,192,39814,1,8,0:0:0:0:
109,192,39814,1,0,3:0:0:0:
182,192,39914,1,0,3:0:0:0:
256,192,40015,1,0,3:0:0:0:
329,192,40216,1,2,0:0:0:0:
109,192,40216,1,0,3:0:0:0:
402,192,40216,1,8,0:0:0:0:
475,192,40418,128,0,40619:0:0:0:0:
256,192,40418,1,0,3:0:0:0:
182,192,40518,1,0,0:0:0:0:
329,192,40619,128,0,41022:0:0:0:0:
256,192,40619,1,8,0:0:0:0:
36,192,40619,1,0,3:0:0:0:
109,192,40820,1,0,3:0:0:0:
182,192,41022,128,0,41424:0:0:0:0:
256,192,41022,1,8,0:0:0:0:
475,192,41022,1,0,3:0:0:0:
329,192,41223,1,0,3:0:0:0:
36,192,41424,128,0,41626:0:0:0:0:
402,192,41424,1,8,0:0:0:0:
109,192,41424,1,0,3:0:0:0:
475,192,41626,128,0,41827:0:0:0:0:
256,192,41626,1,0,3:0:0:0:
109,192,41827,128,0,42028:0:0:0:0:
329,192,41827,1,8,0:0:0:0:
182,192,41827,1,0,3:0:0:0:
402,192,42028,128,0,42230:0:0:0:0:
36,192,42028,1,0,3:0:0:0:
256,192,42230,128,0,43035:0:0:0:0:
109,192,42230,1,0,3:0:0:0:
329,192,42230,1,8,0:0:0:0:
475,192,42431,1,8,0:0:0:0:
36,192,42431,1,8,0:0:0:0:
402,192,42532,1,8,0:0:0:0:
109,192,42532,1,8,0:0:0:0:
329,192,42632,1,8,0:0:0:0:
182,192,42632,1,8,0:0:0:0:
329,192,43035,128,0,43136:0:0:0:0:
36,192,43035,128,0,43236:0:0:0:0:
182,192,43035,1,0,3:0:0:0:
402,192,43136,128,0,43236:0:0:0:0:
109,192,43136,128,0,43337:0:0:0:0:
256,192,43136,1,0,3:0:0:0:
475,192,43236,128,0,43337:0:0:0:0:
182,192,43236,128,0,43438:0:0:0:0:
329,192,43236,1,0,3:0:0:0:
256,192,43337,128,0,43538:0:0:0:0:
36,192,43337,128,0,43438:0:0:0:0:
402,192,43337,1,0,3:0:0:0:
329,192,43438,128,0,43639:0:0:0:0:
109,192,43438,128,0,43538:0:0:0:0:
475,192,43438,1,0,3:0:0:0:
402,192,43538,128,0,43740:0:0:0:0:
182,192,43538,128,0,43639:0:0:0:0:
36,192,43538,1,0,3:0:0:0:
475,192,43639,128,0,43740:0:0:0:0:
256,192,43639,128,0,43740:0:0:0:0:
109,192,43639,1,0,3:0:0:0:
329,192,43740,128,0,43840:0:0:0:0:
36,192,43740,128,0,43840:0:0:0:0:
182,192,43740,1,0,3:0:0:0:
256,192,43840,1,0,3:0:0:0:
402,192,43840,128,0,44243:0:0:0:0:
109,192,43840,1,8,0:0:0:0:
475,192,43840,1,8,0:0:0:0:
182,192,43941,1,0,0:0:0:0:
256,192,44042,128,0,44444:0:0:0:0:
109,192,44042,1,0,0:0:0:0:
36,192,44142,1,0,0:0:0:0:
109,192,44243,128,0,44646:0:0:0:0:
182,192,44243,1,8,0:0:0:0:
475,192,44243,1,8,0:0:0:0:
402,192,44344,1,0,0:0:0:0:
475,192,44444,128,0,44847:0:0:0:0:
329,192,44444,1,0,0:0:0:0:
256,192,44545,1,0,0:0:0:0:
36,192,44545,128,0,44948:0:0:0:0:
402,192,44646,1,8,0:0:0:0:
182,192,44646,1,8,0:0:0:0:
256,192,44746,1,0,0:0:0:0:
329,192,44847,1,0,0:0:0:0:
402,192,44948,1,0,0:0:0:0:
475,192,45048,1,8,0:0:0:0:
109,192,45048,1,8,0:0:0:0:
182,192,45149,1,0,0:0:0:0:
402,192,45250,128,0,45350:0:0:0:0:
256,192,45250,1,0,0:0:0:0:
109,192,45350,128,0,45451:0:0:0:0:
329,192,45350,1,0,0:0:0:0:
475,192,45451,128,0,45854:0:0:0:0:
182,192,45451,1,8,0:0:0:0:
36,192,45451,1,8,0:0:0:0:
109,192,45552,1,0,0:0:0:0:
256,192,45653,128,0,46055:0:0:0:0:
36,192,45653,1,0,0:0:0:0:
329,192,45753,1,0,0:0:0:0:
36,192,45854,128,0,46257:0:0:0:0:
109,192,45854,1,8,0:0:0:0:
402,192,45854,1,8,0:0:0:0:
182,192,45955,1,0,0:0:0:0:
402,192,46055,128,0,46458:0:0:0:0:
329,192,46055,1,0,0:0:0:0:
256,192,46156,1,0,0:0:0:0:
109,192,46156,128,0,46559:0:0:0:0:
329,192,46257,1,8,0:0:0:0:
182,192,46257,1,8,0:0:0:0:
256,192,46357,1,0,0:0:0:0:
182,192,46458,1,0,0:0:0:0:
36,192,46559,1,0,0:0:0:0:
256,192,46659,1,8,0:0:0:0:
475,192,46659,1,8,0:0:0:0:
182,192,46760,1,0,0:0:0:0:
36,192,46861,128,0,47263:0:0:0:0:
109,192,46861,1,0,0:0:0:0:
475,192,46961,1,0,0:0:0:0:
182,192,47062,128,0,47465:0:0:0:0:
402,192,47062,1,8,0:0:0:0:
256,192,47062,1,8,0:0:0:0:
329,192,47163,1,0,0:0:0:0:
475,192,47263,128,0,47666:0:0:0:0:
402,192,47263,1,0,0:0:0:0:
109,192,47364,1,0,0:0:0:0:
329,192,47465,128,0,47867:0:0:0:0:
36,192,47465,1,8,0:0:0:0:
402,192,47465,1,8,0:0:0:0:
256,192,47565,1,0,0:0:0:0:
182,192,47666,128,0,48069:0:0:0:0:
109,192,47666,1,0,0:0:0:0:
36,192,47767,1,0,0:0:0:0:
475,192,47867,128,0,48270:0:0:0:0:
256,192,47867,1,8,0:0:0:0:
109,192,47867,1,8,0:0:0:0:
329,192,47968,1,0,0:0:0:0:
402,192,48069,1,0,0:0:0:0:
109,192,48169,1,0,0:0:0:0:
36,192,48270,128,0,48673:0:0:0:0:
182,192,48270,1,8,0:0:0:0:
402,192,48270,1,8,0:0:0:0:
329,192,48371,1,0,0:0:0:0:
256,192,48471,1,0,0:0:0:0:
182,192,48572,1,0,0:0:0:0:
402,192,48673,128,0,49075:0:0:0:0:
329,192,48673,1,8,0:0:0:0:
109,192,48673,1,8,0:0:0:0:
182,192,48773,1,0,0:0:0:0:
256,192,48874,128,0,49277:0:0:0:0:
329,192,48874,1,0,0:0:0:0:
475,192,48975,1,0,0:0:0:0:
109,192,49075,128,0,49478:0:0:0:0:
182,192,49075,1,8,0:0:0:0:
329,192,49075,1,8,0:0:0:0:
36,192,49176,1,0,0:0:0:0:
475,192,49277,128,0,49377:0:0:0:0:
329,192,49277,1,0,0:0:0:0:
256,192,49377,1,0,0:0:0:0:
36,192,49377,128,0,49881:0:0:0:0:
329,192,49478,1,0,3:0:0:0:
402,192,49478,1,0,3:0:0:0:
475,192,49478,1,0,3:0:0:0:
256,192,49579,1,0,3:0:0:0:
182,192,49579,1,0,3:0:0:0:
109,192,49579,1,0,3:0:0:0:
329,192,49679,1,0,3:0:0:0:
475,192,49679,1,0,3:0:0:0:
402,192,49679,1,0,3:0:0:0:
256,192,49780,1,0,3:0:0:0:
182,192,49780,1,0,3:0:0:0:
109,192,49780,1,0,3:0:0:0:
329,192,49881,1,0,3:0:0:0:
402,192,49881,1,0,3:0:0:0:
475,192,49881,1,0,3:0:0:0:
256,192,50082,1,0,3:0:0:0:
182,192,50082,1,0,3:0:0:0:
109,192,50082,1,0,3:0:0:0:
475,192,50283,128,0,50686:0:0:0:0:
402,192,50283,1,8,0:0:0:0:
182,192,50283,1,8,0:0:0:0:
329,192,50283,1,0,0:0:0:0:
109,192,50384,1,0,0:0:0:0:
256,192,50485,128,0,50887:0:0:0:0:
36,192,50485,1,0,0:0:0:0:
182,192,50585,1,0,0:0:0:0:
36,192,50686,128,0,51089:0:0:0:0:
109,192,50686,1,8,0:0:0:0:
329,192,50686,1,8,0:0:0:0:
402,192,50686,1,0,0:0:0:0:
182,192,50787,1,0,0:0:0:0:
402,192,50887,128,0,51290:0:0:0:0:
329,192,50887,1,0,0:0:0:0:
256,192,50988,1,0,0:0:0:0:
109,192,50988,128,0,51391:0:0:0:0:
182,192,51089,1,8,0:0:0:0:
475,192,51089,1,8,0:0:0:0:
329,192,51089,1,0,0:0:0:0:
256,192,51189,1,0,0:0:0:0:
182,192,51290,1,0,0:0:0:0:
36,192,51391,1,0,0:0:0:0:
402,192,51491,1,8,0:0:0:0:
182,192,51491,1,8,0:0:0:0:
329,192,51491,1,0,0:0:0:0:
475,192,51592,1,0,0:0:0:0:
329,192,51693,128,0,51793:0:0:0:0:
36,192,51693,1,0,0:0:0:0:
182,192,51793,128,0,51894:0:0:0:0:
109,192,51793,1,0,0:0:0:0:
475,192,51894,128,0,52297:0:0:0:0:
256,192,51894,1,0,0:0:0:0:
36,192,51894,1,8,0:0:0:0:
402,192,51894,1,8,0:0:0:0:
182,192,51995,1,0,0:0:0:0:
329,192,52095,128,0,52498:0:0:0:0:
109,192,52095,1,0,0:0:0:0:
256,192,52196,1,0,0:0:0:0:
36,192,52297,128,0,52699:0:0:0:0:
109,192,52297,1,8,0:0:0:0:
402,192,52297,1,8,0:0:0:0:
182,192,52297,1,0,0:0:0:0:
256,192,52397,1,0,0:0:0:0:
182,192,52498,128,0,52901:0:0:0:0:
402,192,52498,1,0,0:0:0:0:
475,192,52599,1,0,0:0:0:0:
329,192,52599,128,0,53002:0:0:0:0:
256,192,52699,1,0,0:0:0:0:
402,192,52699,1,8,0:0:0:0:
109,192,52699,1,8,0:0:0:0:
36,192,52800,1,0,0:0:0:0:
475,192,52901,1,0,0:0:0:0:
402,192,53002,1,0,0:0:0:0:
182,192,53102,1,8,0:0:0:0:
109,192,53102,1,0,0:0:0:0:
475,192,53102,1,8,0:0:0:0:
256,192,53304,128,0,53505:0:0:0:0:
475,192,53505,128,0,53606:0:0:0:0:
402,192,53505,128,0,53606:0:0:0:0:
182,192,53505,1,0,3:0:0:0:
109,192,53706,128,0,53807:0:0:0:0:
36,192,53706,128,0,53807:0:0:0:0:
329,192,53706,1,0,3:0:0:0:
475,192,53908,128,0,54008:0:0:0:0:
402,192,53908,128,0,54008:0:0:0:0:
182,192,53908,1,0,3:0:0:0:
36,192,54109,128,0,54210:0:0:0:0:
109,192,54109,128,0,54210:0:0:0:0:
329,192,54109,1,0,3:0:0:0:
475,192,54310,128,0,54411:0:0:0:0:
402,192,54310,128,0,54411:0:0:0:0:
182,192,54310,1,0,3:0:0:0:
256,192,54411,1,0,3:0:0:0:
109,192,54512,128,0,54612:0:0:0:0:
36,192,54512,128,0,54612:0:0:0:0:
329,192,54512,1,0,3:0:0:0:
182,192,54612,1,0,3:0:0:0:
475,192,54713,128,0,54814:0:0:0:0:
402,192,54713,128,0,54814:0:0:0:0:
256,192,54713,1,0,3:0:0:0:
329,192,54814,1,0,3:0:0:0:
109,192,54914,128,0,55015:0:0:0:0:
36,192,54914,128,0,55015:0:0:0:0:
182,192,54914,1,0,3:0:0:0:
256,192,55015,1,0,3:0:0:0:
329,192,55116,1,0,3:0:0:0:
475,192,55116,128,0,56324:0:0:0:0:
182,192,55116,1,4,3:0:0:0:
402,192,55116,1,4,3:0:0:0:
256,192,55518,128,0,56324:0:0:0:0:
109,192,55518,1,4,3:0:0:0:
36,192,55921,128,0,56324:0:0:0:0:
109,192,56324,1,4,3:0:0:0:
402,192,56324,1,4,3:0:0:0:
329,192,56324,1,4,3:0:0:0:
182,192,56324,1,4,3:0:0:0:
109,192,56525,1,4,3:0:0:0:
402,192,56525,1,4,3:0:0:0:
329,192,56525,1,4,3:0:0:0:
182,192,56525,1,4,3:0:0:0:
36,192,56726,1,2,0:0:0:0:
475,192,56726,1,2,0:0:0:0:
109,192,57028,1,4,3:0:0:0:
182,192,57028,1,4,3:0:0:0:
329,192,57028,1,4,3:0:0:0:
402,192,57028,1,4,3:0:0:0:
329,192,57532,1,0,3:0:0:0:
182,192,57532,128,0,57632:0:0:0:0:
475,192,57532,128,0,57733:0:0:0:0:
402,192,57632,128,0,57834:0:0:0:0:
109,192,57632,128,0,57733:0:0:0:0:
256,192,57632,1,0,3:0:0:0:
36,192,57733,128,0,57834:0:0:0:0:
329,192,57733,128,0,57934:0:0:0:0:
182,192,57733,1,0,3:0:0:0:
256,192,57834,128,0,58035:0:0:0:0:
109,192,57834,1,0,3:0:0:0:
475,192,57834,128,0,57934:0:0:0:0:
182,192,57934,128,0,58136:0:0:0:0:
402,192,57934,128,0,58035:0:0:0:0:
36,192,57934,1,0,3:0:0:0:
475,192,58035,1,0,3:0:0:0:
109,192,58035,128,0,58236:0:0:0:0:
329,192,58035,128,0,58136:0:0:0:0:
256,192,58136,128,0,58236:0:0:0:0:
36,192,58136,128,0,58236:0:0:0:0:
402,192,58136,1,0,3:0:0:0:
182,192,58236,128,0,58337:0:0:0:0:
329,192,58236,1,0,3:0:0:0:
475,192,58236,128,0,58337:0:0:0:0:
109,192,58337,128,0,58740:0:0:0:0:
36,192,58337,1,8,0:0:0:0:
256,192,58337,128,2,58538:0:0:0:0:
402,192,58337,1,0,0:0:0:0:
329,192,58438,128,2,58639:0:0:0:0:
475,192,58438,1,0,0:0:0:0:
182,192,58538,128,2,58740:0:0:0:0:
36,192,58538,1,0,0:0:0:0:
256,192,58639,128,2,58840:0:0:0:0:
475,192,58639,1,0,0:0:0:0:
402,192,58740,128,0,58941:0:0:0:0:
36,192,58740,128,2,58941:0:0:0:0:
329,192,58740,1,8,0:0:0:0:
109,192,58840,128,2,59042:0:0:0:0:
475,192,58840,1,0,0:0:0:0:
329,192,58941,128,0,59042:0:0:0:0:
182,192,58941,128,2,59142:0:0:0:0:
256,192,58941,1,0,0:0:0:0:
402,192,59042,128,2,59243:0:0:0:0:
36,192,59042,1,0,0:0:0:0:
256,192,59042,128,0,59344:0:0:0:0:
475,192,59142,128,2,59344:0:0:0:0:
109,192,59142,1,8,0:0:0:0:
36,192,59243,128,2,59444:0:0:0:0:
182,192,59243,1,0,0:0:0:0:
109,192,59344,128,2,59545:0:0:0:0:
329,192,59344,1,0,0:0:0:0:
402,192,59444,1,0,0:0:0:0:
36,192,59545,128,0,59746:0:0:0:0:
475,192,59545,128,2,59746:0:0:0:0:
329,192,59545,1,8,0:0:0:0:
402,192,59646,128,2,59847:0:0:0:0:
256,192,59646,1,0,0:0:0:0:
182,192,59746,128,0,59948:0:0:0:0:
329,192,59746,128,2,59948:0:0:0:0:
109,192,59746,1,0,0:0:0:0:
36,192,59847,128,2,60048:0:0:0:0:
256,192,59847,1,0,0:0:0:0:
475,192,59948,128,0,60350:0:0:0:0:
109,192,59948,128,2,60149:0:0:0:0:
402,192,59948,1,8,0:0:0:0:
182,192,60048,128,2,60250:0:0:0:0:
256,192,60048,1,0,0:0:0:0:
402,192,60149,128,2,60350:0:0:0:0:
329,192,60149,1,0,0:0:0:0:
256,192,60250,128,2,60451:0:0:0:0:
109,192,60250,1,0,0:0:0:0:
329,192,60350,128,0,60552:0:0:0:0:
36,192,60350,128,2,60552:0:0:0:0:
182,192,60350,1,8,0:0:0:0:
109,192,60451,128,2,60653:0:0:0:0:
402,192,60451,1,0,0:0:0:0:
402,192,60552,128,0,60653:0:0:0:0:
182,192,60552,128,2,60753:0:0:0:0:
256,192,60552,1,0,0:0:0:0:
329,192,60653,128,2,60854:0:0:0:0:
36,192,60653,1,0,0:0:0:0:
256,192,60653,128,0,60955:0:0:0:0:
475,192,60753,128,2,60955:0:0:0:0:
109,192,60753,1,8,0:0:0:0:
402,192,60854,128,2,61055:0:0:0:0:
36,192,60854,1,0,0:0:0:0:
182,192,60955,128,2,61156:0:0:0:0:
329,192,60955,1,0,0:0:0:0:
109,192,61055,128,2,61257:0:0:0:0:
475,192,61055,1,0,0:0:0:0:
402,192,61156,128,0,61357:0:0:0:0:
36,192,61156,128,2,61357:0:0:0:0:
256,192,61156,1,8,0:0:0:0:
329,192,61257,128,2,61458:0:0:0:0:
182,192,61257,1,0,0:0:0:0:
475,192,61357,128,0,61559:0:0:0:0:
256,192,61357,128,2,61559:0:0:0:0:
109,192,61357,1,0,0:0:0:0:
182,192,61458,128,2,61659:0:0:0:0:
402,192,61458,1,0,0:0:0:0:
36,192,61559,128,0,61961:0:0:0:0:
329,192,61559,128,2,61760:0:0:0:0:
109,192,61559,1,8,0:0:0:0:
256,192,61659,128,2,61861:0:0:0:0:
475,192,61659,1,0,0:0:0:0:
109,192,61760,128,2,61961:0:0:0:0:
402,192,61760,1,0,0:0:0:0:
182,192,61861,128,2,62062:0:0:0:0:
475,192,61861,1,0,0:0:0:0:
329,192,61961,1,8,0:0:0:0:
256,192,61961,128,2,62163:0:0:0:0:
402,192,61961,128,0,62163:0:0:0:0:
109,192,62062,128,2,62263:0:0:0:0:
475,192,62062,1,0,0:0:0:0:
329,192,62163,128,2,62364:0:0:0:0:
36,192,62163,1,0,0:0:0:0:
182,192,62163,128,0,62263:0:0:0:0:
256,192,62263,128,2,62465:0:0:0:0:
475,192,62263,1,0,0:0:0:0:
36,192,62263,128,0,62565:0:0:0:0:
109,192,62364,1,8,0:0:0:0:
402,192,62364,128,2,62565:0:0:0:0:
182,192,62465,1,0,0:0:0:0:
475,192,62465,128,2,62666:0:0:0:0:
329,192,62565,128,2,62767:0:0:0:0:
109,192,62565,128,0,62767:0:0:0:0:
256,192,62565,1,0,0:0:0:0:
182,192,62666,1,0,0:0:0:0:
402,192,62666,128,2,62867:0:0:0:0:
36,192,62767,128,0,62968:0:0:0:0:
256,192,62767,1,8,0:0:0:0:
475,192,62767,128,2,62968:0:0:0:0:
182,192,62867,128,2,63069:0:0:0:0:
109,192,62867,1,0,0:0:0:0:
256,192,62968,128,0,63169:0:0:0:0:
402,192,62968,128,2,63169:0:0:0:0:
329,192,62968,1,0,0:0:0:0:
475,192,63069,128,2,63169:0:0:0:0:
109,192,63069,1,0,0:0:0:0:
36,192,63169,128,0,63371:0:0:0:0:
329,192,63169,128,0,63270:0:0:0:0:
182,192,63169,1,0,0:0:0:0:
109,192,63270,128,0,63471:0:0:0:0:
402,192,63270,128,0,63371:0:0:0:0:
256,192,63270,1,0,0:0:0:0:
182,192,63371,128,0,63572:0:0:0:0:
475,192,63371,128,0,63471:0:0:0:0:
329,192,63371,1,0,0:0:0:0:
36,192,63471,128,0,63572:0:0:0:0:
256,192,63471,128,0,63673:0:0:0:0:
402,192,63471,1,0,0:0:0:0:
109,192,63572,128,0,63673:0:0:0:0:
329,192,63572,128,0,63773:0:0:0:0:
475,192,63572,1,0,0:0:0:0:
182,192,63673,128,0,63773:0:0:0:0:
402,192,63673,128,0,63874:0:0:0:0:
36,192,63673,1,0,0:0:0:0:
475,192,63773,128,0,64075:0:0:0:0:
256,192,63773,128,0,63874:0:0:0:0:
109,192,63773,1,0,0:0:0:0:
329,192,63874,128,0,63975:0:0:0:0:
36,192,63874,128,0,63975:0:0:0:0:
182,192,63874,1,0,0:0:0:0:
402,192,63975,128,0,64176:0:0:0:0:
256,192,63975,1,0,0:0:0:0:
109,192,63975,128,0,64075:0:0:0:0:
329,192,64075,128,0,64277:0:0:0:0:
182,192,64075,1,0,0:0:0:0:
36,192,64075,128,0,64176:0:0:0:0:
256,192,64176,128,0,64377:0:0:0:0:
475,192,64176,128,0,64277:0:0:0:0:
109,192,64176,1,0,0:0:0:0:
402,192,64277,128,0,64377:0:0:0:0:
182,192,64277,128,0,64478:0:0:0:0:
36,192,64277,1,0,0:0:0:0:
109,192,64377,128,0,64579:0:0:0:0:
329,192,64377,128,0,64478:0:0:0:0:
475,192,64377,1,0,0:0:0:0:
36,192,64478,128,0,64679:0:0:0:0:
256,192,64478,128,0,64579:0:0:0:0:
402,192,64478,1,0,0:0:0:0:
475,192,64579,128,0,64679:0:0:0:0:
182,192,64579,128,0,64679:0:0:0:0:
329,192,64579,1,0,0:0:0:0:
402,192,64679,128,0,64780:0:0:0:0:
109,192,64679,128,0,64780:0:0:0:0:
256,192,64679,1,0,0:0:0:0:
182,192,64780,1,8,0:0:0:0:
329,192,64780,128,0,65183:0:0:0:0:
36,192,64780,128,2,64981:0:0:0:0:
109,192,64881,128,2,65082:0:0:0:0:
256,192,64881,1,0,0:0:0:0:
402,192,64981,128,2,65183:0:0:0:0:
475,192,64981,1,0,0:0:0:0:
182,192,65082,128,2,65283:0:0:0:0:
256,192,65082,1,0,0:0:0:0:
475,192,65183,128,0,65384:0:0:0:0:
109,192,65183,1,8,0:0:0:0:
36,192,65183,128,2,65384:0:0:0:0:
256,192,65283,128,2,65485:0:0:0:0:
329,192,65283,1,0,0:0:0:0:
109,192,65384,128,0,65485:0:0:0:0:
402,192,65384,128,2,65585:0:0:0:0:
182,192,65384,1,0,0:0:0:0:
329,192,65485,128,2,65686:0:0:0:0:
36,192,65485,1,0,0:0:0:0:
182,192,65485,128,0,65787:0:0:0:0:
475,192,65585,128,2,65787:0:0:0:0:
256,192,65585,1,8,0:0:0:0:
402,192,65686,128,2,65887:0:0:0:0:
109,192,65686,1,0,0:0:0:0:
329,192,65787,128,2,65988:0:0:0:0:
36,192,65787,1,0,0:0:0:0:
475,192,65887,128,2,66089:0:0:0:0:
109,192,65887,1,0,0:0:0:0:
36,192,65988,128,0,66189:0:0:0:0:
182,192,65988,1,8,0:0:0:0:
402,192,65988,128,2,66189:0:0:0:0:
329,192,66089,128,2,66290:0:0:0:0:
109,192,66089,1,0,0:0:0:0:
182,192,66189,128,0,66391:0:0:0:0:
256,192,66189,128,2,66391:0:0:0:0:
475,192,66189,1,0,0:0:0:0:
36,192,66290,128,2,66491:0:0:0:0:
402,192,66290,1,0,0:0:0:0:
329,192,66391,128,0,66793:0:0:0:0:
109,192,66391,128,2,66592:0:0:0:0:
475,192,66391,1,8,0:0:0:0:
182,192,66491,128,2,66693:0:0:0:0:
402,192,66491,1,0,0:0:0:0:
475,192,66592,128,2,66793:0:0:0:0:
256,192,66592,1,0,0:0:0:0:
402,192,66693,128,2,66894:0:0:0:0:
36,192,66693,1,0,0:0:0:0:
182,192,66793,128,0,66995:0:0:0:0:
256,192,66793,1,8,0:0:0:0:
109,192,66793,128,2,66995:0:0:0:0:
475,192,66894,128,2,67095:0:0:0:0:
329,192,66894,1,0,0:0:0:0:
36,192,66995,128,2,67196:0:0:0:0:
256,192,66995,1,0,0:0:0:0:
402,192,66995,128,0,67095:0:0:0:0:
109,192,67095,128,2,67297:0:0:0:0:
329,192,67095,1,0,0:0:0:0:
256,192,67095,128,0,67498:0:0:0:0:
182,192,67196,128,2,67397:0:0:0:0:
402,192,67196,1,8,0:0:0:0:
475,192,67297,128,2,67498:0:0:0:0:
329,192,67297,1,0,0:0:0:0:
402,192,67397,128,2,67599:0:0:0:0:
36,192,67397,1,0,0:0:0:0:
329,192,67498,128,2,67599:0:0:0:0:
109,192,67498,1,0,0:0:0:0:
182,192,67599,128,0,67800:0:0:0:0:
36,192,67599,1,8,0:0:0:0:
256,192,67800,128,0,68002:0:0:0:0:
329,192,68002,128,0,68102:0:0:0:0:
402,192,68002,128,0,68102:0:0:0:0:
36,192,68002,1,0,3:0:0:0:
109,192,68002,1,0,3:0:0:0:
475,192,68002,1,0,3:0:0:0:
109,192,68203,128,0,68304:0:0:0:0:
182,192,68203,128,0,68304:0:0:0:0:
402,192,68203,1,0,3:0:0:0:
475,192,68203,1,0,3:0:0:0:
36,192,68203,1,0,3:0:0:0:
402,192,68404,128,0,68505:0:0:0:0:
329,192,68404,128,0,68505:0:0:0:0:
36,192,68404,1,0,3:0:0:0:
109,192,68404,1,0,3:0:0:0:
475,192,68404,1,0,3:0:0:0:
109,192,68606,128,0,68706:0:0:0:0:
182,192,68606,128,0,68706:0:0:0:0:
402,192,68606,1,0,3:0:0:0:
475,192,68606,1,0,3:0:0:0:
36,192,68606,1,0,3:0:0:0:
256,192,68706,128,0,69008:0:0:0:0:
402,192,69008,128,0,69612:0:0:0:0:
256,192,69210,128,0,69612:0:0:0:0:
109,192,69411,128,0,69612:0:0:0:0:
182,192,69612,128,0,69713:0:0:0:0:
475,192,69612,128,0,69814:0:0:0:0:
329,192,69612,1,0,0:0:0:0:
109,192,69713,128,0,69814:0:0:0:0:
402,192,69713,128,0,69914:0:0:0:0:
256,192,69713,1,0,0:0:0:0:
36,192,69814,128,0,69914:0:0:0:0:
329,192,69814,128,0,70015:0:0:0:0:
182,192,69814,1,0,0:0:0:0:
256,192,69914,128,0,70116:0:0:0:0:
475,192,69914,128,0,70015:0:0:0:0:
109,192,69914,1,0,0:0:0:0:
182,192,70015,128,0,70216:0:0:0:0:
402,192,70015,128,0,70116:0:0:0:0:
36,192,70015,1,0,0:0:0:0:
109,192,70116,128,0,70418:0:0:0:0:
329,192,70116,128,0,70216:0:0:0:0:
475,192,70116,1,0,0:0:0:0:
36,192,70216,128,0,70317:0:0:0:0:
256,192,70216,128,0,70317:0:0:0:0:
402,192,70216,1,0,0:0:0:0:
475,192,70317,128,0,70418:0:0:0:0:
182,192,70317,128,0,70518:0:0:0:0:
329,192,70317,1,0,0:0:0:0:
36,192,70418,128,0,70518:0:0:0:0:
256,192,70418,128,0,70619:0:0:0:0:
402,192,70418,1,0,0:0:0:0:
109,192,70518,128,0,70619:0:0:0:0:
329,192,70518,128,0,70720:0:0:0:0:
475,192,70518,1,0,0:0:0:0:
182,192,70619,128,0,70720:0:0:0:0:
402,192,70619,128,0,70820:0:0:0:0:
36,192,70619,1,0,0:0:0:0:
256,192,70720,128,0,70820:0:0:0:0:
475,192,70720,128,0,70921:0:0:0:0:
109,192,70720,1,0,0:0:0:0:
329,192,70820,128,0,70921:0:0:0:0:
36,192,70820,128,0,71022:0:0:0:0:
182,192,70820,1,0,0:0:0:0:
402,192,70921,128,0,71022:0:0:0:0:
109,192,70921,128,0,71122:0:0:0:0:
256,192,70921,1,0,0:0:0:0:
475,192,71022,128,0,71122:0:0:0:0:
182,192,71022,128,0,71122:0:0:0:0:
329,192,71022,1,0,0:0:0:0:
36,192,71122,128,0,71223:0:0:0:0:
256,192,71122,128,0,71223:0:0:0:0:
402,192,71122,1,0,0:0:0:0:
475,192,71223,1,0,0:0:0:0:
329,192,71223,1,0,0:0:0:0:
109,192,71223,1,0,0:0:0:0:
182,192,71223,1,0,0:0:0:0:
256,192,71626,1,0,0:0:0:0:
36,192,71626,1,0,0:0:0:0:
329,192,71626,1,0,0:0:0:0:
402,192,71626,1,0,0:0:0:0:
109,192,72028,1,0,0:0:0:0:
182,192,72028,1,0,0:0:0:0:
329,192,72028,1,0,0:0:0:0:
475,192,72028,1,0,0:0:0:0:
109,192,72230,1,0,0:0:0:0:
182,192,72230,1,0,0:0:0:0:
329,192,72230,1,0,0:0:0:0:
475,192,72230,1,0,0:0:0:0:
109,192,72431,1,0,0:0:0:0:
182,192,72431,1,0,0:0:0:0:
329,192,72431,1,0,0:0:0:0:
475,192,72431,1,0,0:0:0:0:
109,192,72632,1,0,0:0:0:0:
182,192,72632,1,0,0:0:0:0:
329,192,72632,1,0,0:0:0:0:
475,192,72632,1,0,0:0:0:0:
402,192,72834,1,2,0:0:0:0:
182,192,72834,1,2,0:0:0:0:
329,192,72934,1,2,0:0:0:0:
109,192,72934,1,2,0:0:0:0:
256,192,73035,1,2,0:0:0:0:
36,192,73035,1,2,0:0:0:0:
182,192,73136,1,2,0:0:0:0:
475,192,73136,1,2,0:0:0:0:
109,192,73236,1,2,0:0:0:0:
402,192,73236,1,2,0:0:0:0:
329,192,73337,1,2,0:0:0:0:
36,192,73337,1,2,0:0:0:0:
256,192,73438,1,2,0:0:0:0:
182,192,73538,1,2,0:0:0:0:
475,192,73538,1,2,0:0:0:0:
109,192,73639,1,2,0:0:0:0:
402,192,73639,1,2,0:0:0:0:
329,192,73689,1,2,0:0:0:0:
36,192,73689,1,2,0:0:0:0:
256,192,73740,1,2,0:0:0:0:
475,192,73740,1,2,0:0:0:0:
182,192,73840,1,2,0:0:0:0:
402,192,73840,1,2,0:0:0:0:
109,192,73941,1,2,0:0:0:0:
329,192,73941,1,2,0:0:0:0:
36,192,74042,1,2,0:0:0:0:
256,192,74042,1,2,0:0:0:0:
182,192,74142,1,2,0:0:0:0:
475,192,74142,1,2,0:0:0:0:
109,192,74243,1,2,0:0:0:0:
402,192,74243,1,2,0:0:0:0:
36,192,74344,1,2,0:0:0:0:
329,192,74344,1,2,0:0:0:0:
256,192,74444,1,2,0:0:0:0:
475,192,74444,1,2,0:0:0:0:
109,192,74444,1,2,0:0:0:0:
182,192,74545,1,2,0:0:0:0:
329,192,74545,1,2,0:0:0:0:
256,192,74646,1,2,0:0:0:0:
402,192,74646,1,2,0:0:0:0:
329,192,74746,1,2,0:0:0:0:
475,192,74746,1,2,0:0:0:0:
402,192,74847,1,2,0:0:0:0:
256,192,74847,1,2,0:0:0:0:
329,192,74948,1,2,0:0:0:0:
182,192,74948,1,2,0:0:0:0:
256,192,75048,1,2,0:0:0:0:
109,192,75048,1,2,0:0:0:0:
36,192,75653,1,2,0:0:0:0:
402,192,75653,1,2,0:0:0:0:
109,192,75854,1,2,0:0:0:0:
475,192,75854,1,2,0:0:0:0:
402,192,76055,1,2,0:0:0:0:
256,192,76055,1,2,0:0:0:0:
329,192,76156,1,2,0:0:0:0:
182,192,76156,1,2,0:0:0:0:
256,192,76257,1,2,0:0:0:0:
109,192,76257,1,2,0:0:0:0:
36,192,76357,1,2,0:0:0:0:
182,192,76357,1,2,0:0:0:0:
256,192,76458,1,2,0:0:0:0:
109,192,76458,1,2,0:0:0:0:
329,192,76559,1,2,0:0:0:0:
182,192,76559,1,2,0:0:0:0:
402,192,76659,1,2,0:0:0:0:
256,192,76659,1,2,0:0:0:0:
475,192,77263,1,2,0:0:0:0:
109,192,77263,1,2,0:0:0:0:
36,192,77465,1,2,0:0:0:0:
402,192,77465,1,2,0:0:0:0:
256,192,77666,1,2,0:0:0:0:
109,192,77666,1,2,0:0:0:0:
182,192,77767,1,2,0:0:0:0:
329,192,77767,1,2,0:0:0:0:
256,192,77867,1,2,0:0:0:0:
402,192,77867,1,2,0:0:0:0:
475,192,77968,1,2,0:0:0:0:
329,192,77968,1,2,0:0:0:0:
402,192,78069,1,2,0:0:0:0:
256,192,78069,1,2,0:0:0:0:
182,192,78169,1,2,0:0:0:0:
329,192,78169,1,2,0:0:0:0:
256,192,78270,1,2,0:0:0:0:
109,192,78270,1,2,0:0:0:0:
36,192,78874,1,2,0:0:0:0:
402,192,78874,1,2,0:0:0:0:
109,192,79075,1,2,0:0:0:0:
475,192,79075,1,2,0:0:0:0:
402,192,79277,1,2,0:0:0:0:
256,192,79277,1,2,0:0:0:0:
182,192,79377,1,2,0:0:0:0:
329,192,79377,1,2,0:0:0:0:
109,192,79478,1,2,0:0:0:0:
256,192,79478,1,2,0:0:0:0:
182,192,79579,1,2,0:0:0:0:
36,192,79579,1,2,0:0:0:0:
256,192,79679,1,2,0:0:0:0:
109,192,79679,1,2,0:0:0:0:
182,192,79780,1,2,0:0:0:0:
329,192,79780,1,2,0:0:0:0:
402,192,79881,1,2,0:0:0:0:
256,192,79881,1,2,0:0:0:0:
36,192,80887,1,0,0:0:0:0:
182,192,80887,1,0,0:0:0:0:
475,192,80887,1,0,0:0:0:0:
475,192,82498,1,0,0:0:0:0:
329,192,82498,1,0,0:0:0:0:
36,192,82498,1,0,0:0:0:0:
36,192,83002,1,2,0:0:0:0:
329,192,83002,1,2,0:0:0:0:
109,192,83052,1,2,0:0:0:0:
402,192,83052,1,2,0:0:0:0:
182,192,83102,1,2,0:0:0:0:
475,192,83102,1,2,0:0:0:0:
256,192,83153,1,2,0:0:0:0:
36,192,83153,1,2,0:0:0:0:
109,192,83203,1,2,0:0:0:0:
329,192,83203,1,2,0:0:0:0:
182,192,83253,1,2,0:0:0:0:
402,192,83253,1,2,0:0:0:0:
475,192,83304,1,2,0:0:0:0:
256,192,83304,1,2,0:0:0:0:
329,192,83404,1,2,0:0:0:0:
36,192,83404,1,2,0:0:0:0:
109,192,83505,1,2,0:0:0:0:
402,192,83505,1,2,0:0:0:0:
475,192,83606,1,2,0:0:0:0:
182,192,83606,1,2,0:0:0:0:
402,192,83706,1,2,0:0:0:0:
256,192,83706,1,2,0:0:0:0:
256,192,84109,128,0,84512:0:0:0:0:
36,192,84109,1,0,0:0:0:0:
109,192,84210,1,0,0:0:0:0:
182,192,84310,1,0,0:0:0:0:
402,192,84411,1,0,0:0:0:0:
475,192,84512,128,0,84914:0:0:0:0:
329,192,84512,1,0,0:0:0:0:
256,192,84612,1,0,0:0:0:0:
36,192,84713,128,0,85116:0:0:0:0:
109,192,84713,1,0,0:0:0:0:
256,192,84814,128,0,85216:0:0:0:0:
182,192,84814,1,0,0:0:0:0:
109,192,84914,1,0,0:0:0:0:
402,192,84914,1,0,0:0:0:0:
329,192,85015,1,0,0:0:0:0:
402,192,85116,1,0,0:0:0:0:
36,192,85216,1,0,0:0:0:0:
475,192,85317,128,0,85720:0:0:0:0:
109,192,85317,1,0,0:0:0:0:
182,192,85418,1,0,0:0:0:0:
329,192,85518,128,0,85921:0:0:0:0:
109,192,85518,1,0,0:0:0:0:
36,192,85619,1,0,0:0:0:0:
182,192,85720,128,0,86122:0:0:0:0:
402,192,85720,1,0,0:0:0:0:
475,192,85820,1,0,0:0:0:0:
402,192,85921,1,0,0:0:0:0:
329,192,86022,1,0,0:0:0:0:
36,192,86122,128,0,86525:0:0:0:0:
256,192,86122,1,0,0:0:0:0:
109,192,86223,1,0,0:0:0:0:
475,192,86324,128,0,86726:0:0:0:0:
182,192,86324,1,0,0:0:0:0:
329,192,86424,128,0,86827:0:0:0:0:
256,192,86424,1,0,0:0:0:0:
109,192,86525,1,0,0:0:0:0:
182,192,86626,1,0,0:0:0:0:
256,192,86726,1,0,0:0:0:0:
182,192,86827,1,0,0:0:0:0:
36,192,86928,128,0,87330:0:0:0:0:
109,192,86928,1,0,0:0:0:0:
475,192,87028,1,0,0:0:0:0:
182,192,87129,128,0,87532:0:0:0:0:
402,192,87129,1,0,0:0:0:0:
475,192,87230,1,0,0:0:0:0:
329,192,87330,128,0,87733:0:0:0:0:
109,192,87330,1,0,0:0:0:0:
36,192,87431,1,0,0:0:0:0:
109,192,87532,1,0,0:0:0:0:
182,192,87632,1,0,0:0:0:0:
475,192,87733,128,0,88136:0:0:0:0:
256,192,87733,1,0,0:0:0:0:
182,192,87834,1,0,0:0:0:0:
256,192,87934,128,0,88337:0:0:0:0:
109,192,87934,1,0,0:0:0:0:
36,192,88035,128,0,88438:0:0:0:0:
402,192,88035,1,0,0:0:0:0:
329,192,88136,1,0,0:0:0:0:
402,192,88236,1,0,0:0:0:0:
475,192,88337,128,0,88740:0:0:0:0:
109,192,88337,1,0,0:0:0:0:
182,192,88438,1,0,0:0:0:0:
329,192,88538,128,0,88941:0:0:0:0:
256,192,88538,1,0,0:0:0:0:
36,192,88639,1,0,0:0:0:0:
182,192,88740,128,0,88941:0:0:0:0:
109,192,88740,1,0,0:0:0:0:
36,192,88840,1,0,0:0:0:0:
402,192,88941,128,0,89042:0:0:0:0:
109,192,88941,128,0,89142:0:0:0:0:
256,192,88941,1,0,0:0:0:0:
475,192,89042,128,0,89142:0:0:0:0:
182,192,89042,128,0,89243:0:0:0:0:
329,192,89042,1,0,0:0:0:0:
36,192,89142,128,0,89243:0:0:0:0:
256,192,89142,128,0,89344:0:0:0:0:
402,192,89142,1,0,0:0:0:0:
109,192,89243,128,0,89344:0:0:0:0:
329,192,89243,128,0,89444:0:0:0:0:
475,192,89243,1,0,0:0:0:0:
182,192,89344,128,0,89444:0:0:0:0:
402,192,89344,128,0,89545:0:0:0:0:
36,192,89344,1,0,0:0:0:0:
256,192,89444,128,0,89545:0:0:0:0:
475,192,89444,128,0,89746:0:0:0:0:
109,192,89444,1,0,0:0:0:0:
329,192,89545,128,0,89646:0:0:0:0:
36,192,89545,128,0,89646:0:0:0:0:
182,192,89545,1,0,0:0:0:0:
402,192,89646,128,0,89847:0:0:0:0:
109,192,89646,128,0,89746:0:0:0:0:
256,192,89646,1,0,0:0:0:0:
36,192,89746,128,0,89847:0:0:0:0:
329,192,89746,128,0,89948:0:0:0:0:
182,192,89746,1,0,0:0:0:0:
256,192,89847,128,0,90048:0:0:0:0:
475,192,89847,128,0,89948:0:0:0:0:
109,192,89847,1,0,0:0:0:0:
182,192,89948,128,0,90149:0:0:0:0:
402,192,89948,128,0,90048:0:0:0:0:
36,192,89948,1,0,0:0:0:0:
109,192,90048,128,0,90250:0:0:0:0:
329,192,90048,128,0,90149:0:0:0:0:
475,192,90048,1,0,0:0:0:0:
36,192,90149,128,0,90350:0:0:0:0:
256,192,90149,128,0,90250:0:0:0:0:
402,192,90149,1,0,0:0:0:0:
182,192,90250,128,0,90350:0:0:0:0:
475,192,90250,128,0,90350:0:0:0:0:
329,192,90250,1,0,0:0:0:0:
402,192,90350,128,0,90451:0:0:0:0:
109,192,90350,128,0,90451:0:0:0:0:
256,192,90350,1,0,0:0:0:0:
329,192,90451,128,0,90552:0:0:0:0:
36,192,90451,128,0,90552:0:0:0:0:
182,192,90451,1,0,0:0:0:0:
109,192,90552,1,0,0:0:0:0:
256,192,90552,128,0,90955:0:0:0:0:
36,192,90653,1,0,0:0:0:0:
329,192,90753,1,0,0:0:0:0:
182,192,90854,1,0,0:0:0:0:
36,192,90955,128,0,91357:0:0:0:0:
109,192,90955,1,4,3:0:0:0:
402,192,90955,1,4,3:0:0:0:
182,192,91055,1,0,0:0:0:0:
475,192,91156,128,0,91559:0:0:0:0:
109,192,91156,1,0,0:0:0:0:
256,192,91257,128,0,91659:0:0:0:0:
402,192,91257,1,0,0:0:0:0:
329,192,91357,1,0,0:0:0:0:
402,192,91458,1,0,0:0:0:0:
36,192,91559,1,0,0:0:0:0:
109,192,91659,1,0,0:0:0:0:
36,192,91760,128,0,92163:0:0:0:0:
182,192,91760,1,4,3:0:0:0:
402,192,91760,1,4,3:0:0:0:
329,192,91861,1,0,0:0:0:0:
182,192,91961,128,0,92364:0:0:0:0:
256,192,91961,1,0,0:0:0:0:
475,192,92062,1,0,0:0:0:0:
329,192,92163,128,0,92565:0:0:0:0:
402,192,92163,1,0,0:0:0:0:
109,192,92263,1,0,0:0:0:0:
36,192,92364,1,0,0:0:0:0:
256,192,92465,1,0,0:0:0:0:
475,192,92565,128,0,92968:0:0:0:0:
109,192,92565,1,4,3:0:0:0:
402,192,92565,1,4,3:0:0:0:
182,192,92565,1,0,0:0:0:0:
329,192,92666,1,0,0:0:0:0:
256,192,92767,128,0,93169:0:0:0:0:
402,192,92767,1,0,0:0:0:0:
36,192,92867,128,0,93270:0:0:0:0:
109,192,92867,1,0,0:0:0:0:
182,192,92968,1,0,0:0:0:0:
329,192,93069,1,0,0:0:0:0:
402,192,93169,1,0,0:0:0:0:
475,192,93270,1,0,0:0:0:0:
402,192,93371,128,0,93773:0:0:0:0:
109,192,93371,1,4,3:0:0:0:
329,192,93371,1,4,3:0:0:0:
182,192,93471,1,0,0:0:0:0:
256,192,93572,128,0,93975:0:0:0:0:
329,192,93572,1,0,0:0:0:0:
182,192,93673,1,0,0:0:0:0:
36,192,93773,128,0,94176:0:0:0:0:
109,192,93773,1,4,3:0:0:0:
475,192,93773,1,4,3:0:0:0:
402,192,93874,1,0,0:0:0:0:
182,192,93975,128,0,94377:0:0:0:0:
329,192,93975,1,0,0:0:0:0:
256,192,94075,1,0,0:0:0:0:
329,192,94176,128,0,94579:0:0:0:0:
402,192,94176,1,4,3:0:0:0:
109,192,94176,1,4,3:0:0:0:
475,192,94277,1,0,0:0:0:0:
36,192,94377,128,0,94780:0:0:0:0:
256,192,94377,1,4,3:0:0:0:
475,192,94478,128,0,94881:0:0:0:0:
182,192,94478,1,4,3:0:0:0:
402,192,94478,1,0,0:0:0:0:
109,192,94579,1,0,0:0:0:0:
256,192,94679,1,4,3:0:0:0:
329,192,94679,1,0,0:0:0:0:
402,192,94780,128,0,95183:0:0:0:0:
182,192,94780,1,4,3:0:0:0:
256,192,94780,1,0,0:0:0:0:
109,192,94881,1,4,3:0:0:0:
182,192,94881,1,0,0:0:0:0:
256,192,94981,128,0,95384:0:0:0:0:
36,192,94981,1,4,3:0:0:0:
329,192,94981,1,4,3:0:0:0:
109,192,94981,1,0,0:0:0:0:
182,192,95082,1,0,0:0:0:0:
109,192,95183,128,0,95384:0:0:0:0:
36,192,95183,1,4,3:0:0:0:
475,192,95183,1,4,3:0:0:0:
329,192,95183,1,0,0:0:0:0:
402,192,95283,1,0,0:0:0:0:
182,192,95384,128,0,95485:0:0:0:0:
475,192,95384,128,0,95585:0:0:0:0:
329,192,95384,1,0,0:0:0:0:
402,192,95485,128,0,95686:0:0:0:0:
109,192,95485,128,0,95585:0:0:0:0:
256,192,95485,1,0,0:0:0:0:
329,192,95585,128,0,95787:0:0:0:0:
36,192,95585,128,0,95686:0:0:0:0:
182,192,95585,1,0,0:0:0:0:
256,192,95686,128,0,95887:0:0:0:0:
475,192,95686,128,0,95787:0:0:0:0:
109,192,95686,1,0,0:0:0:0:
182,192,95787,128,0,95988:0:0:0:0:
402,192,95787,128,0,95887:0:0:0:0:
36,192,95787,1,0,0:0:0:0:
109,192,95887,128,0,96189:0:0:0:0:
329,192,95887,128,0,95988:0:0:0:0:
475,192,95887,1,0,0:0:0:0:
256,192,95988,128,0,96089:0:0:0:0:
36,192,95988,128,0,96089:0:0:0:0:
402,192,95988,1,0,0:0:0:0:
182,192,96089,128,0,96290:0:0:0:0:
475,192,96089,128,0,96189:0:0:0:0:
329,192,96089,1,0,0:0:0:0:
256,192,96189,128,0,96391:0:0:0:0:
36,192,96189,128,0,96290:0:0:0:0:
402,192,96189,1,0,0:0:0:0:
329,192,96290,128,0,96491:0:0:0:0:
109,192,96290,128,0,96391:0:0:0:0:
475,192,96290,1,0,0:0:0:0:
402,192,96391,128,0,96592:0:0:0:0:
182,192,96391,128,0,96491:0:0:0:0:
36,192,96391,1,0,0:0:0:0:
475,192,96491,128,0,96693:0:0:0:0:
256,192,96491,128,0,96592:0:0:0:0:
109,192,96491,1,0,0:0:0:0:
329,192,96592,128,0,96693:0:0:0:0:
36,192,96592,128,0,96793:0:0:0:0:
182,192,96592,1,0,0:0:0:0:
402,192,96693,128,0,96793:0:0:0:0:
109,192,96693,128,0,96894:0:0:0:0:
256,192,96693,1,0,0:0:0:0:
182,192,96793,128,0,96995:0:0:0:0:
475,192,96793,128,0,96894:0:0:0:0:
329,192,96793,1,0,0:0:0:0:
256,192,96894,128,0,96995:0:0:0:0:
36,192,96894,128,0,96995:0:0:0:0:
402,192,96894,1,0,0:0:0:0:
475,192,96995,1,8,0:0:0:0:
329,192,96995,128,0,97397:0:0:0:0:
109,192,96995,128,2,97196:0:0:0:0:
36,192,97095,128,2,97297:0:0:0:0:
402,192,97095,1,0,0:0:0:0:
475,192,97196,128,2,97397:0:0:0:0:
182,192,97196,1,0,0:0:0:0:
402,192,97297,128,2,97498:0:0:0:0:
256,192,97297,1,0,0:0:0:0:
182,192,97397,128,2,97599:0:0:0:0:
109,192,97397,128,0,97599:0:0:0:0:
36,192,97397,1,8,0:0:0:0:
329,192,97498,128,2,97699:0:0:0:0:
475,192,97498,1,0,0:0:0:0:
36,192,97599,128,0,97699:0:0:0:0:
402,192,97599,128,2,97800:0:0:0:0:
256,192,97599,1,0,0:0:0:0:
256,192,97699,128,0,98002:0:0:0:0:
475,192,97699,128,2,97901:0:0:0:0:
182,192,97699,1,0,0:0:0:0:
109,192,97800,128,2,98002:0:0:0:0:
36,192,97800,1,8,0:0:0:0:
182,192,97901,128,2,98102:0:0:0:0:
402,192,97901,1,0,0:0:0:0:
329,192,98002,128,2,98203:0:0:0:0:
475,192,98002,1,0,0:0:0:0:
402,192,98102,128,2,98304:0:0:0:0:
36,192,98102,1,0,0:0:0:0:
475,192,98203,128,0,98404:0:0:0:0:
256,192,98203,128,2,98404:0:0:0:0:
182,192,98203,1,8,0:0:0:0:
109,192,98304,128,2,98505:0:0:0:0:
402,192,98304,1,0,0:0:0:0:
329,192,98304,1,0,0:0:0:0:
36,192,98404,128,0,98606:0:0:0:0:
182,192,98404,128,2,98606:0:0:0:0:
402,192,98404,1,0,0:0:0:0:
329,192,98505,1,0,0:0:0:0:
256,192,98505,128,2,98706:0:0:0:0:
475,192,98606,1,8,0:0:0:0:
402,192,98606,128,0,99008:0:0:0:0:
109,192,98606,128,2,98807:0:0:0:0:
329,192,98706,128,2,98908:0:0:0:0:
36,192,98706,1,0,0:0:0:0:
182,192,98807,128,2,99008:0:0:0:0:
475,192,98807,1,0,0:0:0:0:
256,192,98908,128,2,99109:0:0:0:0:
36,192,98908,1,0,0:0:0:0:
109,192,99008,128,0,99210:0:0:0:0:
475,192,99008,128,2,99210:0:0:0:0:
329,192,99008,1,8,0:0:0:0:
402,192,99109,128,2,99310:0:0:0:0:
36,192,99109,1,0,0:0:0:0:
329,192,99210,128,2,99411:0:0:0:0:
182,192,99210,128,0,99310:0:0:0:0:
256,192,99210,1,0,0:0:0:0:
256,192,99310,128,0,99612:0:0:0:0:
36,192,99310,128,2,99512:0:0:0:0:
475,192,99310,1,0,0:0:0:0:
109,192,99411,128,2,99612:0:0:0:0:
402,192,99411,1,8,0:0:0:0:
182,192,99512,128,2,99713:0:0:0:0:
329,192,99512,1,0,0:0:0:0:
475,192,99612,128,2,99814:0:0:0:0:
36,192,99612,1,0,0:0:0:0:
329,192,99713,128,2,99914:0:0:0:0:
402,192,99713,1,0,0:0:0:0:
36,192,99814,128,0,100015:0:0:0:0:
256,192,99814,128,0,100015:0:0:0:0:
109,192,99814,1,8,0:0:0:0:
182,192,99914,128,2,100116:0:0:0:0:
402,192,99914,1,0,0:0:0:0:
109,192,100015,128,2,100216:0:0:0:0:
475,192,100015,128,0,100216:0:0:0:0:
329,192,100015,1,0,0:0:0:0:
402,192,100116,128,2,100317:0:0:0:0:
256,192,100116,1,0,0:0:0:0:
329,192,100216,128,0,100619:0:0:0:0:
36,192,100216,128,2,100418:0:0:0:0:
182,192,100216,1,8,0:0:0:0:
109,192,100317,128,2,100518:0:0:0:0:
256,192,100317,1,0,0:0:0:0:
182,192,100418,128,2,100619:0:0:0:0:
402,192,100418,1,0,0:0:0:0:
475,192,100518,128,2,100720:0:0:0:0:
256,192,100518,1,0,0:0:0:0:
402,192,100619,128,0,100820:0:0:0:0:
36,192,100619,128,2,100820:0:0:0:0:
109,192,100619,1,8,0:0:0:0:
182,192,100720,128,2,100921:0:0:0:0:
256,192,100720,1,0,0:0:0:0:
475,192,100820,128,0,100921:0:0:0:0:
329,192,100820,128,2,101022:0:0:0:0:
109,192,100820,1,0,0:0:0:0:
109,192,100921,128,0,101223:0:0:0:0:
402,192,100921,128,2,101122:0:0:0:0:
256,192,100921,1,0,0:0:0:0:
182,192,101022,128,2,101223:0:0:0:0:
475,192,101022,1,8,0:0:0:0:
256,192,101122,128,2,101324:0:0:0:0:
329,192,101122,1,0,0:0:0:0:
475,192,101223,128,0,101424:0:0:0:0:
36,192,101223,128,2,101424:0:0:0:0:
402,192,101223,1,0,0:0:0:0:
329,192,101324,128,2,101525:0:0:0:0:
182,192,101324,1,0,0:0:0:0:
256,192,101424,128,2,101626:0:0:0:0:
109,192,101424,128,0,101626:0:0:0:0:
402,192,101424,1,8,0:0:0:0:
182,192,101525,128,2,101726:0:0:0:0:
475,192,101525,1,0,0:0:0:0:
36,192,101626,128,0,101827:0:0:0:0:
329,192,101626,128,0,101827:0:0:0:0:
402,192,101626,1,0,0:0:0:0:
475,192,101726,128,2,101827:0:0:0:0:
256,192,101726,1,0,0:0:0:0:
109,192,101827,1,2,0:0:0:0:
402,192,101827,1,2,0:0:0:0:
109,192,101928,1,2,0:0:0:0:
402,192,101928,1,2,0:0:0:0:
182,192,102028,1,2,0:0:0:0:
475,192,102028,1,2,0:0:0:0:
182,192,102129,1,2,0:0:0:0:
475,192,102129,1,2,0:0:0:0:
256,192,102230,1,2,0:0:0:0:
36,192,102230,1,2,0:0:0:0:
256,192,102330,1,2,0:0:0:0:
36,192,102330,1,2,0:0:0:0:
329,192,102431,1,2,0:0:0:0:
109,192,102431,1,2,0:0:0:0:
329,192,102532,1,2,0:0:0:0:
109,192,102532,1,2,0:0:0:0:
36,192,102632,1,2,0:0:0:0:
256,192,102632,1,2,0:0:0:0:
36,192,102733,1,2,0:0:0:0:
256,192,102733,1,2,0:0:0:0:
475,192,102834,1,2,0:0:0:0:
182,192,102834,1,2,0:0:0:0:
475,192,102934,1,2,0:0:0:0:
182,192,102934,1,2,0:0:0:0:
109,192,103035,1,2,0:0:0:0:
402,192,103035,1,2,0:0:0:0:
109,192,103136,1,2,0:0:0:0:
402,192,103136,1,2,0:0:0:0:
36,192,103236,1,2,0:0:0:0:
329,192,103236,1,2,0:0:0:0:
36,192,103337,1,2,0:0:0:0:
329,192,103337,1,2,0:0:0:0:
475,192,103438,1,8,0:0:0:0:
256,192,103438,128,0,103840:0:0:0:0:
182,192,103438,128,2,103639:0:0:0:0:
109,192,103538,128,2,103740:0:0:0:0:
402,192,103538,1,0,0:0:0:0:
36,192,103639,128,2,103840:0:0:0:0:
475,192,103639,1,0,0:0:0:0:
182,192,103740,128,2,103941:0:0:0:0:
329,192,103740,1,0,0:0:0:0:
475,192,103840,128,0,104042:0:0:0:0:
109,192,103840,128,2,104042:0:0:0:0:
402,192,103840,1,8,0:0:0:0:
329,192,103941,128,2,104142:0:0:0:0:
256,192,103941,1,0,0:0:0:0:
182,192,104042,128,0,104142:0:0:0:0:
402,192,104042,128,0,104243:0:0:0:0:
36,192,104042,1,0,0:0:0:0:
36,192,104142,128,0,104444:0:0:0:0:
109,192,104142,128,2,104344:0:0:0:0:
256,192,104142,1,0,0:0:0:0:
182,192,104243,128,2,104444:0:0:0:0:
329,192,104243,1,8,0:0:0:0:
475,192,104344,128,2,104545:0:0:0:0:
256,192,104344,1,0,0:0:0:0:
402,192,104444,128,2,104646:0:0:0:0:
109,192,104444,1,0,0:0:0:0:
329,192,104545,128,2,104746:0:0:0:0:
36,192,104545,1,0,0:0:0:0:
109,192,104646,128,0,104847:0:0:0:0:
256,192,104646,128,2,104847:0:0:0:0:
475,192,104646,1,8,0:0:0:0:
182,192,104746,128,2,104948:0:0:0:0:
402,192,104746,1,0,0:0:0:0:
329,192,104847,128,0,105048:0:0:0:0:
36,192,104847,128,2,105048:0:0:0:0:
475,192,104847,1,0,0:0:0:0:
109,192,104948,128,2,105149:0:0:0:0:
402,192,104948,1,0,0:0:0:0:
256,192,105048,128,0,105451:0:0:0:0:
182,192,105048,128,2,105250:0:0:0:0:
475,192,105048,1,8,0:0:0:0:
329,192,105149,128,2,105350:0:0:0:0:
36,192,105149,1,0,0:0:0:0:
402,192,105250,128,2,105451:0:0:0:0:
475,192,105250,1,0,0:0:0:0:
109,192,105350,128,2,105552:0:0:0:0:
36,192,105350,1,0,0:0:0:0:
475,192,105451,128,0,105653:0:0:0:0:
182,192,105451,128,2,105653:0:0:0:0:
329,192,105451,1,8,0:0:0:0:
402,192,105552,128,2,105753:0:0:0:0:
256,192,105552,1,0,0:0:0:0:
36,192,105653,128,0,105753:0:0:0:0:
329,192,105653,128,2,105854:0:0:0:0:
109,192,105653,1,0,0:0:0:0:
256,192,105753,128,0,106055:0:0:0:0:
109,192,105753,128,2,105955:0:0:0:0:
182,192,105854,128,2,106055:0:0:0:0:
475,192,105854,1,8,0:0:0:0:
36,192,105955,128,2,106156:0:0:0:0:
402,192,105955,1,0,0:0:0:0:
109,192,106055,128,2,106257:0:0:0:0:
329,192,106055,1,0,0:0:0:0:
182,192,106156,128,2,106257:0:0:0:0:
475,192,106156,1,0,0:0:0:0:
329,192,106257,128,0,106458:0:0:0:0:
402,192,106257,1,8,0:0:0:0:
256,192,106458,128,0,106659:0:0:0:0:
36,192,106659,128,0,106760:0:0:0:0:
109,192,106659,128,0,106760:0:0:0:0:
329,192,106659,1,0,3:0:0:0:
402,192,106659,1,0,3:0:0:0:
182,192,106659,1,0,3:0:0:0:
402,192,106861,128,0,106961:0:0:0:0:
475,192,106861,128,0,106961:0:0:0:0:
182,192,106861,1,0,3:0:0:0:
329,192,106861,1,0,3:0:0:0:
109,192,106861,1,0,3:0:0:0:
109,192,107062,128,0,107163:0:0:0:0:
36,192,107062,128,0,107163:0:0:0:0:
329,192,107062,1,0,3:0:0:0:
402,192,107062,1,0,3:0:0:0:
182,192,107062,1,0,3:0:0:0:
475,192,107263,128,0,107364:0:0:0:0:
402,192,107263,128,0,107364:0:0:0:0:
109,192,107263,1,0,3:0:0:0:
182,192,107263,1,0,3:0:0:0:
329,192,107263,1,0,3:0:0:0:
256,192,107364,128,0,107666:0:0:0:0:
402,192,107666,128,0,108270:0:0:0:0:
256,192,107867,128,0,108270:0:0:0:0:
109,192,108069,128,0,108270:0:0:0:0:
475,192,108270,128,0,108471:0:0:0:0:
182,192,108270,128,0,108371:0:0:0:0:
329,192,108270,1,0,3:0:0:0:
109,192,108371,128,0,108471:0:0:0:0:
402,192,108371,128,0,108572:0:0:0:0:
256,192,108371,1,0,3:0:0:0:
36,192,108471,128,0,108572:0:0:0:0:
329,192,108471,128,0,108673:0:0:0:0:
182,192,108471,1,0,3:0:0:0:
256,192,108572,128,0,108773:0:0:0:0:
475,192,108572,128,0,108673:0:0:0:0:
109,192,108572,1,0,3:0:0:0:
182,192,108673,128,0,108874:0:0:0:0:
402,192,108673,128,0,108773:0:0:0:0:
36,192,108673,1,0,3:0:0:0:
109,192,108773,128,0,109075:0:0:0:0:
329,192,108773,128,0,108874:0:0:0:0:
475,192,108773,1,0,3:0:0:0:
36,192,108874,128,0,108975:0:0:0:0:
256,192,108874,128,0,108975:0:0:0:0:
402,192,108874,1,0,3:0:0:0:
182,192,108975,128,0,109176:0:0:0:0:
475,192,108975,128,0,109075:0:0:0:0:
329,192,108975,1,0,3:0:0:0:
36,192,109075,128,0,109176:0:0:0:0:
256,192,109075,128,0,109277:0:0:0:0:
402,192,109075,1,0,3:0:0:0:
109,192,109176,128,0,109277:0:0:0:0:
329,192,109176,128,0,109377:0:0:0:0:
475,192,109176,1,0,3:0:0:0:
182,192,109277,128,0,109377:0:0:0:0:
402,192,109277,128,0,109478:0:0:0:0:
36,192,109277,1,0,3:0:0:0:
256,192,109377,128,0,109478:0:0:0:0:
475,192,109377,128,0,109579:0:0:0:0:
109,192,109377,1,0,3:0:0:0:
329,192,109478,128,0,109579:0:0:0:0:
36,192,109478,128,0,109679:0:0:0:0:
182,192,109478,1,0,3:0:0:0:
402,192,109579,128,0,109679:0:0:0:0:
256,192,109579,1,0,3:0:0:0:
109,192,109579,128,0,109780:0:0:0:0:
475,192,109679,128,0,109780:0:0:0:0:
182,192,109679,128,0,109881:0:0:0:0:
329,192,109679,1,0,3:0:0:0:
256,192,109780,128,0,109881:0:0:0:0:
36,192,109780,128,0,109881:0:0:0:0:
402,192,109780,1,0,3:0:0:0:
475,192,109881,1,0,3:0:0:0:
329,192,109881,1,2,0:0:0:0:
109,192,109881,1,2,0:0:0:0:
182,192,110082,1,2,0:0:0:0:
256,192,110283,1,2,0:0:0:0:
475,192,110686,1,2,0:0:0:0:
329,192,110887,1,2,0:0:0:0:
182,192,111089,1,2,0:0:0:0:
36,192,111491,1,2,0:0:0:0:
256,192,111693,1,2,0:0:0:0:
475,192,111894,1,2,0:0:0:0:
36,192,112297,1,2,0:0:0:0:
256,192,112498,1,2,0:0:0:0:
475,192,112699,1,2,0:0:0:0:
402,192,113102,1,2,0:0:0:0:
256,192,113304,1,2,0:0:0:0:
402,192,113505,1,2,0:0:0:0:
109,192,113908,1,2,0:0:0:0:
256,192,114109,1,2,0:0:0:0:
109,192,114310,1,2,0:0:0:0:
475,192,114713,1,2,0:0:0:0:
256,192,114914,1,2,0:0:0:0:
36,192,115116,1,2,0:0:0:0:
182,192,115518,1,2,0:0:0:0:
475,192,115720,1,2,0:0:0:0:
36,192,115921,1,2,0:0:0:0:
329,192,116122,1,2,0:0:0:0:
