osu file format v13

[General]
AudioFilename: Oboro.mp3
AudioLeadIn: 0
PreviewTime: 58161
Countdown: 0
SampleSet: Soft
StackLeniency: 0.7
Mode: 3
LetterboxInBreaks: 0
EpilepsyWarning: 1
SpecialStyle: 0
WidescreenStoryboard: 1

[Editor]
Bookmarks: 119772
DistanceSpacing: 1
BeatDivisor: 4
GridSize: 32
TimelineZoom: 1.900001

[Metadata]
Title:Oboro
TitleUnicode:朧
Artist:HHHxMMxST
ArtistUnicode:HHH×MM×ST
Creator:ExUsagi
Version:Insanity
Source:
Tags:sakura luminance ryu* ryu☆ pop'n music 20 fantasia mayumi morinaga starving trancer dai jubeat saucer moimoi senya rhytmin DanceEvolution ARCADE plus FASCINATION ファッシネイション REFLEC BEAT colette -Spring- ミライダガッキ FutureTomTom Ver.2 Eternalie medicine melancholy touhou
BeatmapID:511089
BeatmapSetID:217956

[Difficulty]
HPDrainRate:8.5
CircleSize:4
OverallDifficulty:7.5
ApproachRate:4
SliderMultiplier:1
SliderTickRate:1

[Events]
//Background and Video events
0,0,"4.jpg",0,0
//Break Periods
//Storyboard Layer 0 (Background)
//Storyboard Layer 1 (Fail)
//Storyboard Layer 2 (Pass)
//Storyboard Layer 3 (Foreground)
Sprite,Foreground,Centre,"SB\credit.png",320,240 S,0,23128,,0.4066667 M,1,23128,23531,198,240,254,240 F,0,23128,23531,0.002666626,1 M,0,23531,,254,240 F,0,23531,27960,1 M,0,23531,29168,254,240,392,240 F,0,27960,29168,1,0
//Storyboard Sound Samples
Sample,19906,0,"C6H.wav",70
Sample,20309,0,"D6H.wav",70
Sample,20712,0,"F6H.wav",70
Sample,21114,0,"C6H.wav",70
Sample,21517,0,"G5H.wav",70
Sample,28963,0,"D5H.wav",70
Sample,29168,0,"G5H.wav",70
Sample,29365,0,"A5H.wav",70
Sample,29571,0,"A#5H_Bb5H.wav",70
//Background Colour Transformations
3,100,163,162,255

[TimingPoints]
578,402.684563758389,4,2,1,50,1,0
29571,-125,4,2,1,50,0,0
30376,-111.111111111111,4,2,1,50,0,0
30779,-105.263157894737,4,2,1,50,0,0
31182,-100,4,2,1,50,0,0
58564,-100,4,2,1,50,0,1
71450,-100,4,2,1,50,0,0
103665,-100,4,2,1,50,0,1
116551,-100,4,2,1,50,0,0
135880,-100,4,2,1,20,0,0
147155,-100,4,2,1,30,0,0
153598,-100,4,2,1,40,0,0
160041,-100,4,2,1,50,0,1
185812,-100,4,2,1,30,0,0
189034,-100,4,2,1,15,0,0

[Colours]
Combo1 : 209,242,94
Combo2 : 37,182,207
Combo3 : 255,100,255
SliderBorder : 255,255,255

[HitObjects]
320,192,578,5,0,0:0:0:70:G5H.wav
64,192,678,1,0,0:0:0:70:C6H.wav
192,192,779,1,0,0:0:0:70:D6H.wav
358,192,880,1,0,0:0:0:70:F6H.wav
192,192,980,1,0,0:0:0:70:G6H.wav
320,192,1081,1,0,0:0:0:70:C7H.wav
448,192,1182,1,0,0:0:0:70:D7H.wav
64,192,1786,1,0,0:0:0:70:D7H.wav
448,192,1987,1,0,0:0:0:70:F7H.wav
320,192,2188,1,0,0:0:0:70:C7H.wav
448,192,2289,1,0,0:0:0:70:A#6H_Bb6H.wav
192,192,2390,1,0,0:0:0:70:A6H.wav
320,192,2490,1,0,0:0:0:70:A#6H_Bb6H.wav
64,192,2591,1,0,0:0:0:70:F6H.wav
320,192,2692,1,0,0:0:0:70:G6H.wav
192,192,2792,1,0,0:0:0:70:C6H.wav
64,192,3396,1,0,0:0:0:70:C6H.wav
448,192,3598,1,0,0:0:0:70:G6H.wav
64,192,3799,1,0,0:0:0:70:F6H.wav
192,192,3900,1,0,0:0:0:70:C6H.wav
320,192,4000,1,0,0:0:0:0:A5H.wav
448,192,4101,1,0,0:0:0:70:A#5H_Bb5H.wav
320,192,4202,1,0,0:0:0:70:A5H.wav
192,192,4302,1,0,0:0:0:70:A#5H_Bb5H.wav
64,192,4403,1,0,0:0:0:70:F5H.wav
64,192,5007,1,0,0:0:0:70:D5H.wav
192,192,5208,1,0,0:0:0:70:A5H.wav
448,192,5410,1,0,0:0:0:70:A#5H_Bb5H.wav
320,192,5510,1,0,0:0:0:70:A5H.wav
64,192,5611,1,0,0:0:0:70:F5H.wav
320,192,5712,1,0,0:0:0:70:G5H.wav
192,192,5812,1,0,0:0:0:70:C5H.wav
448,192,5913,1,0,0:0:0:70:D5H.wav
192,192,6014,128,0,7020:0:0:0:70:A#4H_Bb4H.wav
64,192,7020,1,4,0:1:0:70:A#5H_Bb5H.wav
320,192,7020,1,4,0:0:0:0:
448,192,7020,1,0,0:0:0:0:
320,192,7423,1,0,0:0:0:70:D6H.wav
448,192,7826,1,0,0:0:0:70:G6H.wav
192,192,8229,1,0,0:0:0:70:D6H.wav
64,192,8631,1,0,0:0:0:70:C6H.wav
320,192,9034,1,0,0:0:0:70:D6H.wav
448,192,9437,1,0,0:0:0:70:F6H.wav
320,192,9839,1,0,0:0:0:70:D6H.wav
192,192,10242,1,0,0:0:0:70:C6H.wav
320,192,10645,1,0,0:0:0:70:D6H.wav
448,192,11047,1,0,0:0:0:70:F6H.wav
192,192,11450,1,0,0:0:0:70:D6H.wav
64,192,11853,128,0,12255:0:0:0:70:C6H.wav
320,192,12255,128,0,12658:0:0:0:70:D6H.wav
448,192,12658,128,0,13061:0:0:0:70:G6H.wav
64,192,13061,128,0,13463:0:0:0:70:D6H.wav
192,192,13463,1,4,0:0:0:70:A#5H_Bb5H.wav
448,192,13463,1,4,0:1:0:0:
320,192,13463,128,0,15074:0:0:0:0:
64,192,13866,1,0,0:0:0:70:D6H.wav
448,192,14269,1,0,0:0:0:70:G6H.wav
192,192,14671,1,0,0:0:0:70:D6H.wav
64,192,15074,128,0,15880:0:0:0:70:C6H.wav
320,192,15477,1,0,0:0:0:70:D6H.wav
448,192,15880,128,0,16685:0:0:0:70:F6H.wav
192,192,16282,1,0,0:0:0:70:D6H.wav
64,192,16685,1,0,0:0:0:70:C6H.wav
192,192,17088,1,0,0:0:0:70:D6H.wav
320,192,17490,1,0,0:0:0:70:F6H.wav
192,192,17893,1,0,0:0:0:70:D6H.wav
64,192,18296,1,0,0:0:0:70:A#5H_Bb5H.wav
320,192,18698,1,0,0:0:0:70:D6H.wav
448,192,19101,1,0,0:0:0:70:G6H.wav
192,192,19504,1,0,0:0:0:70:D6H.wav
64,192,19906,1,4,0:1:0:0:
448,192,19906,1,0,0:0:0:0:
64,192,20712,1,4,0:1:0:0:
448,192,20712,1,0,0:0:0:0:
192,192,20913,1,0,0:0:0:0:
448,192,20913,1,0,0:0:0:0:
64,192,21114,1,0,0:0:0:0:
320,192,21114,1,0,0:0:0:0:
64,192,21316,1,0,0:0:0:0:
192,192,21316,1,0,0:0:0:0:
448,192,21517,1,4,0:1:0:0:
192,192,21517,1,0,0:0:0:0:
64,192,21517,1,0,0:0:0:0:
320,192,21618,1,0,0:0:0:0:
192,192,21718,1,0,0:0:0:0:
320,192,21819,1,0,0:0:0:0:
448,192,21920,1,0,0:0:0:0:
192,192,22020,1,0,0:0:0:0:
64,192,22121,1,0,0:0:0:0:
192,192,22222,1,0,0:0:0:0:
448,192,22322,1,0,0:0:0:0:
320,192,22423,1,0,0:0:0:0:
64,192,22524,1,0,0:0:0:0:
320,192,22624,1,0,0:0:0:0:
192,192,22725,1,0,0:0:0:0:
448,192,22826,1,0,0:0:0:0:
320,192,22926,1,0,0:0:0:0:
192,192,23027,1,0,0:0:0:0:
64,192,23128,5,6,0:0:0:70:A#5H_Bb5H.wav
320,192,23128,1,4,0:0:0:0:
448,192,23128,1,2,0:0:0:0:
192,192,23229,1,0,0:0:0:0:
64,192,23329,1,0,0:0:0:0:
448,192,23329,1,0,0:0:0:0:
192,192,23531,1,8,0:0:0:0:
448,192,23531,1,0,0:0:0:0:
64,192,23531,1,0,0:0:0:0:
320,192,23631,1,0,0:0:0:0:
64,192,23732,1,0,0:0:0:0:
448,192,23732,1,0,0:0:0:0:
320,192,23933,1,2,0:0:0:0:
192,192,23933,1,0,0:0:0:0:
448,192,24135,1,0,0:0:0:0:
64,192,24135,1,0,0:0:0:0:
192,192,24336,1,8,0:0:0:0:
64,192,24336,1,0,0:0:0:0:
320,192,24336,1,0,0:0:0:0:
448,192,24537,1,0,0:0:0:0:
320,192,24537,1,0,0:0:0:0:
64,192,24739,5,2,0:0:0:70:A5H.wav
320,192,24739,1,2,0:0:0:0:
192,192,24940,1,0,0:0:0:0:
448,192,24940,1,0,0:0:0:0:
448,192,25141,1,8,0:0:0:0:
320,192,25141,1,0,0:0:0:0:
64,192,25141,1,0,0:0:0:0:
64,192,25343,1,0,0:0:0:0:
320,192,25343,1,0,0:0:0:0:
192,192,25544,1,2,0:0:0:70:F5H.wav
448,192,25544,1,2,0:0:0:0:
64,192,25745,1,0,0:0:0:0:
192,192,25745,1,0,0:0:0:0:
448,192,25846,1,0,0:0:0:0:
320,192,25947,1,8,0:0:0:0:
64,192,25947,1,0,0:0:0:0:
192,192,25947,1,0,0:0:0:0:
448,192,26148,1,2,0:0:0:0:
320,192,26148,1,0,0:0:0:0:
64,192,26349,1,2,0:0:0:70:D5H.wav
192,192,26349,1,2,0:0:0:0:
320,192,26651,1,2,0:0:0:0:
192,192,26752,1,8,0:0:0:0:
64,192,26752,1,0,0:0:0:0:
448,192,26752,1,0,0:0:0:0:
64,192,26953,1,2,0:0:0:0:
448,192,26953,1,0,0:0:0:0:
448,185,27255,1,2,0:0:0:0:
320,185,27255,1,0,0:0:0:0:
192,185,27356,1,2,0:0:0:0:
64,185,27356,1,0,0:0:0:0:
448,185,27457,1,2,0:0:0:0:
320,185,27557,1,8,0:0:0:0:
64,192,27557,1,0,0:0:0:0:
192,192,27557,1,0,0:0:0:0:
192,192,27759,1,2,0:0:0:0:
64,192,27759,1,0,0:0:0:0:
192,192,27960,1,4,0:1:0:70:G5H.wav
320,192,27960,1,4,0:0:0:0:
448,192,27960,1,2,0:0:0:0:
64,192,28262,1,2,0:0:0:0:
448,192,28363,1,8,0:0:0:0:
320,192,28363,1,0,0:0:0:0:
192,192,28363,1,0,0:0:0:0:
64,192,28564,1,2,0:0:0:0:
448,192,28564,1,0,0:0:0:0:
192,192,28765,1,6,0:0:0:0:
448,192,28866,1,2,0:0:0:0:
320,192,28866,1,0,0:0:0:0:
64,192,28967,1,2,0:0:0:0:
192,192,28967,1,0,0:0:0:0:
320,192,29067,1,2,0:0:0:0:
448,192,29067,1,0,0:0:0:0:
192,192,29168,1,12,0:0:0:0:
64,188,29168,128,0,29269:0:0:0:0:
448,192,29168,128,0,29269:0:0:0:0:
64,192,29571,128,4,31182:0:1:0:0:
448,192,29571,128,0,31182:0:0:0:0:
320,192,29571,1,0,0:0:0:0:
192,192,31182,1,4,0:1:0:0:
320,192,31182,1,2,0:0:0:0:
64,192,31383,1,0,0:0:0:0:
192,192,31584,1,2,0:0:0:0:
448,192,31584,1,0,0:0:0:0:
64,192,31786,1,0,0:0:0:0:
64,192,31987,1,2,0:0:0:0:
320,192,31987,1,0,0:0:0:0:
448,192,32088,1,0,0:0:0:0:
192,192,32188,1,0,0:0:0:0:
320,192,32188,1,0,0:0:0:0:
448,192,32390,1,2,0:0:0:0:
320,192,32390,1,0,0:0:0:0:
448,192,32591,1,0,0:0:0:0:
64,192,32792,1,2,0:0:0:0:
192,192,32792,1,0,0:0:0:0:
192,192,32994,1,0,0:0:0:0:
320,192,33195,1,2,0:0:0:0:
448,192,33195,1,0,0:0:0:0:
320,192,33396,1,0,0:0:0:0:
64,192,33598,1,2,0:0:0:0:
448,192,33598,1,0,0:0:0:0:
320,192,33698,1,0,0:0:0:0:
64,192,33799,1,0,0:0:0:0:
448,192,33799,1,0,0:0:0:0:
64,192,34000,1,2,0:0:0:0:
320,192,34000,1,0,0:0:0:0:
64,192,34202,1,0,0:0:0:0:
320,192,34202,1,0,0:0:0:0:
448,192,34302,1,0,0:0:0:0:
192,192,34403,1,2,0:0:0:0:
320,192,34403,1,0,0:0:0:0:
192,192,34604,1,0,0:0:0:0:
448,192,34806,1,2,0:0:0:0:
64,192,34806,1,0,0:0:0:0:
192,192,35007,1,0,0:0:0:0:
64,192,35208,1,2,0:0:0:0:
320,192,35208,1,0,0:0:0:0:
192,192,35309,1,0,0:0:0:0:
64,192,35410,1,0,0:0:0:0:
320,192,35410,1,0,0:0:0:0:
192,192,35611,1,2,0:0:0:0:
64,192,35611,1,0,0:0:0:0:
320,192,35812,1,0,0:0:0:0:
192,192,36014,1,2,0:0:0:0:
448,192,36014,1,0,0:0:0:0:
64,192,36114,1,0,0:0:0:0:
448,192,36215,1,0,0:0:0:0:
64,192,36416,1,2,0:0:0:0:
192,192,36416,1,0,0:0:0:0:
448,192,36618,1,0,0:0:0:0:
64,192,36819,1,2,0:0:0:0:
448,192,36819,1,0,0:0:0:0:
192,192,36920,1,0,0:0:0:0:
64,192,37020,1,0,0:0:0:0:
320,192,37020,1,0,0:0:0:0:
448,192,37088,1,0,0:0:0:0:
320,192,37155,1,0,0:0:0:0:
64,192,37222,1,2,0:0:0:0:
192,192,37222,1,0,0:0:0:0:
64,192,37423,1,0,0:0:0:0:
192,192,37524,1,0,0:0:0:0:
320,192,37524,1,0,0:0:0:0:
448,192,37624,1,2,0:0:0:0:
64,192,37624,1,0,0:0:0:0:
320,192,37725,1,0,0:0:0:0:
192,192,37826,1,0,0:0:0:0:
64,192,37926,1,0,0:0:0:0:
320,192,38027,1,2,0:0:0:0:
448,192,38027,1,0,0:0:0:0:
192,192,38229,1,0,0:0:0:0:
192,192,38430,1,2,0:0:0:0:
448,192,38430,1,0,0:0:0:0:
64,192,38531,1,0,0:0:0:0:
320,192,38631,1,0,0:0:0:0:
448,192,38631,1,0,0:0:0:0:
448,192,38833,1,2,0:0:0:0:
64,192,38833,1,0,0:0:0:0:
64,192,39034,1,0,0:0:0:0:
320,192,39235,1,2,0:0:0:0:
192,192,39235,1,0,0:0:0:0:
448,192,39336,1,0,0:0:0:0:
192,192,39437,1,0,0:0:0:0:
448,192,39638,1,2,0:0:0:0:
64,192,39638,1,0,0:0:0:0:
320,192,39839,1,0,0:0:0:0:
192,192,40041,1,2,0:0:0:0:
64,192,40041,1,0,0:0:0:0:
448,192,40141,1,0,0:0:0:0:
320,192,40242,1,0,0:0:0:0:
192,192,40242,1,0,0:0:0:0:
64,192,40343,1,0,0:0:0:0:
448,192,40443,1,2,0:0:0:0:
320,192,40443,1,0,0:0:0:0:
448,192,40645,1,0,0:0:0:0:
192,192,40645,1,0,0:0:0:0:
64,192,40745,1,0,0:0:0:0:
448,192,40846,1,2,0:0:0:0:
320,192,40846,1,0,0:0:0:0:
320,192,41047,1,0,0:0:0:0:
192,192,41249,1,2,0:0:0:0:
64,192,41249,1,0,0:0:0:0:
320,192,41450,1,0,0:0:0:0:
448,192,41651,1,2,0:0:0:0:
192,192,41651,1,0,0:0:0:0:
320,192,41752,1,0,0:0:0:0:
192,192,41853,1,0,0:0:0:0:
448,192,41853,1,0,0:0:0:0:
192,192,42054,1,2,0:0:0:0:
320,192,42054,1,0,0:0:0:0:
448,192,42255,1,0,0:0:0:0:
320,192,42457,1,2,0:0:0:0:
64,192,42457,1,0,0:0:0:0:
192,192,42557,1,0,0:0:0:0:
64,192,42658,1,0,0:0:0:0:
448,192,42658,1,0,0:0:0:0:
320,192,42859,1,2,0:0:0:0:
192,192,42859,1,0,0:0:0:0:
64,192,43061,1,0,0:0:0:0:
448,192,43061,1,0,0:0:0:0:
448,192,43262,1,2,0:0:0:0:
320,192,43262,1,0,0:0:0:0:
64,192,43312,1,0,0:0:0:0:
192,192,43312,1,0,0:0:0:0:
448,192,43363,1,0,0:0:0:0:
320,192,43363,1,0,0:0:0:0:
64,192,43463,1,0,0:0:0:0:
192,192,43463,1,0,0:0:0:0:
320,192,43564,1,0,0:0:0:0:
448,192,43564,1,0,0:0:0:0:
448,192,43665,1,0,0:0:0:0:
192,192,43665,1,0,0:0:0:0:
64,192,43765,1,0,0:0:0:0:
320,192,43765,1,0,0:0:0:0:
192,192,43866,1,0,0:0:0:0:
448,192,43866,1,0,0:0:0:0:
64,192,43967,1,0,0:0:0:0:
320,192,43967,1,0,0:0:0:0:
448,192,44067,1,4,0:1:0:0:
192,192,44067,1,0,0:0:0:0:
64,192,44067,1,2,0:0:0:0:
320,192,44168,1,0,0:0:0:0:
64,192,44269,1,0,0:0:0:0:
448,192,44369,1,0,0:0:0:0:
192,192,44470,1,8,0:0:0:0:
320,192,44470,1,0,0:0:0:0:
64,192,44571,1,0,0:0:0:0:
448,192,44671,1,0,0:0:0:0:
64,192,44772,1,0,0:0:0:0:
192,192,44873,1,2,0:0:0:0:
320,192,44873,1,0,0:0:0:0:
448,192,44973,1,0,0:0:0:0:
64,192,45074,1,0,0:0:0:0:
448,192,45175,1,0,0:0:0:0:
192,192,45275,1,8,0:0:0:0:
320,192,45275,1,0,0:0:0:0:
64,192,45376,1,0,0:0:0:0:
448,192,45477,1,0,0:0:0:0:
320,192,45577,1,0,0:0:0:0:
192,192,45678,1,2,0:0:0:0:
64,192,45678,1,0,0:0:0:0:
448,192,45779,1,0,0:0:0:0:
64,192,45880,1,0,0:0:0:0:
320,192,45980,1,0,0:0:0:0:
192,192,46081,1,0,0:0:0:0:
448,192,46081,1,8,0:0:0:0:
64,192,46182,1,0,0:0:0:0:
320,192,46282,1,0,0:0:0:0:
448,192,46383,1,0,0:0:0:0:
192,192,46484,1,2,0:0:0:0:
64,192,46484,1,0,0:0:0:0:
320,192,46584,1,0,0:0:0:0:
64,192,46685,1,0,0:0:0:0:
320,192,46786,1,0,0:0:0:0:
64,192,46886,1,8,0:0:0:0:
448,192,46886,1,0,0:0:0:0:
192,192,46987,1,0,0:0:0:0:
320,192,47088,1,0,0:0:0:0:
448,192,47188,1,0,0:0:0:0:
320,192,47289,1,2,0:0:0:0:
192,192,47289,1,0,0:0:0:0:
64,192,47390,1,0,0:0:0:0:
320,192,47490,1,0,0:0:0:0:
448,192,47591,1,0,0:0:0:0:
64,192,47692,1,8,0:0:0:0:
192,192,47692,1,0,0:0:0:0:
320,192,47792,1,0,0:0:0:0:
448,192,47893,1,0,0:0:0:0:
320,192,47994,1,0,0:0:0:0:
64,192,48094,1,2,0:0:0:0:
192,192,48094,1,0,0:0:0:0:
448,192,48195,1,0,0:0:0:0:
320,192,48296,1,0,0:0:0:0:
448,192,48396,1,0,0:0:0:0:
64,192,48497,1,8,0:0:0:0:
320,192,48497,1,0,0:0:0:0:
192,192,48598,1,0,0:0:0:0:
320,192,48698,1,0,0:0:0:0:
448,192,48799,1,0,0:0:0:0:
64,192,48900,1,2,0:0:0:0:
192,192,48900,1,0,0:0:0:0:
320,192,49000,1,0,0:0:0:0:
192,192,49101,1,0,0:0:0:0:
448,192,49202,1,0,0:0:0:0:
64,192,49302,1,8,0:0:0:0:
320,192,49302,1,0,0:0:0:0:
192,192,49403,1,0,0:0:0:0:
320,192,49504,1,0,0:0:0:0:
448,192,49604,1,0,0:0:0:0:
64,197,49705,1,2,0:0:0:0:
192,197,49705,1,0,0:0:0:0:
448,197,49755,1,0,0:0:0:0:
320,197,49755,1,0,0:0:0:0:
192,197,49806,1,0,0:0:0:0:
64,197,49806,1,0,0:0:0:0:
448,192,49906,1,2,0:0:0:0:
320,192,49906,1,0,0:0:0:0:
192,192,50007,1,0,0:0:0:0:
64,192,50007,1,0,0:0:0:0:
448,192,50108,1,10,0:0:0:0:
320,192,50108,1,0,0:0:0:0:
320,192,50309,1,2,0:0:0:0:
448,192,50309,1,0,0:0:0:0:
64,192,50410,1,2,0:0:0:0:
192,192,50410,1,0,0:0:0:0:
64,192,50510,1,4,0:1:0:0:
320,192,50510,1,0,0:0:0:0:
448,192,50510,1,2,0:0:0:0:
192,192,50611,1,0,0:0:0:0:
320,192,50712,1,0,0:0:0:0:
64,192,50812,1,0,0:0:0:0:
192,192,50913,1,8,0:0:0:0:
448,192,50913,1,0,0:0:0:0:
320,192,51014,1,0,0:0:0:0:
64,192,51114,1,0,0:0:0:0:
320,192,51215,1,0,0:0:0:0:
192,192,51316,1,2,0:0:0:0:
448,192,51316,1,0,0:0:0:0:
64,192,51416,1,0,0:0:0:0:
320,192,51517,1,0,0:0:0:0:
64,192,51618,1,0,0:0:0:0:
192,192,51718,1,8,0:0:0:0:
448,192,51718,1,0,0:0:0:0:
320,192,51819,1,0,0:0:0:0:
64,192,51920,1,0,0:0:0:0:
192,192,52020,1,0,0:0:0:0:
320,192,52121,1,2,0:0:0:0:
448,192,52121,1,0,0:0:0:0:
64,192,52222,1,0,0:0:0:0:
320,192,52322,1,0,0:0:0:0:
192,192,52423,1,0,0:0:0:0:
64,192,52524,1,8,0:0:0:0:
448,192,52524,1,0,0:0:0:0:
320,192,52624,1,0,0:0:0:0:
192,192,52725,1,0,0:0:0:0:
64,192,52826,1,0,0:0:0:0:
448,192,52926,1,2,0:0:0:0:
320,192,52926,1,0,0:0:0:0:
192,192,53027,1,0,0:0:0:0:
320,192,53128,1,0,0:0:0:0:
192,192,53229,1,0,0:0:0:0:
64,192,53329,1,8,0:0:0:0:
448,192,53329,1,0,0:0:0:0:
192,192,53430,1,0,0:0:0:0:
320,192,53531,1,0,0:0:0:0:
448,192,53631,1,0,0:0:0:0:
320,192,53732,1,4,0:1:0:0:
192,192,53732,1,0,0:0:0:0:
64,192,53732,1,2,0:0:0:0:
64,192,53933,1,0,0:0:0:0:
192,192,53933,1,0,0:0:0:0:
448,192,53933,1,2,0:0:0:0:
320,192,54135,1,0,0:0:0:0:
448,192,54135,1,2,0:0:0:0:
64,192,54135,1,0,0:0:0:0:
192,192,54336,1,0,0:0:0:0:
448,192,54336,1,2,0:0:0:0:
320,192,54336,1,0,0:0:0:0:
320,192,54537,1,4,0:1:0:0:
448,192,54537,1,0,0:0:0:0:
64,192,54537,1,2,0:0:0:0:
64,192,54739,1,2,0:0:0:0:
192,192,54739,1,0,0:0:0:0:
448,192,54739,1,0,0:0:0:0:
320,192,54940,1,0,0:0:0:0:
64,192,54940,1,2,0:0:0:0:
192,192,54940,1,0,0:0:0:0:
192,192,55141,1,0,0:0:0:0:
320,192,55141,1,0,0:0:0:0:
448,192,55141,1,2,0:0:0:0:
320,192,55343,1,0,0:0:0:70:bumm.wav
64,192,55343,1,0,0:0:0:0:
192,192,55343,1,4,0:0:0:0:
64,192,55544,1,0,0:0:0:0:
192,192,55645,1,0,0:0:0:70:bumm.wav
320,192,55645,1,0,0:0:0:0:
448,192,55645,1,0,0:0:0:0:
64,192,55745,1,0,0:0:0:0:
64,192,55947,1,0,0:0:0:70:bumm.wav
192,192,55947,1,0,0:0:0:0:
320,192,55947,1,0,0:0:0:0:
320,192,56148,1,0,0:0:0:70:bumm.wav
448,192,56148,1,0,0:0:0:0:
192,192,56148,1,0,0:0:0:0:
448,192,56551,1,0,0:0:0:70:bumm.wav
320,192,56551,1,0,0:0:0:0:
64,192,56551,1,0,0:0:0:0:
320,192,56752,1,0,0:0:0:70:bumm.wav
192,192,56752,1,0,0:0:0:0:
64,192,56752,1,0,0:0:0:0:
64,192,56953,1,4,0:0:0:70:bumm.wav
192,192,56953,1,4,0:0:0:0:
448,192,56953,128,0,57155:0:0:0:0:
192,192,57155,1,0,0:0:0:0:
64,192,57255,1,0,0:0:0:70:bumm.wav
320,192,57255,1,0,0:0:0:0:
448,192,57255,1,0,0:0:0:0:
192,192,57356,1,0,0:0:0:0:
320,192,57557,1,0,0:0:0:70:bumm.wav
448,192,57557,1,0,0:0:0:0:
192,192,57557,1,0,0:0:0:0:
448,192,57759,1,0,0:0:0:70:bumm.wav
192,192,57759,1,4,0:0:0:0:
64,192,57759,1,0,0:0:0:0:
320,192,57859,1,0,0:0:0:0:
192,192,57960,1,0,0:0:0:0:
64,192,58061,1,0,0:0:0:0:
320,192,58161,1,0,0:0:0:70:bumm.wav
192,192,58161,1,0,0:0:0:0:
448,192,58161,128,8,58363:0:0:0:0:
64,192,58262,1,0,0:0:0:0:
192,192,58363,1,0,0:0:0:70:bumm.wav
448,192,58463,1,0,0:0:0:0:
321,192,58564,1,4,0:1:0:0:
193,192,58564,1,0,0:0:0:0:
65,192,58564,1,2,0:0:0:0:
193,192,58765,1,0,0:0:0:0:
449,192,58866,1,0,0:0:0:0:
65,192,58866,1,0,0:0:0:0:
321,192,58967,1,8,0:0:0:0:
193,192,59067,1,0,0:0:0:0:
65,192,59168,1,0,0:0:0:0:
449,192,59168,1,0,0:0:0:0:
320,192,59269,1,0,0:0:0:0:
193,192,59369,1,2,0:0:0:0:
449,192,59369,1,0,0:0:0:0:
65,192,59470,1,0,0:0:0:0:
321,192,59571,1,0,0:0:0:0:
449,192,59571,1,0,0:0:0:0:
64,192,59671,1,0,0:0:0:0:
193,192,59772,1,8,0:0:0:0:
321,192,59772,1,0,0:0:0:0:
448,192,59873,1,0,0:0:0:0:
64,192,59973,1,0,0:0:0:0:
192,187,59973,1,0,0:0:0:0:
448,192,60074,1,0,0:0:0:0:
321,192,60175,1,2,0:0:0:0:
193,192,60175,1,0,0:0:0:0:
193,192,60376,1,0,0:0:0:0:
449,192,60477,1,0,0:0:0:0:
65,192,60477,1,0,0:0:0:0:
321,192,60577,1,8,0:0:0:0:
193,192,60678,1,0,0:0:0:0:
65,192,60779,1,0,0:0:0:0:
449,192,60779,1,0,0:0:0:0:
320,192,60880,1,0,0:0:0:0:
449,192,60980,1,2,0:0:0:0:
193,192,60980,1,0,0:0:0:0:
65,192,61081,1,0,0:0:0:0:
321,192,61182,1,0,0:0:0:0:
449,192,61182,1,0,0:0:0:0:
64,192,61282,1,0,0:0:0:0:
321,192,61383,1,8,0:0:0:0:
193,192,61383,1,0,0:0:0:0:
448,192,61484,1,0,0:0:0:0:
64,192,61584,1,0,0:0:0:0:
192,192,61584,1,0,0:0:0:0:
448,192,61685,1,0,0:0:0:0:
193,192,61786,1,2,0:0:0:0:
321,192,61786,1,0,0:0:0:0:
449,192,61987,1,0,0:0:0:0:
65,192,62088,1,0,0:0:0:0:
193,192,62088,1,0,0:0:0:0:
321,192,62188,1,8,0:0:0:0:
449,192,62289,1,0,0:0:0:0:
193,192,62390,1,0,0:0:0:0:
65,192,62390,1,0,0:0:0:0:
320,192,62490,1,0,0:0:0:0:
449,192,62591,1,2,0:0:0:0:
193,192,62591,1,0,0:0:0:0:
65,192,62692,1,0,0:0:0:0:
193,192,62792,1,0,0:0:0:0:
321,192,62792,1,0,0:0:0:0:
448,192,62893,1,0,0:0:0:0:
192,192,62994,1,8,0:0:0:0:
64,192,62994,1,0,0:0:0:0:
448,192,63094,1,0,0:0:0:0:
320,192,63195,1,0,0:0:0:0:
64,192,63195,1,0,0:0:0:0:
192,192,63296,1,0,0:0:0:0:
449,192,63396,1,2,0:0:0:0:
321,192,63396,128,0,63497:0:0:0:0:
193,192,63497,128,0,63598:0:0:0:0:
65,192,63497,1,0,0:0:0:0:
449,192,63598,128,0,63698:0:0:0:0:
321,192,63598,1,0,0:0:0:0:
65,192,63698,128,0,63799:0:0:0:0:
193,192,63698,1,0,0:0:0:0:
449,192,63799,1,8,0:0:0:0:
321,192,63799,128,0,63900:0:0:0:0:
193,192,63900,128,0,64000:0:0:0:0:
65,192,63900,1,0,0:0:0:0:
449,192,64000,128,0,64101:0:0:0:0:
321,192,64000,1,0,0:0:0:0:
65,192,64101,128,0,64202:0:0:0:0:
193,192,64101,1,0,0:0:0:0:
449,192,64202,128,0,64302:0:0:0:0:
321,192,64202,1,2,0:0:0:0:
193,192,64302,128,0,64403:0:0:0:0:
65,192,64302,1,0,0:0:0:0:
321,192,64403,128,0,64504:0:0:0:0:
449,192,64403,1,0,0:0:0:0:
65,192,64504,128,0,64604:0:0:0:0:
193,192,64504,1,0,0:0:0:0:
321,192,64604,1,10,0:0:0:0:
449,192,64604,128,0,64705:0:0:0:0:
193,192,64705,128,0,64806:0:0:0:0:
65,192,64705,1,0,0:0:0:0:
321,192,64806,128,0,64906:0:0:0:0:
449,192,64806,1,2,0:0:0:0:
65,192,64906,128,0,65007:0:0:0:0:
193,192,64906,1,0,0:0:0:0:
320,192,65007,1,6,0:0:0:0:
449,192,65007,1,0,0:0:0:0:
65,192,65208,1,0,0:0:0:0:
193,192,65309,1,0,0:0:0:0:
449,192,65309,1,0,0:0:0:0:
321,192,65410,1,8,0:0:0:0:
65,192,65510,1,0,0:0:0:0:
193,192,65611,1,0,0:0:0:0:
449,192,65611,1,0,0:0:0:0:
320,192,65712,1,0,0:0:0:0:
449,192,65812,1,2,0:0:0:0:
65,192,65812,1,0,0:0:0:0:
193,192,65913,1,0,0:0:0:0:
321,192,66014,1,0,0:0:0:0:
449,192,66014,1,0,0:0:0:0:
192,192,66114,1,0,0:0:0:0:
65,192,66215,1,8,0:0:0:0:
321,192,66215,1,0,0:0:0:0:
192,192,66316,1,0,0:0:0:0:
65,192,66416,1,0,0:0:0:0:
449,192,66416,1,0,0:0:0:0:
192,192,66517,1,0,0:0:0:0:
65,192,66618,1,2,0:0:0:0:
321,192,66618,1,0,0:0:0:0:
65,192,66819,1,0,0:0:0:0:
193,192,66920,1,0,0:0:0:0:
320,192,66920,1,0,0:0:0:0:
448,192,67020,1,8,0:0:0:0:
65,192,67121,1,0,0:0:0:0:
193,192,67222,1,0,0:0:0:0:
320,192,67222,1,0,0:0:0:0:
448,192,67322,1,0,0:0:0:0:
320,192,67423,1,2,0:0:0:0:
65,192,67423,1,0,0:0:0:0:
193,192,67524,1,0,0:0:0:0:
321,192,67624,1,0,0:0:0:0:
449,192,67624,1,0,0:0:0:0:
192,192,67725,1,0,0:0:0:0:
321,192,67826,1,8,0:0:0:0:
65,192,67826,1,0,0:0:0:0:
448,192,67926,1,0,0:0:0:0:
193,192,68027,1,0,0:0:0:0:
321,192,68027,1,0,0:0:0:0:
449,192,68128,1,0,0:0:0:0:
64,192,68229,1,2,0:0:0:0:
321,192,68229,1,0,0:0:0:0:
193,192,68229,1,4,0:0:0:0:
321,192,68430,1,0,0:0:0:0:
65,192,68531,1,0,0:0:0:0:
193,192,68531,1,0,0:0:0:0:
320,192,68631,1,8,0:0:0:0:
449,192,68732,1,0,0:0:0:0:
65,192,68833,1,0,0:0:0:0:
193,192,68833,1,0,0:0:0:0:
320,192,68933,1,0,0:0:0:0:
449,192,69034,1,2,0:0:0:0:
65,192,69034,1,0,0:0:0:0:
193,192,69135,1,0,0:0:0:0:
321,192,69235,1,0,0:0:0:0:
65,192,69235,1,0,0:0:0:0:
448,192,69336,1,0,0:0:0:0:
320,192,69437,1,8,0:0:0:0:
64,192,69437,128,0,69638:0:0:0:0:
449,192,69638,1,2,0:0:0:0:
192,192,69638,128,0,69839:0:0:0:0:
449,192,69839,1,6,0:0:0:0:
320,192,69839,128,0,69940:0:0:0:0:
193,192,69940,128,0,70041:0:0:0:0:
65,192,69940,1,0,0:0:0:0:
449,192,70041,128,0,70141:0:0:0:0:
321,192,70041,1,2,0:0:0:0:
193,192,70141,1,0,0:0:0:0:
65,192,70141,128,0,70242:0:0:0:0:
321,192,70242,128,0,70343:0:0:0:0:
449,192,70242,1,10,0:0:0:0:
65,192,70343,1,0,0:0:0:0:
193,192,70343,128,0,70443:0:0:0:0:
449,192,70443,128,0,70544:0:0:0:0:
321,192,70443,1,2,0:0:0:0:
65,192,70544,128,0,70645:0:0:0:0:
193,192,70544,1,0,0:0:0:0:
449,192,70645,128,0,70745:0:0:0:0:
321,192,70645,1,6,0:0:0:0:
193,192,70745,128,0,70846:0:0:0:0:
65,192,70745,1,0,0:0:0:0:
321,192,70846,128,0,70947:0:0:0:0:
449,192,70846,1,0,0:0:0:0:
65,192,70947,128,0,71047:0:0:0:0:
193,192,70947,1,0,0:0:0:0:
448,192,71047,128,0,71148:0:0:0:0:
321,192,71047,1,14,0:0:0:0:
193,192,71148,128,0,71249:0:0:0:0:
65,192,71148,1,0,0:0:0:0:
321,192,71249,128,0,71349:0:0:0:0:
448,192,71249,1,2,0:0:0:0:
65,192,71349,128,0,71450:0:0:0:0:
192,192,71349,1,0,0:0:0:0:
320,192,71450,1,6,0:0:0:70:bumm.wav
448,192,71450,1,0,0:0:0:0:
64,192,71551,1,0,0:0:0:0:
448,192,71651,1,0,0:0:0:0:
64,192,71752,1,0,0:0:0:0:
192,192,71853,1,0,0:0:0:70:bumm.wav
320,192,71853,1,0,0:0:0:0:
448,192,71953,1,0,0:0:0:0:
64,192,72054,1,0,0:0:0:0:
448,192,72155,1,0,0:0:0:0:
192,192,72255,1,4,0:0:0:70:bumm.wav
320,192,72255,1,0,0:0:0:0:
64,192,72356,1,0,0:0:0:0:
320,192,72457,1,0,0:0:0:70:bumm.wav
448,192,72457,1,0,0:0:0:0:
64,192,72557,1,0,0:0:0:0:
192,192,72658,1,0,0:0:0:70:bumm.wav
320,192,72658,1,0,0:0:0:0:
448,192,72759,1,0,0:0:0:0:
64,192,72859,1,0,0:0:0:70:bumm.wav
192,192,72859,1,0,0:0:0:0:
448,192,72960,1,0,0:0:0:0:
320,192,73061,128,0,73262:0:0:0:70:bumm.wav
192,192,73161,128,0,73363:0:0:0:0:
64,192,73262,128,0,73463:0:0:0:0:
448,192,73363,128,0,73564:0:0:0:0:
320,192,73463,128,0,73665:0:0:0:0:
192,192,73564,128,0,73765:0:0:0:0:
64,192,73665,128,0,73866:0:0:0:0:
448,192,73765,128,0,74470:0:0:0:0:
320,192,73866,1,0,0:0:0:0:
192,192,73916,1,0,0:0:0:0:
64,192,73967,1,0,0:0:0:0:
192,192,74067,1,0,0:0:0:0:
320,192,74168,1,0,0:0:0:0:
64,188,74269,128,8,74571:0:0:0:0:
192,188,74369,128,0,74671:0:0:0:0:
320,188,74470,128,0,74772:0:0:0:0:
448,188,74571,128,0,74873:0:0:0:0:
64,192,74671,1,0,0:0:0:0:
191,187,74772,1,0,0:0:0:0:
320,192,74873,1,0,0:0:0:0:
448,192,74973,1,0,0:0:0:0:
64,192,75074,1,0,0:0:0:0:
192,192,75175,1,0,0:0:0:0:
320,192,75275,1,0,0:0:0:0:
448,192,75376,1,0,0:0:0:0:
192,192,75477,128,0,75880:0:0:0:0:
448,192,75678,1,0,0:0:0:0:
64,192,75779,1,0,0:0:0:0:
320,192,75880,1,0,0:0:0:0:
448,192,75880,1,0,0:0:0:0:
192,192,75980,1,0,0:0:0:0:
64,192,75980,1,0,0:0:0:0:
320,192,76081,1,0,0:0:0:0:
448,192,76081,1,0,0:0:0:0:
192,192,76182,1,0,0:0:0:0:
64,192,76182,1,0,0:0:0:0:
320,192,76282,1,4,0:1:0:0:
448,192,76282,1,2,0:0:0:0:
64,192,76282,1,0,0:0:0:0:
448,192,76484,1,0,0:0:0:0:
320,192,76685,1,2,0:0:0:0:
64,192,76685,1,0,0:0:0:0:
448,192,76886,1,0,0:0:0:0:
192,192,77088,1,2,0:0:0:0:
448,192,77088,1,0,0:0:0:0:
320,192,77188,1,0,0:0:0:0:
64,192,77289,1,0,0:0:0:0:
192,192,77289,1,0,0:0:0:0:
192,192,77490,1,2,0:0:0:0:
320,192,77490,1,0,0:0:0:0:
320,192,77692,1,0,0:0:0:0:
192,192,77792,1,0,0:0:0:0:
64,192,77893,1,2,0:0:0:0:
448,192,77893,1,0,0:0:0:0:
448,192,78094,1,0,0:0:0:0:
64,192,78296,1,2,0:0:0:0:
320,192,78296,1,0,0:0:0:0:
64,192,78497,1,0,0:0:0:0:
320,192,78698,1,2,0:0:0:0:
448,192,78698,1,0,0:0:0:0:
192,192,78799,1,0,0:0:0:0:
64,192,78900,1,0,0:0:0:0:
320,192,78900,1,0,0:0:0:0:
192,192,79101,1,2,0:0:0:0:
448,192,79101,1,0,0:0:0:0:
192,192,79302,1,0,0:0:0:0:
448,192,79302,1,0,0:0:0:0:
320,192,79403,1,0,0:0:0:0:
192,192,79504,1,2,0:0:0:0:
64,192,79504,1,0,0:0:0:0:
64,192,79705,1,0,0:0:0:0:
192,192,79806,1,0,0:0:0:0:
320,192,79906,1,2,0:0:0:0:
448,192,79906,1,0,0:0:0:0:
64,192,80108,1,0,0:0:0:0:
192,192,80309,1,2,0:0:0:0:
448,192,80309,1,0,0:0:0:0:
192,192,80510,1,0,0:0:0:0:
448,192,80510,1,0,0:0:0:0:
320,192,80611,1,0,0:0:0:0:
64,192,80712,1,2,0:0:0:0:
448,192,80712,1,0,0:0:0:0:
192,192,80913,1,0,0:0:0:0:
448,192,81014,1,0,0:0:0:0:
320,192,81114,1,2,0:0:0:0:
64,192,81114,1,0,0:0:0:0:
448,192,81215,1,0,0:0:0:0:
320,192,81316,1,0,0:0:0:0:
64,192,81517,1,2,0:0:0:0:
448,192,81517,1,0,0:0:0:0:
192,192,81718,1,0,0:0:0:0:
320,192,81920,1,2,0:0:0:0:
448,192,81920,1,0,0:0:0:0:
64,192,82020,1,0,0:0:0:0:
192,192,82121,1,0,0:0:0:0:
448,192,82121,1,0,0:0:0:0:
320,192,82188,1,0,0:0:0:0:
192,192,82255,1,0,0:0:0:0:
64,192,82322,1,2,0:0:0:0:
448,192,82322,1,0,0:0:0:0:
448,192,82524,1,0,0:0:0:0:
192,192,82624,1,0,0:0:0:0:
64,192,82624,1,0,0:0:0:0:
320,192,82725,1,2,0:0:0:0:
448,192,82725,1,0,0:0:0:0:
64,192,82926,1,0,0:0:0:0:
192,192,83128,1,2,0:0:0:0:
448,192,83128,1,0,0:0:0:0:
64,192,83329,1,0,0:0:0:0:
320,192,83430,1,0,0:0:0:0:
64,192,83531,128,0,83933:0:0:0:0:
448,192,83531,1,2,0:0:0:0:
192,192,83631,1,0,0:0:0:0:
448,192,83732,1,0,0:0:0:0:
320,192,83732,1,0,0:0:0:0:
448,192,83933,128,0,84336:0:0:0:0:
320,192,83933,1,2,0:0:0:0:
192,192,84135,1,0,0:0:0:0:
320,192,84235,1,0,0:0:0:0:
64,192,84336,1,2,0:0:0:0:
192,192,84336,128,0,84739:0:0:0:0:
64,192,84537,1,0,0:0:0:0:
320,192,84739,1,2,0:0:0:0:
448,192,84739,1,0,0:0:0:0:
448,192,84940,1,0,0:0:0:0:
192,192,85141,1,2,0:0:0:0:
448,192,85141,128,0,85544:0:0:0:0:
320,192,85242,1,0,0:0:0:0:
192,192,85343,1,0,0:0:0:0:
64,192,85343,1,0,0:0:0:0:
64,192,85544,1,2,0:0:0:0:
192,192,85544,128,0,85947:0:0:0:0:
320,192,85745,1,0,0:0:0:0:
64,192,85745,1,0,0:0:0:0:
448,192,85846,1,0,0:0:0:0:
64,192,85947,1,2,0:0:0:0:
320,192,85947,128,0,86349:0:0:0:0:
192,192,86148,1,0,0:0:0:0:
64,192,86349,1,2,0:0:0:0:
448,192,86349,1,0,0:0:0:0:
192,192,86551,1,0,0:0:0:0:
320,192,86752,1,2,0:0:0:0:
64,192,86752,1,0,0:0:0:0:
192,192,86853,1,0,0:0:0:0:
320,192,86953,1,0,0:0:0:0:
64,192,86953,1,0,0:0:0:0:
64,192,87155,1,0,0:0:0:0:
192,192,87155,1,2,0:0:0:0:
320,192,87356,1,0,0:0:0:0:
64,192,87457,1,0,0:0:0:0:
192,192,87557,1,2,0:0:0:0:
448,192,87557,1,0,0:0:0:0:
320,192,87759,1,0,0:0:0:0:
448,192,87759,1,0,0:0:0:0:
64,192,87960,1,0,0:0:0:0:
192,192,87960,1,2,0:0:0:0:
320,192,88161,1,0,0:0:0:0:
448,192,88161,1,0,0:0:0:0:
448,192,88363,1,2,0:0:0:0:
320,192,88363,1,0,0:0:0:0:
192,192,88413,1,0,0:0:0:0:
64,192,88413,1,0,0:0:0:0:
448,192,88463,1,0,0:0:0:0:
320,192,88463,1,0,0:0:0:0:
192,192,88564,1,0,0:0:0:0:
64,192,88564,1,0,0:0:0:0:
320,192,88665,1,0,0:0:0:0:
448,192,88665,1,0,0:0:0:0:
192,192,88765,1,0,0:0:0:0:
64,192,88765,1,0,0:0:0:0:
64,192,88866,1,0,0:0:0:0:
320,192,88866,1,0,0:0:0:0:
192,192,88967,1,0,0:0:0:0:
448,192,88967,1,0,0:0:0:0:
448,192,89067,1,0,0:0:0:0:
320,192,89067,1,0,0:0:0:0:
64,192,89168,1,2,0:0:0:0:
320,192,89168,1,0,0:0:0:0:
192,192,89168,1,4,0:0:0:0:
448,192,89269,1,0,0:0:0:0:
64,192,89369,1,0,0:0:0:0:
320,192,89470,1,0,0:0:0:0:
192,192,89571,1,8,0:0:0:0:
64,192,89571,1,0,0:0:0:0:
448,192,89671,1,0,0:0:0:0:
320,192,89772,1,0,0:0:0:0:
448,192,89873,1,0,0:0:0:0:
192,192,89973,1,2,0:0:0:0:
64,192,89973,1,0,0:0:0:0:
320,192,90074,1,0,0:0:0:0:
448,192,90175,1,0,0:0:0:0:
320,192,90275,1,0,0:0:0:0:
192,192,90376,1,8,0:0:0:0:
64,192,90376,1,0,0:0:0:0:
448,192,90477,1,0,0:0:0:0:
320,192,90577,1,0,0:0:0:0:
192,192,90678,1,0,0:0:0:0:
64,192,90779,1,2,0:0:0:0:
448,192,90779,1,0,0:0:0:0:
320,192,90880,1,0,0:0:0:0:
448,192,90980,1,0,0:0:0:0:
192,192,91081,1,0,0:0:0:0:
64,192,91182,1,8,0:0:0:0:
320,192,91182,1,0,0:0:0:0:
448,192,91282,1,0,0:0:0:0:
192,192,91383,1,0,0:0:0:0:
320,192,91484,1,0,0:0:0:0:
64,192,91584,1,2,0:0:0:0:
448,192,91584,1,0,0:0:0:0:
192,192,91685,1,0,0:0:0:0:
448,192,91786,1,0,0:0:0:0:
192,192,91886,1,0,0:0:0:0:
320,192,91987,1,8,0:0:0:0:
448,192,91987,1,0,0:0:0:0:
64,192,92088,1,0,0:0:0:0:
192,192,92188,1,0,0:0:0:0:
320,192,92289,1,0,0:0:0:0:
64,192,92390,1,2,0:0:0:0:
192,192,92390,1,0,0:0:0:0:
448,192,92490,1,0,0:0:0:0:
192,192,92591,1,0,0:0:0:0:
320,192,92692,1,0,0:0:0:0:
64,192,92792,1,8,0:0:0:0:
448,192,92792,1,0,0:0:0:0:
192,192,92893,1,0,0:0:0:0:
320,192,92994,1,0,0:0:0:0:
192,192,93094,1,0,0:0:0:0:
64,192,93195,1,2,0:0:0:0:
448,192,93195,1,0,0:0:0:0:
320,192,93296,1,0,0:0:0:0:
192,192,93396,1,0,0:0:0:0:
320,192,93497,1,0,0:0:0:0:
192,192,93598,1,8,0:0:0:0:
448,192,93598,1,0,0:0:0:0:
64,192,93698,1,0,0:0:0:0:
192,192,93799,1,0,0:0:0:0:
320,192,93900,1,0,0:0:0:0:
64,192,94000,1,2,0:0:0:0:
448,192,94000,1,0,0:0:0:0:
192,192,94101,1,0,0:0:0:0:
64,192,94202,1,0,0:0:0:0:
320,192,94302,1,0,0:0:0:0:
192,192,94403,1,8,0:0:0:0:
448,192,94403,1,0,0:0:0:0:
64,192,94504,1,0,0:0:0:0:
192,192,94604,1,0,0:0:0:0:
448,192,94705,1,0,0:0:0:0:
192,192,94806,1,2,0:0:0:0:
320,192,94806,1,0,0:0:0:0:
64,192,94856,1,0,0:0:0:0:
448,192,94856,1,0,0:0:0:0:
192,192,94906,1,0,0:0:0:0:
320,192,94906,1,0,0:0:0:0:
64,192,95007,1,0,0:0:0:0:
448,192,95007,1,0,0:0:0:0:
192,192,95108,1,0,0:0:0:0:
320,192,95108,1,0,0:0:0:0:
64,192,95208,1,8,0:0:0:0:
448,192,95208,1,0,0:0:0:0:
192,192,95410,1,0,0:0:0:0:
320,192,95410,1,0,0:0:0:0:
64,192,95510,1,0,0:0:0:0:
448,192,95510,1,0,0:0:0:0:
320,192,95611,1,2,0:0:0:0:
191,192,95611,1,4,0:0:0:0:
448,192,95611,1,0,0:0:0:0:
64,192,95712,1,0,0:0:0:0:
192,192,95812,1,0,0:0:0:0:
448,192,95913,1,0,0:0:0:0:
64,192,96014,1,8,0:0:0:0:
320,192,96014,1,0,0:0:0:0:
192,192,96114,1,0,0:0:0:0:
448,192,96215,1,0,0:0:0:0:
192,192,96316,1,0,0:0:0:0:
64,192,96416,1,2,0:0:0:0:
320,192,96416,1,0,0:0:0:0:
448,192,96517,1,0,0:0:0:0:
192,192,96618,1,0,0:0:0:0:
448,192,96718,1,0,0:0:0:0:
320,192,96819,1,8,0:0:0:0:
64,192,96819,1,0,0:0:0:0:
192,192,96920,1,0,0:0:0:0:
448,192,97020,1,0,0:0:0:0:
64,192,97121,1,0,0:0:0:0:
320,192,97222,1,2,0:0:0:0:
192,192,97222,1,0,0:0:0:0:
448,192,97322,1,0,0:0:0:0:
192,192,97423,1,0,0:0:0:0:
64,192,97524,1,0,0:0:0:0:
320,192,97624,1,8,0:0:0:0:
448,192,97624,1,0,0:0:0:0:
192,192,97725,1,0,0:0:0:0:
64,192,97826,1,0,0:0:0:0:
448,192,97926,1,0,0:0:0:0:
320,192,98027,1,2,0:0:0:0:
64,192,98027,1,0,0:0:0:0:
192,192,98128,1,0,0:0:0:0:
320,192,98229,1,0,0:0:0:0:
192,192,98329,1,0,0:0:0:0:
448,192,98430,1,8,0:0:0:0:
64,192,98430,1,0,0:0:0:0:
192,192,98531,1,0,0:0:0:0:
320,192,98631,1,0,0:0:0:0:
64,192,98732,1,0,0:0:0:0:
320,192,98833,1,2,0:0:0:0:
192,192,98833,1,0,0:0:0:0:
448,192,98833,1,4,0:0:0:0:
320,192,99034,1,0,0:0:0:0:
448,192,99034,1,2,0:0:0:0:
64,192,99034,1,0,0:0:0:0:
192,192,99235,1,0,0:0:0:0:
448,192,99235,1,2,0:0:0:0:
64,192,99235,1,0,0:0:0:0:
320,192,99437,1,2,0:0:0:0:
192,192,99437,1,0,0:0:0:0:
64,192,99437,1,0,0:0:0:0:
192,192,99638,1,2,0:0:0:0:
448,192,99638,1,0,0:0:0:0:
64,192,99638,1,4,0:0:0:0:
320,192,99839,1,2,0:0:0:0:
448,192,99839,1,0,0:0:0:0:
64,192,99839,1,0,0:0:0:0:
192,192,100041,1,0,0:0:0:0:
320,192,100041,1,2,0:0:0:0:
448,192,100041,1,0,0:0:0:0:
192,192,100242,1,0,0:0:0:0:
320,192,100242,1,2,0:0:0:0:
64,192,100242,1,0,0:0:0:0:
192,192,100443,1,0,0:0:0:70:bumm.wav
320,192,100443,1,4,0:0:0:0:
448,192,100443,1,0,0:0:0:0:
448,192,100645,1,0,0:0:0:0:
192,192,100745,1,0,0:0:0:70:bumm.wav
320,192,100745,1,0,0:0:0:0:
64,192,100745,1,0,0:0:0:0:
448,192,100846,1,0,0:0:0:0:
192,192,101047,1,0,0:0:0:70:bumm.wav
320,192,101047,1,0,0:0:0:0:
64,192,101047,1,0,0:0:0:0:
320,192,101249,1,0,0:0:0:70:bumm.wav
448,192,101249,1,0,0:0:0:0:
64,192,101249,1,0,0:0:0:0:
192,192,101651,1,0,0:0:0:70:bumm.wav
448,192,101651,1,0,0:0:0:0:
64,192,101651,1,0,0:0:0:0:
192,192,101853,1,0,0:0:0:70:bumm.wav
320,192,101853,1,0,0:0:0:0:
64,192,101853,1,0,0:0:0:0:
448,192,102054,128,4,102255:0:0:0:70:bumm.wav
320,192,102054,1,4,0:0:0:0:
192,192,102054,1,0,0:0:0:0:
320,192,102255,1,0,0:0:0:0:
448,192,102356,1,0,0:0:0:70:bumm.wav
192,192,102356,1,0,0:0:0:0:
64,192,102356,1,0,0:0:0:0:
320,192,102457,1,0,0:0:0:0:
448,192,102658,1,0,0:0:0:70:bumm.wav
320,192,102658,1,0,0:0:0:0:
64,192,102658,1,0,0:0:0:0:
448,192,102859,1,4,0:0:0:70:bumm.wav
192,192,102859,1,4,0:0:0:0:
320,192,102859,1,0,0:0:0:0:
64,192,102960,1,0,0:0:0:0:
320,192,103061,1,0,0:0:0:0:
192,192,103161,1,0,0:0:0:0:
448,192,103262,1,8,0:0:0:0:
320,192,103262,1,0,0:0:0:0:
64,192,103262,1,0,0:0:0:0:
192,192,103363,1,0,0:0:0:0:
320,192,103463,1,2,0:0:0:0:
448,192,103564,1,0,0:0:0:0:
320,192,103665,1,4,0:0:0:0:
192,192,103665,1,0,0:0:0:0:
64,192,103665,1,2,0:0:0:0:
320,192,103866,1,0,0:0:0:0:
64,192,103866,1,0,0:0:0:0:
192,192,103967,1,0,0:0:0:0:
448,192,103967,1,0,0:0:0:0:
64,192,104067,1,8,0:0:0:0:
320,192,104168,1,0,0:0:0:0:
448,192,104269,1,0,0:0:0:0:
192,192,104269,1,0,0:0:0:0:
64,192,104369,1,0,0:0:0:0:
320,192,104470,1,2,0:0:0:0:
448,192,104470,1,0,0:0:0:0:
192,192,104571,1,0,0:0:0:0:
448,192,104671,1,0,0:0:0:0:
64,192,104671,1,0,0:0:0:0:
192,192,104772,1,0,0:0:0:0:
320,192,104873,1,8,0:0:0:0:
64,192,104873,1,0,0:0:0:0:
192,192,104973,1,0,0:0:0:0:
448,192,105074,1,0,0:0:0:0:
320,192,105074,1,0,0:0:0:0:
192,192,105175,1,0,0:0:0:0:
320,192,105275,1,2,0:0:0:0:
64,192,105275,1,0,0:0:0:0:
320,192,105477,1,0,0:0:0:0:
64,192,105477,1,0,0:0:0:0:
192,192,105577,1,0,0:0:0:0:
448,192,105577,1,0,0:0:0:0:
64,192,105678,1,8,0:0:0:0:
320,192,105779,1,0,0:0:0:0:
448,192,105880,1,0,0:0:0:0:
192,192,105880,1,0,0:0:0:0:
64,192,105980,1,0,0:0:0:0:
448,192,106081,1,2,0:0:0:0:
320,192,106081,1,0,0:0:0:0:
192,192,106182,1,0,0:0:0:0:
448,192,106282,1,0,0:0:0:0:
64,192,106282,1,0,0:0:0:0:
192,192,106383,1,0,0:0:0:0:
320,192,106484,1,8,0:0:0:0:
64,192,106484,1,0,0:0:0:0:
448,192,106584,1,0,0:0:0:0:
192,192,106685,1,0,0:0:0:0:
64,192,106685,1,0,0:0:0:0:
448,192,106786,1,0,0:0:0:0:
320,192,106886,1,2,0:0:0:0:
64,192,106886,1,0,0:0:0:0:
448,192,107088,1,0,0:0:0:0:
64,192,107088,1,0,0:0:0:0:
192,192,107188,1,0,0:0:0:0:
320,192,107188,1,0,0:0:0:0:
64,192,107289,1,8,0:0:0:0:
448,192,107390,1,0,0:0:0:0:
192,192,107490,1,0,0:0:0:0:
320,192,107490,1,0,0:0:0:0:
64,192,107591,1,0,0:0:0:0:
320,192,107692,1,2,0:0:0:0:
448,192,107692,1,0,0:0:0:0:
192,192,107792,1,0,0:0:0:0:
320,192,107893,1,0,0:0:0:0:
64,192,107893,1,0,0:0:0:0:
192,192,107994,1,0,0:0:0:0:
448,192,108094,1,8,0:0:0:0:
320,192,108094,1,0,0:0:0:0:
64,192,108195,1,0,0:0:0:0:
192,192,108296,1,0,0:0:0:0:
320,192,108296,1,0,0:0:0:0:
64,192,108396,1,0,0:0:0:0:
448,192,108396,1,0,0:0:0:0:
192,192,108497,1,2,0:0:0:0:
320,192,108497,128,0,108598:0:0:0:0:
64,192,108598,1,0,0:0:0:0:
448,192,108598,128,0,108698:0:0:0:0:
320,192,108698,1,0,0:0:0:0:
192,192,108698,128,0,108799:0:0:0:0:
64,192,108799,128,0,108900:0:0:0:0:
448,192,108799,1,0,0:0:0:0:
320,192,108900,128,0,109000:0:0:0:0:
192,192,108900,1,8,0:0:0:0:
64,192,109000,1,0,0:0:0:0:
448,192,109000,128,0,109101:0:0:0:0:
192,192,109101,128,0,109202:0:0:0:0:
320,192,109101,1,0,0:0:0:0:
64,192,109202,128,0,109302:0:0:0:0:
448,192,109202,1,0,0:0:0:0:
192,192,109302,128,0,109403:0:0:0:0:
320,192,109302,1,2,0:0:0:0:
64,192,109403,1,0,0:0:0:0:
448,192,109403,128,0,109504:0:0:0:0:
192,192,109504,1,0,0:0:0:0:
320,192,109504,128,0,109604:0:0:0:0:
64,192,109604,128,0,109705:0:0:0:0:
448,192,109604,1,0,0:0:0:0:
192,192,109705,128,0,109806:0:0:0:0:
320,192,109705,1,10,0:0:0:0:
64,192,109806,1,0,0:0:0:0:
448,192,109806,128,0,109906:0:0:0:0:
320,192,109906,128,0,110007:0:0:0:0:
192,192,109906,1,2,0:0:0:0:
64,192,110007,128,0,110108:0:0:0:0:
448,192,110007,1,0,0:0:0:0:
320,192,110108,1,4,0:0:0:0:
192,192,110108,1,2,0:0:0:0:
192,192,110309,1,0,0:0:0:0:
64,192,110309,1,0,0:0:0:0:
320,192,110410,1,0,0:0:0:0:
448,192,110410,1,0,0:0:0:0:
64,192,110510,1,8,0:0:0:0:
192,192,110611,1,0,0:0:0:0:
320,192,110712,1,0,0:0:0:0:
448,192,110712,1,0,0:0:0:0:
64,192,110812,1,0,0:0:0:0:
448,192,110913,1,2,0:0:0:0:
192,192,110913,1,0,0:0:0:0:
320,192,111014,1,0,0:0:0:0:
448,192,111114,1,0,0:0:0:0:
64,192,111114,1,0,0:0:0:0:
320,192,111215,1,0,0:0:0:0:
192,192,111316,1,8,0:0:0:0:
64,192,111316,1,0,0:0:0:0:
320,192,111416,1,0,0:0:0:0:
448,192,111517,1,0,0:0:0:0:
192,192,111517,1,0,0:0:0:0:
320,192,111618,1,0,0:0:0:0:
192,192,111718,1,2,0:0:0:0:
64,192,111718,1,0,0:0:0:0:
192,192,111920,1,0,0:0:0:0:
64,192,111920,1,0,0:0:0:0:
320,192,112020,1,0,0:0:0:0:
448,192,112020,1,0,0:0:0:0:
64,192,112121,1,8,0:0:0:0:
192,192,112222,1,0,0:0:0:0:
448,192,112322,1,0,0:0:0:0:
320,192,112322,1,0,0:0:0:0:
64,192,112423,1,0,0:0:0:0:
448,192,112524,1,2,0:0:0:0:
192,192,112524,1,0,0:0:0:0:
320,192,112624,1,0,0:0:0:0:
448,192,112725,1,0,0:0:0:0:
64,192,112725,1,0,0:0:0:0:
320,192,112826,1,0,0:0:0:0:
192,192,112926,1,8,0:0:0:0:
64,192,112926,1,0,0:0:0:0:
448,192,113027,1,0,0:0:0:0:
320,192,113128,1,0,0:0:0:0:
64,192,113128,1,0,0:0:0:0:
448,192,113229,1,0,0:0:0:0:
192,192,113329,1,2,0:0:0:0:
320,192,113329,1,4,0:0:0:0:
64,192,113329,1,0,0:0:0:0:
320,192,113531,1,0,0:0:0:0:
192,192,113531,1,0,0:0:0:0:
64,192,113631,1,2,0:0:0:0:
448,192,113631,1,0,0:0:0:0:
192,192,113732,1,8,0:0:0:0:
448,192,113833,1,0,0:0:0:0:
192,192,113933,1,2,0:0:0:0:
320,192,113933,1,0,0:0:0:0:
64,192,114034,1,0,0:0:0:0:
192,192,114135,1,2,0:0:0:0:
448,192,114135,1,0,0:0:0:0:
320,192,114235,1,0,0:0:0:0:
448,192,114336,1,2,0:0:0:0:
64,192,114336,1,0,0:0:0:0:
192,192,114437,1,0,0:0:0:0:
320,192,114537,1,8,0:0:0:0:
448,192,114537,128,0,114739:0:0:0:0:
64,192,114739,1,2,0:0:0:0:
192,192,114739,128,0,114940:0:0:0:0:
64,192,114940,1,6,0:0:0:0:
320,192,114940,128,0,115041:0:0:0:0:
192,192,115041,1,0,0:0:0:0:
448,192,115041,128,0,115141:0:0:0:0:
320,192,115141,1,2,0:0:0:0:
64,192,115141,128,0,115242:0:0:0:0:
192,192,115242,128,0,115343:0:0:0:0:
448,192,115242,1,0,0:0:0:0:
320,192,115343,128,0,115443:0:0:0:0:
64,192,115343,1,2,0:0:0:0:
192,192,115443,1,0,0:0:0:0:
448,192,115443,128,0,115544:0:0:0:0:
64,192,115544,128,0,115645:0:0:0:0:
320,192,115544,1,2,0:0:0:0:
192,192,115645,128,0,115745:0:0:0:0:
448,192,115645,1,0,0:0:0:0:
320,192,115745,1,6,0:0:0:0:
64,192,115745,128,0,115846:0:0:0:0:
192,192,115846,1,0,0:0:0:0:
448,192,115846,128,0,115947:0:0:0:0:
320,192,115947,128,0,116047:0:0:0:0:
64,192,115947,1,0,0:0:0:0:
192,192,116047,128,0,116148:0:0:0:0:
448,192,116047,1,0,0:0:0:0:
64,192,116148,128,0,116249:0:0:0:0:
320,192,116148,1,6,0:0:0:0:
448,192,116249,128,0,116349:0:0:0:0:
192,192,116249,1,0,0:0:0:0:
320,192,116349,128,0,116450:0:0:0:0:
64,192,116349,1,2,0:0:0:0:
192,192,116450,128,0,116551:0:0:0:0:
448,192,116450,1,0,0:0:0:0:
320,192,116551,1,4,0:0:0:70:bumm.wav
64,192,116551,1,0,0:0:0:0:
320,192,116953,1,0,0:0:0:70:bumm.wav
64,192,116953,1,0,0:0:0:0:
448,192,116953,1,0,0:0:0:0:
320,192,117356,1,4,0:0:0:70:bumm.wav
64,192,117356,1,0,0:0:0:0:
448,192,117356,1,0,0:0:0:0:
448,192,117557,1,4,0:0:0:70:bumm.wav
64,192,117557,1,0,0:0:0:0:
192,192,117557,1,0,0:0:0:0:
320,192,117759,1,4,0:0:0:70:bumm.wav
64,192,117759,1,0,0:0:0:0:
448,192,117759,1,0,0:0:0:0:
320,192,117960,1,4,0:0:0:70:bumm.wav
192,192,117960,1,0,0:0:0:0:
448,192,117960,1,0,0:0:0:0:
448,192,118161,1,4,0:0:0:70:bumm.wav
64,192,118161,128,0,118262:0:0:0:0:
192,192,118161,1,0,0:0:0:0:
320,192,118262,128,0,118363:0:0:0:0:
192,192,118363,128,0,118463:0:0:0:0:
448,192,118463,128,0,118564:0:0:0:0:
320,192,118564,128,0,118665:0:0:0:0:
192,192,118665,128,0,118765:0:0:0:0:
64,192,118765,128,0,118866:0:0:0:0:
448,192,118866,128,0,119470:0:0:0:0:
320,192,118967,1,0,0:0:0:0:
192,192,119017,1,0,0:0:0:0:
64,192,119067,1,0,0:0:0:0:
192,192,119168,128,0,119269:0:0:0:0:
64,192,119269,128,0,119369:0:0:0:0:
192,192,119369,128,8,119470:0:0:0:0:
320,192,119470,128,0,119571:0:0:0:0:
64,192,119571,128,0,119671:0:0:0:0:
448,192,119671,128,0,119772:0:0:0:0:
192,192,119772,128,0,120779:0:0:0:0:
320,192,119772,1,2,0:0:0:0:
64,192,119772,1,4,0:0:0:0:
64,192,119973,1,0,0:0:0:0:
320,192,120074,1,0,0:0:0:0:
448,192,120074,1,0,0:0:0:0:
64,192,120175,1,8,0:0:0:0:
448,192,120275,1,0,0:0:0:0:
64,192,120376,1,0,0:0:0:0:
320,192,120376,1,0,0:0:0:0:
320,192,120577,1,0,0:0:0:0:
64,192,120678,1,0,0:0:0:0:
320,192,120779,1,0,0:0:0:0:
448,192,120779,1,0,0:0:0:0:
64,192,120980,128,8,121383:0:0:0:0:
320,192,120980,1,0,0:0:0:0:
448,192,120980,1,0,0:0:0:0:
320,192,121182,128,0,121383:0:0:0:0:
192,192,121182,1,0,0:0:0:0:
448,192,121383,128,0,121685:0:0:0:0:
192,192,121383,1,0,0:0:0:0:
192,192,121584,1,0,0:0:0:0:
320,192,121685,128,0,121987:0:0:0:0:
64,192,121685,1,0,0:0:0:0:
192,192,121786,1,0,0:0:0:0:
448,192,121786,1,8,0:0:0:0:
64,192,121886,1,0,0:0:0:0:
192,192,121987,128,0,122188:0:0:0:0:
448,192,121987,1,0,0:0:0:0:
64,192,122188,128,0,122490:0:0:0:0:
448,192,122188,1,0,0:0:0:0:
192,192,122289,1,0,0:0:0:0:
320,192,122390,1,0,0:0:0:0:
448,192,122490,1,0,0:0:0:0:
192,192,122490,128,0,122792:0:0:0:0:
320,192,122591,1,8,0:0:0:0:
64,192,122591,1,0,0:0:0:0:
448,192,122692,1,0,0:0:0:0:
320,192,122792,128,0,122994:0:0:0:0:
64,192,122792,1,0,0:0:0:0:
192,192,122893,1,0,0:0:0:0:
448,192,122994,128,0,123598:0:0:0:0:
64,192,122994,1,0,0:0:0:0:
192,192,123195,1,0,0:0:0:0:
64,192,123296,1,0,0:0:0:0:
320,192,123296,1,0,0:0:0:0:
192,192,123396,1,8,0:0:0:0:
320,192,123497,1,0,0:0:0:0:
192,192,123598,1,0,0:0:0:0:
64,192,123598,1,0,0:0:0:0:
320,192,123698,1,0,0:0:0:0:
448,192,123799,1,0,0:0:0:0:
64,192,123799,1,0,0:0:0:0:
320,192,123900,1,0,0:0:0:0:
448,192,124000,1,0,0:0:0:0:
192,192,124000,1,0,0:0:0:0:
64,192,124101,1,0,0:0:0:0:
320,192,124202,1,8,0:0:0:0:
448,192,124202,1,0,0:0:0:0:
192,192,124302,1,0,0:0:0:0:
64,192,124403,1,0,0:0:0:0:
448,192,124403,1,0,0:0:0:0:
192,192,124504,1,0,0:0:0:0:
64,192,124604,128,0,125007:0:0:0:0:
320,192,124604,1,0,0:0:0:0:
192,192,124705,128,0,124806:0:0:0:0:
320,192,124806,128,0,124906:0:0:0:0:
448,192,124906,128,0,125007:0:0:0:0:
192,192,125007,128,0,125410:0:0:0:0:
320,192,125007,1,8,0:0:0:0:
64,192,125108,128,0,125208:0:0:0:0:
320,192,125208,128,0,125309:0:0:0:0:
448,192,125309,128,0,125410:0:0:0:0:
320,192,125410,128,0,125812:0:0:0:0:
64,192,125410,1,0,0:0:0:0:
192,192,125510,128,0,125611:0:0:0:0:
448,192,125611,128,0,125712:0:0:0:0:
64,192,125712,128,0,125812:0:0:0:0:
192,192,125812,1,8,0:0:0:0:
448,192,125812,128,0,126215:0:0:0:0:
320,192,125913,128,0,126014:0:0:0:0:
64,192,126014,128,0,126114:0:0:0:0:
192,192,126014,1,0,0:0:0:0:
320,192,126114,128,0,126215:0:0:0:0:
64,192,126215,1,4,0:0:0:0:
192,192,126215,1,0,0:0:0:0:
192,192,126416,1,0,0:0:0:0:
64,192,126416,128,0,126819:0:0:0:0:
448,192,126517,1,0,0:0:0:0:
320,192,126517,1,0,0:0:0:0:
192,192,126618,1,8,0:0:0:0:
448,192,126718,1,0,0:0:0:0:
192,192,126819,1,0,0:0:0:0:
320,192,126819,128,0,127020:0:0:0:0:
448,192,127020,1,0,0:0:0:0:
192,192,127020,128,0,127423:0:0:0:0:
64,192,127121,1,0,0:0:0:0:
448,192,127222,1,0,0:0:0:0:
320,192,127222,1,0,0:0:0:0:
448,192,127423,1,8,0:0:0:0:
320,192,127423,1,0,0:0:0:0:
64,192,127624,1,0,0:0:0:0:
448,192,127624,1,0,0:0:0:0:
320,192,127725,1,0,0:0:0:0:
448,192,127826,1,0,0:0:0:0:
192,192,127826,1,0,0:0:0:0:
64,192,128027,1,0,0:0:0:0:
192,192,128027,128,0,128430:0:0:0:0:
448,192,128128,1,0,0:0:0:0:
320,192,128128,1,0,0:0:0:0:
64,192,128229,1,8,0:0:0:0:
320,192,128329,1,0,0:0:0:0:
64,192,128430,1,0,0:0:0:0:
448,192,128430,128,0,128631:0:0:0:0:
64,192,128631,128,0,129034:0:0:0:0:
320,192,128631,1,0,0:0:0:0:
448,192,128732,1,0,0:0:0:0:
320,192,128833,1,0,0:0:0:0:
192,192,128833,1,0,0:0:0:0:
192,192,129034,1,8,0:0:0:0:
320,192,129034,128,0,129235:0:0:0:0:
448,192,129135,1,0,0:0:0:0:
64,192,129235,1,0,0:0:0:0:
192,192,129235,128,0,129336:0:0:0:0:
320,192,129336,128,0,129437:0:0:0:0:
64,192,129437,128,0,130041:0:0:0:0:
448,192,129437,1,0,0:0:0:0:
192,192,129437,1,4,0:0:0:0:
192,192,129739,1,0,0:0:0:0:
448,192,129739,1,0,0:0:0:0:
320,192,129839,1,8,0:0:0:0:
448,192,130041,1,0,0:0:0:0:
192,192,130041,128,0,130141:0:0:0:0:
320,192,130141,128,0,130242:0:0:0:0:
192,192,130242,1,0,0:0:0:0:
448,192,130242,128,0,130443:0:0:0:0:
64,192,130343,1,0,0:0:0:0:
320,192,130443,128,0,130645:0:0:0:0:
64,192,130544,1,0,0:0:0:0:
192,192,130645,128,8,130846:0:0:0:0:
448,192,130745,1,0,0:0:0:0:
64,192,130846,128,0,131047:0:0:0:0:
448,192,130947,1,0,0:0:0:0:
192,192,131047,1,6,0:0:0:0:
320,192,131047,128,0,131148:0:0:0:0:
448,192,131148,128,0,131249:0:0:0:0:
64,192,131249,1,6,0:0:0:0:
192,192,131249,1,0,0:0:0:0:
320,192,131249,128,0,131349:0:0:0:0:
448,192,131349,128,0,131450:0:0:0:0:
64,192,131450,1,6,0:0:0:0:
192,192,131450,1,0,0:0:0:0:
320,192,131450,128,0,131551:0:0:0:0:
448,192,131551,128,0,131651:0:0:0:0:
64,192,131651,1,6,0:0:0:0:
192,192,131651,1,0,0:0:0:0:
320,192,131651,128,0,131752:0:0:0:0:
448,192,131752,128,0,131853:0:0:0:0:
64,192,131853,1,6,0:0:0:0:
320,192,131853,128,0,131953:0:0:0:0:
192,192,131953,128,0,132054:0:0:0:0:
320,192,132054,128,0,132155:0:0:0:0:
448,192,132155,128,0,132255:0:0:0:0:
320,192,132255,128,0,132356:0:0:0:0:
64,192,132255,1,6,0:0:0:0:
192,192,132356,128,0,132457:0:0:0:0:
64,192,132457,1,4,0:0:0:0:
320,192,132457,128,0,132557:0:0:0:0:
448,192,132557,128,0,132658:0:0:0:0:
320,192,132658,1,6,0:0:0:70:bumm.wav
64,192,132658,1,2,0:0:0:0:
192,192,132658,1,4,0:0:0:0:
448,192,132759,1,0,0:0:0:0:
192,192,132859,1,0,0:0:0:0:
448,192,132960,1,0,0:0:0:0:
64,192,133061,1,0,0:0:0:70:bumm.wav
192,192,133061,1,0,0:0:0:0:
320,192,133061,1,0,0:0:0:0:
448,192,133161,1,0,0:0:0:0:
192,192,133262,1,0,0:0:0:0:
64,192,133363,1,0,0:0:0:0:
192,192,133463,1,0,0:0:0:70:bumm.wav
320,192,133463,1,4,0:0:0:0:
448,192,133463,1,0,0:0:0:0:
64,192,133564,1,0,0:0:0:0:
64,192,133665,1,0,0:0:0:70:bumm.wav
320,192,133665,1,4,0:0:0:0:
448,192,133665,1,0,0:0:0:0:
192,192,133765,1,0,0:0:0:0:
64,192,133866,1,0,0:0:0:70:bumm.wav
192,192,133866,1,4,0:0:0:0:
448,192,133866,1,0,0:0:0:0:
320,192,133967,1,0,0:0:0:0:
64,192,134067,1,0,0:0:0:70:bumm.wav
192,192,134067,1,4,0:0:0:0:
320,192,134067,1,0,0:0:0:0:
448,192,134168,1,0,0:0:0:0:
64,192,134269,1,4,0:0:0:0:
448,192,134269,1,0,0:0:0:0:
320,192,134269,128,0,134369:0:0:0:0:
192,192,134369,128,0,134470:0:0:0:0:
64,192,134470,128,0,134571:0:0:0:0:
448,192,134571,128,0,134671:0:0:0:0:
320,192,134671,128,0,134772:0:0:0:0:
192,192,134772,128,0,134873:0:0:0:0:
64,192,134873,128,0,134973:0:0:0:0:
448,192,134973,128,0,135376:0:0:0:0:
320,192,135074,128,0,135275:0:0:0:0:
192,192,135124,1,0,0:0:0:0:
64,192,135175,128,0,135477:0:0:0:0:
192,192,135275,128,0,135577:0:0:0:0:
320,192,135376,128,0,135678:0:0:0:0:
448,192,135477,128,8,135779:0:0:0:0:
64,192,135577,128,0,135880:0:0:0:0:
192,192,135678,128,0,135880:0:0:0:0:
320,192,135779,128,0,135880:0:0:0:0:
448,192,135880,1,4,0:1:0:0:
64,192,135980,1,0,0:0:0:0:
192,192,136081,1,0,0:0:0:0:
448,192,136182,1,0,0:0:0:0:
64,192,136282,1,0,0:0:0:0:
448,192,136383,1,0,0:0:0:0:
192,192,136484,1,0,0:0:0:0:
64,192,137088,1,0,0:0:0:0:
448,192,137289,1,0,0:0:0:0:
448,192,137490,1,0,0:0:0:0:
320,192,137591,1,0,0:0:0:0:
192,192,137692,1,0,0:0:0:0:
448,192,137792,1,0,0:0:0:0:
320,192,137893,1,0,0:0:0:0:
64,192,137994,1,0,0:0:0:0:
192,192,138094,1,0,0:0:0:0:
64,192,138698,1,0,0:0:0:0:
192,192,138900,1,0,0:0:0:0:
320,192,139101,1,4,0:1:0:0:
192,192,139202,1,0,0:0:0:0:
64,192,139302,1,0,0:0:0:0:
192,192,139403,1,0,0:0:0:0:
64,192,139504,1,0,0:0:0:0:
320,192,139604,1,0,0:0:0:0:
192,192,139705,1,0,0:0:0:0:
192,192,140309,1,0,0:0:0:0:
320,192,140510,1,0,0:0:0:0:
448,192,140712,1,4,0:1:0:0:
64,192,140812,1,0,0:0:0:0:
448,192,140913,1,0,0:0:0:0:
64,192,141014,1,0,0:0:0:0:
448,192,141114,1,0,0:0:0:0:
64,192,141215,1,0,0:0:0:0:
448,192,141316,1,0,0:0:0:0:
192,192,141920,1,0,0:0:0:0:
320,192,142121,1,0,0:0:0:0:
448,192,142322,128,0,142926:0:0:0:0:
192,192,142322,1,4,0:0:0:0:
64,192,142624,1,0,0:0:0:0:
192,192,142926,128,0,143933:0:0:0:0:
320,192,143531,128,0,143933:0:0:0:0:
448,192,143933,128,0,144336:0:0:0:0:
64,192,143933,1,4,0:0:0:0:
64,192,144336,128,0,144739:0:0:0:0:
448,192,144470,1,0,0:0:0:0:
192,192,144537,1,0,0:0:0:0:
320,192,144604,1,0,0:0:0:0:
448,192,144671,1,0,0:0:0:0:
320,192,144739,1,2,0:0:0:0:
192,192,144739,1,0,0:0:0:0:
192,192,145141,1,8,0:0:0:0:
320,192,145141,1,0,0:0:0:0:
448,192,145141,128,0,147155:0:0:0:0:
64,192,145141,128,0,146349:0:0:0:0:
320,192,146752,128,0,147155:0:0:0:0:
64,192,147155,128,0,148765:0:0:0:0:
192,192,147155,128,4,147356:0:0:0:0:
320,192,147557,128,0,147759:0:0:0:0:
448,192,147960,128,0,148161:0:0:0:0:
320,192,148363,128,0,148564:0:0:0:0:
192,192,148765,128,0,150376:0:0:0:0:
320,192,148765,128,0,148967:0:0:0:0:
64,192,149168,128,0,149369:0:0:0:0:
448,192,149571,128,0,149772:0:0:0:0:
320,192,149973,128,0,150175:0:0:0:0:
64,192,150376,128,0,150577:0:0:0:0:
320,192,150376,128,0,151987:0:0:0:0:
192,192,150779,128,0,150980:0:0:0:0:
448,192,151182,128,0,151383:0:0:0:0:
192,192,151584,128,0,151786:0:0:0:0:
64,192,151987,128,0,152088:0:0:0:0:
320,192,152088,128,0,152188:0:0:0:0:
192,192,152188,128,0,152289:0:0:0:0:
448,192,152289,128,0,152390:0:0:0:0:
64,192,152390,128,0,152893:0:0:0:0:
320,192,152490,128,0,152692:0:0:0:0:
192,192,152591,128,0,152792:0:0:0:0:
448,192,152692,128,0,152994:0:0:0:0:
320,192,152792,128,0,153094:0:0:0:0:
192,192,152893,128,0,153195:0:0:0:0:
64,192,152994,128,0,153296:0:0:0:0:
448,192,153094,128,0,153396:0:0:0:0:
320,192,153195,128,0,153497:0:0:0:0:
192,192,153296,128,0,153598:0:0:0:0:
64,192,153396,128,0,153598:0:0:0:0:
448,192,153497,128,0,153598:0:0:0:0:
320,192,153598,128,0,154000:0:0:0:0:
192,192,153799,128,0,154000:0:0:0:0:
64,192,154000,1,0,0:0:0:70:bumm.wav
448,192,154000,1,0,0:0:0:0:
192,192,154403,128,0,154806:0:0:0:0:
320,192,154604,128,0,154806:0:0:0:0:
64,192,154806,1,0,0:0:0:70:bumm.wav
448,192,154806,1,0,0:0:0:0:
320,192,155208,128,0,155611:0:0:0:0:
192,192,155410,128,0,155611:0:0:0:0:
64,192,155611,1,0,0:0:0:70:bumm.wav
448,192,155611,1,0,0:0:0:0:
191,192,156014,128,0,156416:0:0:0:0:
319,192,156215,128,0,156416:0:0:0:0:
63,192,156416,1,0,0:0:0:70:bumm.wav
447,192,156416,1,0,0:0:0:0:
192,192,156819,128,0,157121:0:0:0:70:bumm.wav
320,192,156819,128,0,157121:0:0:0:0:
64,192,157121,1,0,0:0:0:70:bumm.wav
448,192,157121,1,0,0:0:0:0:
192,192,157222,1,0,0:0:0:0:
320,192,157222,1,0,0:0:0:0:
448,192,157423,1,0,0:0:0:70:bumm.wav
64,192,157423,1,0,0:0:0:0:
192,192,157524,1,0,0:0:0:0:
320,192,157524,1,0,0:0:0:0:
192,192,157725,1,0,0:0:0:70:bumm.wav
320,192,157725,1,0,0:0:0:0:
64,192,157826,1,0,0:0:0:70:bumm.wav
448,192,157826,1,0,0:0:0:0:
192,192,157926,1,0,0:0:0:70:bumm.wav
320,192,157926,1,0,0:0:0:0:
64,192,158027,1,0,0:0:0:70:bumm.wav
448,192,158027,1,0,0:0:0:0:
192,192,158229,1,0,0:0:0:70:bumm.wav
320,192,158229,1,0,0:0:0:0:
320,192,158430,1,0,0:0:0:70:bumm.wav
448,192,158430,128,0,158631:0:0:0:0:
192,192,158430,1,0,0:0:0:0:
64,192,158531,1,0,0:0:0:0:
192,192,158631,1,0,0:0:0:70:bumm.wav
320,192,158631,128,0,158833:0:0:0:0:
448,192,158732,1,0,0:0:0:0:
192,192,158833,1,4,0:0:0:70:bumm.wav
64,192,158833,128,0,159034:0:0:0:0:
448,192,158933,1,0,0:0:0:0:
192,192,159034,1,0,0:0:0:70:bumm.wav
320,192,159034,128,0,159235:0:0:0:0:
64,192,159135,1,0,0:0:0:70:bumm.wav
448,192,159235,1,0,0:0:0:0:
192,192,159235,1,0,0:0:0:0:
320,192,159336,1,0,0:0:0:0:
192,192,159437,1,0,0:0:0:0:
320,192,159537,1,0,0:0:0:0:
448,192,159638,1,8,0:0:0:0:
64,192,159638,1,0,0:0:0:0:
192,192,159638,1,0,0:0:0:0:
320,192,159739,1,0,0:0:0:0:
192,192,159839,1,0,0:0:0:0:
64,192,159940,1,0,0:0:0:0:
320,192,160041,1,2,0:0:0:0:
448,192,160041,1,4,0:1:0:0:
192,192,160041,1,0,0:0:0:0:
64,192,160242,1,0,0:0:0:0:
192,192,160242,1,0,0:0:0:0:
320,192,160343,1,0,0:0:0:0:
448,192,160343,1,0,0:0:0:0:
64,192,160443,1,8,0:0:0:0:
192,192,160443,1,0,0:0:0:0:
448,192,160544,1,0,0:0:0:0:
192,192,160645,1,0,0:0:0:0:
320,192,160645,1,0,0:0:0:0:
64,192,160745,1,0,0:0:0:0:
448,192,160846,1,2,0:0:0:0:
320,192,160846,1,0,0:0:0:0:
192,192,160947,1,0,0:0:0:0:
64,192,161047,1,0,0:0:0:0:
320,192,161047,1,0,0:0:0:0:
192,192,161148,1,0,0:0:0:0:
64,192,161249,1,8,0:0:0:0:
448,192,161249,1,0,0:0:0:0:
192,192,161349,1,0,0:0:0:0:
448,192,161450,1,0,0:0:0:0:
320,192,161450,1,0,0:0:0:0:
192,192,161551,1,0,0:0:0:0:
64,192,161651,1,2,0:0:0:0:
448,192,161651,1,0,0:0:0:0:
448,192,161853,1,0,0:0:0:0:
64,192,161853,1,0,0:0:0:0:
320,192,161953,1,0,0:0:0:0:
192,192,161953,1,0,0:0:0:0:
64,192,162054,1,8,0:0:0:0:
448,192,162054,1,0,0:0:0:0:
320,192,162155,1,0,0:0:0:0:
448,192,162255,1,0,0:0:0:0:
192,192,162255,1,0,0:0:0:0:
64,192,162356,1,0,0:0:0:0:
448,192,162457,1,2,0:0:0:0:
320,192,162457,1,0,0:0:0:0:
192,192,162557,1,0,0:0:0:0:
64,192,162658,1,0,0:0:0:0:
320,192,162658,1,0,0:0:0:0:
192,192,162759,1,0,0:0:0:0:
448,192,162859,1,8,0:0:0:0:
64,192,162859,1,0,0:0:0:0:
320,192,162960,1,0,0:0:0:0:
64,192,163061,1,0,0:0:0:0:
192,192,163061,1,0,0:0:0:0:
320,192,163161,1,0,0:0:0:0:
64,192,163262,1,2,0:0:0:0:
448,192,163262,1,0,0:0:0:0:
320,192,163463,1,0,0:0:0:0:
64,192,163463,1,0,0:0:0:0:
448,192,163564,1,0,0:0:0:0:
192,192,163564,1,0,0:0:0:0:
64,192,163665,1,8,0:0:0:0:
320,192,163665,1,0,0:0:0:0:
192,192,163765,1,0,0:0:0:0:
448,192,163866,1,0,0:0:0:0:
64,192,163866,1,0,0:0:0:0:
192,192,163967,1,0,0:0:0:0:
320,192,164067,1,2,0:0:0:0:
448,192,164067,1,0,0:0:0:0:
192,192,164168,1,0,0:0:0:0:
64,192,164269,1,0,0:0:0:0:
448,192,164269,1,0,0:0:0:0:
192,192,164369,1,0,0:0:0:0:
64,192,164470,1,8,0:0:0:0:
320,192,164470,1,0,0:0:0:0:
448,192,164571,1,0,0:0:0:0:
192,192,164671,1,0,0:0:0:0:
320,192,164671,1,0,0:0:0:0:
64,192,164772,1,0,0:0:0:0:
448,192,164873,128,0,164973:0:0:0:0:
320,192,164873,1,2,0:0:0:0:
192,192,164973,1,0,0:0:0:0:
448,192,165074,1,0,0:0:0:0:
64,192,165175,1,0,0:0:0:0:
192,192,165175,128,0,165275:0:0:0:0:
320,192,165275,1,8,0:0:0:0:
192,192,165376,1,0,0:0:0:0:
448,192,165477,1,0,0:0:0:0:
319,192,165477,128,0,165577:0:0:0:0:
64,192,165577,1,0,0:0:0:0:
448,192,165678,128,0,165779:0:0:0:0:
192,192,165678,1,2,0:0:0:0:
320,192,165779,128,0,165880:0:0:0:0:
192,192,165880,128,0,165980:0:0:0:0:
64,192,165980,128,0,166081:0:0:0:0:
448,192,166081,128,0,166182:0:0:0:0:
192,192,166081,1,8,0:0:0:0:
320,192,166182,128,0,166282:0:0:0:0:
192,192,166282,128,0,166383:0:0:0:0:
64,192,166383,128,0,166484:0:0:0:0:
320,192,166484,1,4,0:1:0:0:
448,192,166484,1,2,0:0:0:0:
192,192,166484,1,0,0:0:0:0:
192,192,166685,1,0,0:0:0:0:
320,192,166685,1,0,0:0:0:0:
448,192,166786,1,0,0:0:0:0:
64,192,166786,1,0,0:0:0:0:
320,192,166886,1,8,0:0:0:0:
192,192,166886,1,0,0:0:0:0:
64,192,166987,1,0,0:0:0:0:
320,192,167088,1,0,0:0:0:0:
448,192,167088,1,0,0:0:0:0:
64,192,167188,1,0,0:0:0:0:
192,192,167289,1,2,0:0:0:0:
320,192,167289,1,0,0:0:0:0:
448,192,167390,1,0,0:0:0:0:
64,192,167490,1,0,0:0:0:0:
320,192,167490,1,0,0:0:0:0:
448,192,167591,1,0,0:0:0:0:
64,192,167692,1,8,0:0:0:0:
192,192,167692,1,0,0:0:0:0:
448,192,167792,1,0,0:0:0:0:
192,192,167893,1,0,0:0:0:0:
320,192,167893,1,0,0:0:0:0:
448,192,167994,1,0,0:0:0:0:
64,192,168094,1,2,0:0:0:0:
192,192,168094,1,0,0:0:0:0:
192,192,168296,1,0,0:0:0:0:
64,192,168296,1,0,0:0:0:0:
320,192,168396,1,0,0:0:0:0:
448,192,168396,1,0,0:0:0:0:
64,192,168497,1,8,0:0:0:0:
192,192,168497,1,0,0:0:0:0:
320,192,168598,1,0,0:0:0:0:
448,192,168698,1,0,0:0:0:0:
64,192,168698,1,0,0:0:0:0:
192,192,168799,1,0,0:0:0:0:
64,192,168900,1,2,0:0:0:0:
320,192,168900,1,0,0:0:0:0:
448,192,169000,1,0,0:0:0:0:
64,192,169101,1,0,0:0:0:0:
320,192,169101,1,0,0:0:0:0:
448,192,169202,1,0,0:0:0:0:
64,192,169302,1,8,0:0:0:0:
192,192,169302,1,0,0:0:0:0:
320,192,169403,1,0,0:0:0:0:
64,192,169504,1,0,0:0:0:0:
448,192,169504,1,0,0:0:0:0:
320,192,169604,1,0,0:0:0:0:
64,192,169705,1,2,0:0:0:0:
448,192,169705,1,0,0:0:0:0:
192,192,169705,1,4,0:0:0:0:
192,192,169906,1,0,0:0:0:0:
64,192,169906,1,0,0:0:0:0:
448,192,170007,1,2,0:0:0:0:
320,192,170007,1,0,0:0:0:0:
64,192,170108,1,8,0:0:0:0:
192,192,170108,1,0,0:0:0:0:
320,192,170208,1,0,0:0:0:0:
448,192,170309,1,2,0:0:0:0:
192,192,170309,1,0,0:0:0:0:
64,192,170410,128,0,170510:0:0:0:0:
320,192,170510,1,2,0:0:0:0:
448,192,170510,128,0,170611:0:0:0:0:
192,192,170611,1,0,0:0:0:0:
64,192,170611,128,0,170712:0:0:0:0:
320,192,170712,1,2,0:0:0:0:
448,192,170712,128,0,170913:0:0:0:0:
192,192,170812,1,0,0:0:0:0:
320,192,170913,1,10,0:0:0:0:
64,192,170913,128,0,171114:0:0:0:0:
192,192,171014,1,0,0:0:0:0:
320,192,171114,1,2,0:0:0:0:
448,192,171114,128,0,171215:0:0:0:0:
192,192,171215,1,0,0:0:0:0:
64,192,171215,128,0,171316:0:0:0:0:
320,192,171316,1,2,0:0:0:0:
448,192,171316,1,4,0:0:0:0:
192,192,171316,128,0,171416:0:0:0:0:
64,192,171416,128,0,171517:0:0:0:0:
192,192,171517,128,0,171618:0:0:0:0:
448,192,171517,1,2,0:0:0:0:
320,192,171618,128,0,171718:0:0:0:0:
64,192,171618,1,0,0:0:0:0:
448,192,171718,128,0,171819:0:0:0:0:
192,192,171718,1,2,0:0:0:0:
64,192,171819,128,0,171920:0:0:0:0:
320,192,171819,1,0,0:0:0:0:
448,192,171920,1,2,0:0:0:0:
192,192,171920,128,0,172020:0:0:0:0:
64,192,172020,1,0,0:0:0:0:
320,192,172020,128,0,172121:0:0:0:0:
192,192,172121,128,0,172222:0:0:0:0:
448,192,172121,1,6,0:0:0:0:
64,192,172222,128,0,172322:0:0:0:0:
320,192,172222,1,0,0:0:0:0:
192,192,172322,1,0,0:0:0:0:
448,192,172322,128,0,172423:0:0:0:0:
64,192,172423,1,0,0:0:0:0:
320,192,172423,128,0,172524:0:0:0:0:
448,192,172524,1,6,0:0:0:0:
192,192,172524,128,0,172624:0:0:0:0:
64,192,172624,128,0,172725:0:0:0:0:
320,192,172624,1,0,0:0:0:0:
448,192,172725,128,0,172826:0:0:0:0:
192,192,172725,1,2,0:0:0:0:
320,192,172826,128,0,172926:0:0:0:0:
64,192,172826,1,0,0:0:0:0:
448,192,172926,1,4,0:0:0:0:
193,192,172926,1,2,0:0:0:0:
63,192,172926,1,0,0:0:0:0:
64,192,173128,1,0,0:0:0:0:
449,192,173229,1,0,0:0:0:0:
320,192,173229,1,0,0:0:0:0:
320,192,173329,1,8,0:0:0:0:
64,192,173329,1,0,0:0:0:0:
192,192,173329,1,0,0:0:0:0:
448,192,173430,1,0,0:0:0:0:
65,192,173531,1,0,0:0:0:0:
192,192,173531,1,0,0:0:0:0:
320,192,173631,1,0,0:0:0:0:
193,192,173732,1,2,0:0:0:0:
449,192,173732,1,0,0:0:0:0:
65,192,173833,1,0,0:0:0:0:
449,192,173933,1,0,0:0:0:0:
321,192,173933,1,0,0:0:0:0:
64,192,174034,1,0,0:0:0:0:
321,192,174135,1,8,0:0:0:0:
193,192,174135,1,0,0:0:0:0:
448,192,174135,1,0,0:0:0:0:
64,192,174235,1,0,0:0:0:0:
320,192,174336,1,0,0:0:0:0:
192,192,174336,1,0,0:0:0:0:
448,192,174437,1,0,0:0:0:0:
193,192,174537,1,2,0:0:0:0:
321,192,174537,1,0,0:0:0:0:
320,192,174739,1,0,0:0:0:0:
192,192,174839,1,0,0:0:0:0:
65,192,174839,1,0,0:0:0:0:
321,192,174940,1,8,0:0:0:0:
192,192,174940,1,0,0:0:0:0:
448,192,174940,1,0,0:0:0:0:
64,192,175041,1,0,0:0:0:0:
192,192,175141,1,0,0:0:0:0:
449,192,175141,1,0,0:0:0:0:
321,192,175242,1,0,0:0:0:0:
193,192,175343,1,2,0:0:0:0:
449,192,175343,1,0,0:0:0:0:
65,192,175443,1,0,0:0:0:0:
449,192,175544,1,0,0:0:0:0:
321,192,175544,1,0,0:0:0:0:
64,192,175645,1,0,0:0:0:0:
193,192,175745,1,8,0:0:0:0:
321,192,175745,1,0,0:0:0:0:
448,192,175745,1,0,0:0:0:0:
64,192,175846,1,0,0:0:0:0:
192,192,175947,1,0,0:0:0:0:
320,192,175947,1,0,0:0:0:0:
448,192,176047,1,0,0:0:0:0:
64,192,176148,1,2,0:0:0:0:
192,192,176148,1,0,0:0:0:0:
192,192,176349,1,0,0:0:0:0:
320,192,176450,1,0,0:0:0:0:
448,192,176450,1,0,0:0:0:0:
192,192,176551,1,8,0:0:0:0:
64,192,176551,1,0,0:0:0:0:
448,192,176551,1,0,0:0:0:0:
320,192,176651,1,0,0:0:0:0:
448,192,176752,1,0,0:0:0:0:
64,192,176752,1,0,0:0:0:0:
321,192,176853,1,0,0:0:0:0:
193,192,176953,1,2,0:0:0:0:
449,192,176953,1,0,0:0:0:0:
65,192,177054,1,0,0:0:0:0:
193,192,177155,1,0,0:0:0:0:
321,192,177155,1,0,0:0:0:0:
64,192,177255,1,0,0:0:0:0:
449,192,177356,1,8,0:0:0:0:
321,192,177356,1,0,0:0:0:0:
192,192,177356,1,0,0:0:0:0:
64,192,177457,1,0,0:0:0:0:
193,192,177557,1,0,0:0:0:0:
449,192,177557,1,0,0:0:0:0:
64,192,177658,1,0,0:0:0:0:
449,192,177759,1,2,0:0:0:0:
320,192,177759,128,0,177859:0:0:0:0:
65,192,177859,1,0,0:0:0:0:
321,192,177960,1,0,0:0:0:0:
64,192,178061,128,0,178161:0:0:0:0:
449,192,178161,1,8,0:0:0:0:
192,192,178161,1,0,0:0:0:0:
320,192,178161,1,0,0:0:0:0:
65,192,178262,1,0,0:0:0:0:
448,192,178363,128,0,178463:0:0:0:0:
64,192,178463,1,0,0:0:0:0:
448,192,178564,1,2,0:0:0:0:
320,192,178564,128,0,178665:0:0:0:0:
192,192,178564,1,0,0:0:0:0:
64,192,178665,128,0,178765:0:0:0:0:
448,192,178765,128,0,178866:0:0:0:0:
192,192,178866,128,0,178967:0:0:0:0:
448,192,178967,128,0,179067:0:0:0:0:
320,192,178967,1,2,0:0:0:0:
64,192,178967,1,8,0:0:0:0:
320,192,179067,128,0,179168:0:0:0:0:
192,192,179168,128,2,179269:0:0:0:0:
64,192,179269,128,0,179369:0:0:0:0:
321,192,179369,1,2,0:0:0:0:
449,192,179369,1,4,0:0:0:0:
192,192,179369,1,0,0:0:0:0:
192,192,179571,1,0,0:0:0:0:
320,192,179671,1,0,0:0:0:0:
64,192,179671,1,0,0:0:0:0:
321,192,179772,1,8,0:0:0:0:
448,192,179772,1,0,0:0:0:0:
192,192,179772,1,0,0:0:0:0:
65,192,179873,1,0,0:0:0:0:
449,192,179973,1,0,0:0:0:0:
193,192,179973,1,0,0:0:0:0:
321,192,180074,1,0,0:0:0:0:
449,192,180175,1,2,0:0:0:0:
65,192,180175,1,0,0:0:0:0:
193,192,180275,1,0,0:0:0:0:
321,192,180376,1,0,0:0:0:0:
449,192,180376,1,0,0:0:0:0:
192,192,180477,1,0,0:0:0:0:
65,192,180577,1,8,0:0:0:0:
321,192,180577,1,0,0:0:0:0:
448,192,180577,1,0,0:0:0:0:
193,192,180678,1,0,0:0:0:0:
449,192,180779,1,0,0:0:0:0:
65,192,180779,1,0,0:0:0:0:
320,192,180880,1,0,0:0:0:0:
448,192,180980,1,0,0:0:0:0:
64,192,180980,1,4,0:0:0:0:
192,192,180980,1,2,0:0:0:0:
65,192,181182,1,0,0:0:0:0:
193,192,181282,1,0,0:0:0:0:
449,192,181282,1,0,0:0:0:0:
321,192,181383,1,8,0:0:0:0:
192,192,181383,1,0,0:0:0:0:
448,192,181383,1,0,0:0:0:0:
65,192,181484,1,0,0:0:0:0:
449,192,181584,1,0,0:0:0:0:
193,192,181584,1,0,0:0:0:0:
321,192,181685,1,0,0:0:0:0:
449,192,181786,1,0,0:0:0:0:
65,192,181786,1,2,0:0:0:0:
193,192,181886,1,0,0:0:0:0:
321,192,181987,1,0,0:0:0:0:
449,192,181987,1,0,0:0:0:0:
64,192,182088,1,0,0:0:0:0:
448,192,182188,1,8,0:0:0:0:
321,192,182188,1,0,0:0:0:0:
192,192,182188,1,0,0:0:0:0:
64,192,182289,1,0,0:0:0:0:
321,192,182390,1,0,0:0:0:0:
193,192,182390,1,0,0:0:0:0:
449,192,182490,1,0,0:0:0:0:
193,192,182591,1,0,0:1:0:0:
65,192,182591,1,4,0:0:0:0:
321,192,182591,1,2,0:0:0:0:
448,192,182591,1,0,0:0:0:0:
64,192,182692,1,0,0:0:0:0:
321,192,182792,1,0,0:0:0:0:
65,192,182893,1,2,0:0:0:0:
193,192,182893,1,0,0:0:0:0:
321,192,182994,1,8,0:0:0:0:
192,192,182994,1,0,0:0:0:0:
449,192,183094,1,0,0:0:0:0:
65,192,183195,1,2,0:0:0:0:
193,192,183195,1,0,0:0:0:0:
321,192,183296,1,0,0:0:0:0:
65,192,183396,1,0,0:0:0:0:
449,192,183396,1,2,0:0:0:0:
193,192,183497,1,0,0:0:0:0:
448,192,183497,1,0,0:0:0:0:
65,192,183598,1,2,0:0:0:0:
321,192,183598,1,0,0:0:0:0:
193,192,183698,1,0,0:0:0:0:
64,192,183698,1,0,0:0:0:0:
448,192,183799,1,10,0:0:0:0:
320,192,183799,128,0,184000:0:0:0:0:
65,192,184000,1,2,0:0:0:0:
192,192,184000,128,0,184202:0:0:0:0:
320,192,184202,1,6,0:0:0:0:
448,192,184202,128,0,184302:0:0:0:0:
64,192,184202,128,0,184302:0:0:0:0:
192,192,184302,128,0,184403:0:0:0:0:
448,192,184403,128,0,184504:0:0:0:0:
320,192,184403,1,6,0:0:0:0:
64,192,184403,128,0,184504:0:0:0:0:
192,192,184504,128,0,184604:0:0:0:0:
320,192,184604,1,14,0:0:0:0:
448,192,184604,128,0,184705:0:0:0:0:
64,192,184604,128,0,184705:0:0:0:0:
192,192,184705,128,0,184806:0:0:0:0:
64,192,184806,128,0,184906:0:0:0:0:
448,192,184806,128,0,185208:0:0:0:0:
320,192,184806,128,6,184906:0:0:0:0:
192,192,184906,128,0,185007:0:0:0:0:
320,192,185007,128,0,185309:0:0:0:0:
64,192,185007,128,6,185108:0:0:0:0:
192,192,185108,128,0,185410:0:0:0:0:
64,192,185208,128,0,185510:0:0:0:0:
448,192,185309,128,0,185611:0:0:0:0:
320,192,185410,128,14,185712:0:0:0:0:
192,192,185510,128,0,185812:0:0:0:0:
62,192,185611,128,6,185712:0:0:0:0:
448,192,185712,128,0,185812:0:0:0:0:
320,192,185812,1,6,0:0:0:0:
64,192,185812,128,0,186215:0:0:0:0:
320,192,186014,1,0,0:0:0:0:
192,192,186215,128,0,186618:0:0:0:0:
320,192,186416,1,0,0:0:0:0:
448,192,186618,128,0,187020:0:0:0:0:
320,192,186718,1,0,0:0:0:0:
192,192,186819,1,0,0:0:0:0:
64,192,186920,1,0,0:0:0:0:
320,192,187020,128,0,187423:0:0:0:0:
192,192,187121,1,0,0:0:0:0:
64,192,187222,1,0,0:0:0:0:
448,192,187322,1,0,0:0:0:0:
64,192,187423,128,0,187826:0:0:0:0:
192,192,187524,1,0,0:0:0:0:
320,192,187624,1,0,0:0:0:0:
448,192,187725,1,0,0:0:0:0:
320,192,187826,128,0,188229:0:0:0:0:
448,192,187926,1,0,0:0:0:0:
64,192,188027,1,0,0:0:0:0:
192,192,188128,1,0,0:0:0:0:
448,192,188229,128,0,188631:0:0:0:0:
320,192,188329,1,0,0:0:0:0:
192,192,188430,1,0,0:0:0:0:
64,192,188531,1,0,0:0:0:0:
192,192,188631,128,0,189034:0:0:0:0:
320,192,188732,1,0,0:0:0:0:
448,192,188833,1,0,0:0:0:0:
320,192,188933,1,0,0:0:0:0:
448,192,189034,1,4,0:1:0:0:
64,192,189034,128,0,189437:0:0:0:0:
320,192,189034,1,0,0:0:0:0:
192,192,189135,1,0,0:0:0:0:
320,192,189235,1,0,0:0:0:0:
448,192,189336,1,0,0:0:0:0:
192,192,189437,128,0,189839:0:0:0:0:
64,192,189537,1,0,0:0:0:0:
448,192,189638,1,0,0:0:0:0:
320,192,189739,1,0,0:0:0:0:
448,192,189839,128,0,190242:0:0:0:0:
320,192,189940,1,0,0:0:0:0:
192,192,190041,1,0,0:0:0:0:
64,192,190141,1,0,0:0:0:0:
320,192,190242,128,0,190645:0:0:0:0:
192,192,190343,1,0,0:0:0:0:
64,192,190443,1,0,0:0:0:0:
448,192,190544,1,0,0:0:0:0:
64,192,190645,128,0,191047:0:0:0:0:
192,192,190745,1,0,0:0:0:0:
320,192,190846,1,0,0:0:0:0:
448,192,190947,1,0,0:0:0:0:
320,192,191047,128,0,191450:0:0:0:0:
192,192,191148,1,0,0:0:0:0:
448,192,191249,1,0,0:0:0:0:
64,192,191349,1,0,0:0:0:0:
448,192,191450,128,0,191853:0:0:0:0:
320,192,191551,1,0,0:0:0:0:
192,192,191651,1,0,0:0:0:0:
64,192,191752,1,0,0:0:0:0:
192,192,191853,128,0,192255:0:0:0:0:
448,192,191953,1,0,0:0:0:0:
64,192,192054,1,0,0:0:0:0:
320,192,192155,1,0,0:0:0:0:
64,192,192255,128,0,192658:0:0:0:0:
192,192,192356,1,0,0:0:0:0:
320,192,192457,1,0,0:0:0:0:
448,192,192557,1,0,0:0:0:0:
192,192,192658,128,0,193061:0:0:0:0:
320,192,192759,1,0,0:0:0:0:
448,192,192859,1,0,0:0:0:0:
320,192,192960,1,0,0:0:0:0:
448,192,193061,128,0,193463:0:0:0:0:
320,192,193161,1,0,0:0:0:0:
64,192,193262,1,0,0:0:0:0:
192,192,193363,1,0,0:0:0:0:
320,192,193463,128,0,193866:0:0:0:0:
192,192,193564,1,0,0:0:0:0:
64,192,193665,1,0,0:0:0:0:
448,192,193765,1,0,0:0:0:0:
64,192,193866,128,0,194269:0:0:0:0:
192,192,193967,1,0,0:0:0:0:
320,192,194067,1,0,0:0:0:0:
448,192,194168,1,0,0:0:0:0:
192,192,194269,128,0,194671:0:0:0:0:
64,192,194369,1,0,0:0:0:0:
448,192,194470,1,0,0:0:0:0:
320,192,194571,1,0,0:0:0:0:
448,192,194671,128,0,195074:0:0:0:0:
320,192,194772,1,0,0:0:0:0:
192,192,194873,1,0,0:0:0:0:
64,192,194973,1,0,0:0:0:0:
320,192,195074,128,0,195477:0:0:0:0:
192,192,195175,1,0,0:0:0:0:
64,192,195275,1,0,0:0:0:0:
448,192,195376,1,0,0:0:0:0:
64,192,195477,128,0,195880:0:0:0:0:
192,192,195577,1,0,0:0:0:0:
320,192,195678,1,0,0:0:0:0:
448,192,195779,1,0,0:0:0:0:
320,192,195880,128,0,196282:0:0:0:0:
192,192,195980,1,0,0:0:0:0:
448,192,196081,1,0,0:0:0:0:
64,192,196182,1,0,0:0:0:0:
448,192,196282,128,0,196685:0:0:0:0:
320,192,196383,1,0,0:0:0:0:
192,192,196484,1,0,0:0:0:0:
64,192,196584,1,0,0:0:0:0:
192,192,196685,128,0,197088:0:0:0:0:
448,192,196786,1,0,0:0:0:0:
64,192,196886,1,0,0:0:0:0:
320,192,196987,1,0,0:0:0:0:
64,192,197088,128,0,197490:0:0:0:0:
192,192,197188,1,0,0:0:0:0:
320,192,197289,1,0,0:0:0:0:
448,192,197390,1,0,0:0:0:0:
192,192,197490,128,0,197893:0:0:0:0:
320,192,197591,1,0,0:0:0:0:
448,192,197692,1,0,0:0:0:0:
320,192,197792,1,0,0:0:0:0:
448,192,197893,128,0,198296:0:0:0:0:
192,192,198094,1,0,0:0:0:0:
320,192,198296,128,0,198698:0:0:0:0:
64,192,198497,1,0,0:0:0:0:
192,192,198698,128,0,199101:0:0:0:0:
448,192,198900,1,0,0:0:0:0:
64,192,199101,128,0,199504:0:0:0:0:
320,192,199302,1,0,0:0:0:0:
448,192,199504,128,0,199906:0:0:0:0:
192,192,199705,1,0,0:0:0:0:
320,192,199906,128,0,200309:0:0:0:0:
64,192,200108,1,0,0:0:0:0:
192,192,200309,128,0,200712:0:0:0:0:
448,192,200510,1,0,0:0:0:0:
64,192,200712,128,0,201114:0:0:0:0:
320,192,200913,1,0,0:0:0:0:
448,192,201114,128,0,201517:0:0:0:0:
192,192,201316,1,0,0:0:0:0:
320,192,201517,128,0,201920:0:0:0:0:
192,192,201920,128,0,202322:0:0:0:0:
64,192,202121,1,0,0:0:0:0:
320,192,202322,128,0,202725:0:0:0:0:
192,192,202524,1,0,0:0:0:0:
448,192,202725,128,0,203128:0:0:0:0:
320,192,202926,1,0,0:0:0:0:
64,192,203128,128,0,203531:0:0:0:0:
448,192,203329,1,0,0:0:0:0:
192,192,203531,128,0,203933:0:0:0:0:
64,192,203732,1,0,0:0:0:0:
320,192,203933,128,0,204336:0:0:0:0:
192,192,204135,1,0,0:0:0:0:
64,192,204336,128,0,204739:0:0:0:0:
320,192,204537,1,0,0:0:0:0:
448,192,204739,128,0,205141:0:0:0:0:
192,192,204940,1,0,0:0:0:0:
