osu file format v12

[General]
AudioFilename: HHHHHHH.mp3
AudioLeadIn: 2007
PreviewTime: 66500
Countdown: 0
SampleSet: Normal
StackLeniency: 0.7
Mode: 1
LetterboxInBreaks: 0
WidescreenStoryboard: 0

[Editor]
Bookmarks: 16688,58784,66516,81121,94866,102598,117203,130090,148131,162746
DistanceSpacing: 0.5
BeatDivisor: 4
GridSize: 8

[Metadata]
Title:Follow Tomorrow (for future mix)
TitleUnicode:Follow Tomorrow (for future mix)
Artist:HHHxMMxST
ArtistUnicode:HHHxMMxST
Creator:Uchiha_sorayuki
Version:Oni
Source:Beatmania IIDX 19 Lincle
Tags:exit tunes glitter mayumi morinaga Konami Ryu☆ Starving Trancer
BeatmapID:280739
BeatmapSetID:107077

[Difficulty]
HPDrainRate:5
CircleSize:4
OverallDifficulty:5
ApproachRate:4
SliderMultiplier:1.4
SliderTickRate:1

[Events]
//Background and Video events
0,0,"bg_p.jpg",0,0
//Break Periods
//Storyboard Layer 0 (Background)
//Storyboard Layer 1 (Fail)
//Storyboard Layer 2 (Pass)
//Storyboard Layer 3 (Foreground)
//Storyboard Sound Samples
//Background Colour Transformations
3,100,163,162,255

[TimingPoints]
365,429.553264604811,4,1,0,82,1,0
8956,-100,4,1,0,87,0,0
16688,-100,4,1,0,95,0,0
45038,-100,4,1,0,87,0,0
57925,-100,4,1,0,91,0,0
66516,-100,4,1,0,95,0,1
80261,-100,4,1,0,87,0,0
94007,-100,4,1,0,91,0,0
102598,-100,4,1,0,95,0,1
116344,-100,4,1,0,82,0,0
130069,-100,4,1,0,87,0,0
144136,-66.6666666666667,4,1,0,87,0,0
148142,429.553264604811,4,1,0,82,1,0
148142,-100,4,1,0,95,0,1
175633,-100,4,1,0,82,0,0

[HitObjects]
256,192,1224,1,0,0:0:0:0:
256,192,1546,1,0,0:0:0:0:
256,192,1868,1,0,0:0:0:0:
336,112,2083,1,0,0:0:0:0:
256,192,2942,1,0,0:0:0:0:
256,192,3264,1,0,0:0:0:0:
256,192,3586,1,0,0:0:0:0:
256,192,3801,1,8,0:0:0:0:
256,192,4123,1,8,0:0:0:0:
256,192,4445,1,0,0:0:0:0:
256,192,4660,1,8,0:0:0:0:
256,192,4982,1,8,0:0:0:0:
256,192,5304,1,8,0:0:0:0:
256,192,5519,1,0,0:0:0:0:
256,192,6378,1,0,0:0:0:0:
256,192,6700,1,0,0:0:0:0:
256,192,7023,1,0,0:0:0:0:
256,192,7237,1,8,0:0:0:0:
256,192,7452,1,0,0:0:0:0:
256,192,7560,1,8,0:0:0:0:
256,192,7667,1,8,0:0:0:0:
256,192,7882,1,8,0:0:0:0:
256,192,8096,1,4,0:0:0:0:
256,192,8419,1,0,0:0:0:0:
256,192,8741,1,8,0:0:0:0:
256,192,8956,1,0,0:0:0:0:
256,192,9385,1,8,0:0:0:0:
256,192,9815,1,0,0:0:0:0:
256,192,10137,1,0,0:0:0:0:
256,192,10459,1,8,0:0:0:0:
256,192,10674,1,0,0:0:0:0:
256,192,10996,1,8,0:0:0:0:
256,192,11318,1,8,0:0:0:0:
256,192,11533,1,0,0:0:0:0:
256,192,11855,1,0,0:0:0:0:
256,192,12177,1,8,0:0:0:0:
256,192,12392,1,0,0:0:0:0:
256,192,12822,1,8,0:0:0:0:
256,192,13251,1,0,0:0:0:0:
256,192,13573,1,0,0:0:0:0:
256,192,13681,1,8,0:0:0:0:
256,192,13895,1,0,0:0:0:0:
256,192,14110,1,0,0:0:0:0:
256,192,14218,1,0,0:0:0:0:
256,192,14325,1,8,0:0:0:0:
256,192,14540,1,8,0:0:0:0:
256,192,14647,1,0,0:0:0:0:
256,192,14755,1,0,0:0:0:0:
256,192,14862,1,0,0:0:0:0:
256,192,14969,1,0,0:0:0:0:
256,192,15828,1,0,0:0:0:0:
256,192,16043,1,0,0:0:0:0:
256,192,16258,1,0,0:0:0:0:
256,192,16365,1,0,0:0:0:0:
256,192,16473,1,0,0:0:0:0:
256,192,16688,1,4,0:0:0:0:
256,192,16902,1,0,0:0:0:0:
256,192,17010,1,0,0:0:0:0:
256,192,17117,1,8,0:0:0:0:
256,192,17547,1,0,0:0:0:0:
256,192,17761,1,0,0:0:0:0:
256,192,17869,1,8,0:0:0:0:
256,192,18084,1,0,0:0:0:0:
256,192,18191,1,0,0:0:0:0:
256,192,18406,1,0,0:0:0:0:
256,192,18621,1,0,0:0:0:0:
256,192,18728,1,0,0:0:0:0:
256,192,18835,1,8,0:0:0:0:
256,192,19265,1,0,0:0:0:0:
256,192,19480,1,8,0:0:0:0:
256,192,19587,1,0,0:0:0:0:
256,192,19802,1,0,0:0:0:0:
256,192,19909,1,8,0:0:0:0:
256,192,20124,1,0,0:0:0:0:
256,192,20339,1,0,0:0:0:0:
256,192,20446,1,8,0:0:0:0:
256,192,20554,1,8,0:0:0:0:
256,192,20768,1,0,0:0:0:0:
256,192,20983,1,0,0:0:0:0:
256,192,21198,1,0,0:0:0:0:
256,192,21305,1,8,0:0:0:0:
256,192,21627,1,8,0:0:0:0:
256,192,21842,1,0,0:0:0:0:
256,192,22164,1,0,0:0:0:0:
256,192,22486,1,8,0:0:0:0:
256,192,22701,1,0,0:0:0:0:
256,192,22809,1,0,0:0:0:0:
256,192,22916,1,8,0:0:0:0:
256,192,23131,1,8,0:0:0:0:
256,192,23238,1,0,0:0:0:0:
256,192,23346,1,0,0:0:0:0:
256,192,23453,1,0,0:0:0:0:
256,192,23560,1,0,0:0:0:0:
256,192,23775,1,0,0:0:0:0:
256,192,23883,1,0,0:0:0:0:
256,192,23990,1,8,0:0:0:0:
256,192,24419,1,0,0:0:0:0:
256,192,24634,1,0,0:0:0:0:
256,192,24742,1,8,0:0:0:0:
256,192,24956,1,0,0:0:0:0:
256,192,25064,1,0,0:0:0:0:
256,192,25279,1,0,0:0:0:0:
256,192,25493,1,0,0:0:0:0:
256,192,25601,1,0,0:0:0:0:
256,192,25708,1,8,0:0:0:0:
256,192,26138,1,0,0:0:0:0:
256,192,26352,1,8,0:0:0:0:
256,192,26460,1,0,0:0:0:0:
256,192,26675,1,0,0:0:0:0:
256,192,26782,1,8,0:0:0:0:
256,192,26997,1,0,0:0:0:0:
256,192,27212,1,0,0:0:0:0:
256,192,27319,1,8,0:0:0:0:
256,192,27426,1,8,0:0:0:0:
256,192,27641,1,0,0:0:0:0:
256,192,27749,1,0,0:0:0:0:
256,192,27856,1,0,0:0:0:0:
256,192,28071,1,0,0:0:0:0:
256,192,28178,1,8,0:0:0:0:
256,192,28500,1,8,0:0:0:0:
256,192,28715,1,4,0:0:0:0:
256,192,29037,1,4,0:0:0:0:
256,192,29359,1,4,0:0:0:0:
256,192,29574,1,0,0:0:0:0:
256,192,29682,1,0,0:0:0:0:
256,192,29789,1,8,0:0:0:0:
256,192,30004,1,8,0:0:0:0:
256,192,30111,1,0,0:0:0:0:
256,192,30218,1,8,0:0:0:0:
256,192,30326,1,8,0:0:0:0:
256,192,30433,1,0,0:0:0:0:
256,192,30863,1,0,0:0:0:0:
256,192,30970,1,0,0:0:0:0:
256,192,31078,1,0,0:0:0:0:
256,192,31292,1,0,0:0:0:0:
256,192,31507,1,0,0:0:0:0:
256,192,31615,1,8,0:0:0:0:
256,192,31937,1,8,0:0:0:0:
256,192,32151,1,0,0:0:0:0:
256,192,32581,1,0,0:0:0:0:
256,192,32688,1,0,0:0:0:0:
256,192,32796,1,0,0:0:0:0:
256,192,33011,1,8,0:0:0:0:
256,192,33225,1,8,0:0:0:0:
256,192,33333,1,8,0:0:0:0:
256,192,33655,1,8,0:0:0:0:
256,192,33870,1,0,0:0:0:0:
256,192,34299,1,0,0:0:0:0:
256,192,34407,1,0,0:0:0:0:
256,192,34514,1,0,0:0:0:0:
256,192,34729,1,8,0:0:0:0:
256,192,34944,1,0,0:0:0:0:
256,192,35051,1,8,0:0:0:0:
256,192,35373,1,8,0:0:0:0:
256,192,35588,1,0,0:0:0:0:
256,192,35910,1,0,0:0:0:0:
256,192,36232,1,0,0:0:0:0:
256,192,36447,1,8,0:0:0:0:
256,192,36662,1,0,0:0:0:0:
256,192,36877,1,8,0:0:0:0:
256,192,36984,1,8,0:0:0:0:
256,192,37091,1,8,0:0:0:0:
256,192,37199,1,0,0:0:0:0:
256,192,37306,1,0,0:0:0:0:
256,192,37736,1,0,0:0:0:0:
256,192,37843,1,0,0:0:0:0:
256,192,37950,1,0,0:0:0:0:
256,192,38165,1,8,0:0:0:0:
256,192,38380,1,0,0:0:0:0:
256,192,38487,1,8,0:0:0:0:
256,192,38810,1,8,0:0:0:0:
256,192,39024,1,0,0:0:0:0:
256,192,39454,1,0,0:0:0:0:
256,192,39561,1,0,0:0:0:0:
256,192,39669,1,0,0:0:0:0:
256,192,39883,1,8,0:0:0:0:
256,192,40098,1,8,0:0:0:0:
256,192,40206,1,0,0:0:0:0:
256,192,40528,1,8,0:0:0:0:
256,192,40743,1,0,0:0:0:0:
256,192,40957,1,0,0:0:0:0:
256,192,41065,1,0,0:0:0:0:
256,192,41172,1,8,0:0:0:0:
256,192,41602,1,0,0:0:0:0:
256,192,41816,1,0,0:0:0:0:
256,192,41924,1,8,0:0:0:0:
256,192,42031,1,8,0:0:0:0:
256,192,42461,1,4,0:0:0:0:
256,192,42783,1,4,0:0:0:0:
256,192,43105,1,0,0:0:0:0:
256,192,43320,1,0,0:0:0:0:
256,192,43535,1,0,0:0:0:0:
256,192,43749,1,8,0:0:0:0:
256,192,43857,1,8,0:0:0:0:
256,192,43964,1,8,0:0:0:0:
256,192,44072,1,0,0:0:0:0:
256,192,44179,1,0,0:0:0:0:
256,192,44608,1,0,0:0:0:0:
256,192,44823,1,0,0:0:0:0:
256,192,44931,1,0,0:0:0:0:
256,192,45038,1,0,0:0:0:0:
256,192,45253,1,0,0:0:0:0:
256,192,45360,1,8,0:0:0:0:
256,192,45682,1,0,0:0:0:0:
256,192,45897,1,8,0:0:0:0:
256,192,46112,1,8,0:0:0:0:
256,192,46327,1,0,0:0:0:0:
256,192,46541,1,8,0:0:0:0:
256,192,46649,1,0,0:0:0:0:
256,192,46756,1,0,0:0:0:0:
256,192,46971,1,0,0:0:0:0:
256,192,47078,1,8,0:0:0:0:
256,192,47293,1,8,0:0:0:0:
256,192,47401,1,0,0:0:0:0:
256,192,47830,1,0,0:0:0:0:
256,192,47938,1,0,0:0:0:0:
256,192,48045,1,8,0:0:0:0:
256,192,48260,1,8,0:0:0:0:
256,192,48474,1,0,0:0:0:0:
256,192,48689,1,0,0:0:0:0:
256,192,48797,1,8,0:0:0:0:
256,192,49119,1,0,0:0:0:0:
256,192,49334,1,8,0:0:0:0:
256,192,49548,1,8,0:0:0:0:
256,192,49763,1,0,0:0:0:0:
256,192,49978,1,0,0:0:0:0:
256,192,50085,1,8,0:0:0:0:
256,192,50193,1,8,0:0:0:0:
256,192,50407,1,0,0:0:0:0:
256,192,50515,1,8,0:0:0:0:
256,192,50730,1,0,0:0:0:0:
256,192,50837,1,8,0:0:0:0:
256,192,51267,1,0,0:0:0:0:
256,192,51374,1,0,0:0:0:0:
256,192,51481,1,8,0:0:0:0:
256,192,51696,1,8,0:0:0:0:
256,192,51911,1,0,0:0:0:0:
256,192,52126,1,0,0:0:0:0:
256,192,52233,1,0,0:0:0:0:
256,192,52555,1,0,0:0:0:0:
256,192,52770,1,8,0:0:0:0:
256,192,52985,1,0,0:0:0:0:
256,192,53200,1,8,0:0:0:0:
256,192,53414,1,0,0:0:0:0:
256,192,53522,1,8,0:0:0:0:
256,192,53629,1,8,0:0:0:0:
256,192,53844,1,0,0:0:0:0:
256,192,53951,1,8,0:0:0:0:
256,192,54166,1,0,0:0:0:0:
256,192,54273,1,0,0:0:0:0:
256,192,54703,1,0,0:0:0:0:
256,192,54810,1,0,0:0:0:0:
256,192,54918,1,8,0:0:0:0:
256,192,55133,1,8,0:0:0:0:
256,192,55347,1,0,0:0:0:0:
256,192,55562,1,0,0:0:0:0:
256,192,55669,1,0,0:0:0:0:
256,192,55777,1,8,0:0:0:0:
256,192,55992,1,0,0:0:0:0:
256,192,56206,1,8,0:0:0:0:
256,192,56421,1,0,0:0:0:0:
256,192,56529,1,0,0:0:0:0:
256,192,56636,1,8,0:0:0:0:
256,192,56851,1,0,0:0:0:0:
256,192,56958,1,0,0:0:0:0:
256,192,57066,1,8,0:0:0:0:
256,192,57280,1,0,0:0:0:0:
256,192,57495,1,8,0:0:0:0:
256,192,57602,1,8,0:0:0:0:
256,192,57710,1,0,0:0:0:0:
256,192,57817,1,0,0:0:0:0:
256,192,57925,1,0,0:0:0:0:
256,192,58247,1,8,0:0:0:0:
256,192,58569,1,8,0:0:0:0:
256,192,58784,1,0,0:0:0:0:
256,192,59213,1,8,0:0:0:0:
256,192,59428,1,8,0:0:0:0:
256,192,59643,1,0,0:0:0:0:
256,192,59858,1,0,0:0:0:0:
256,192,60072,1,8,0:0:0:0:
256,192,60287,1,0,0:0:0:0:
256,192,60395,1,0,0:0:0:0:
256,192,60502,1,8,0:0:0:0:
256,192,60717,1,8,0:0:0:0:
256,192,60824,1,8,0:0:0:0:
256,192,61146,1,0,0:0:0:0:
256,192,61254,1,8,0:0:0:0:
256,192,61361,1,0,0:0:0:0:
256,192,61791,1,4,0:0:0:0:
256,192,62220,1,12,0:0:0:0:
256,192,62650,1,4,0:0:0:0:
256,192,63079,1,12,0:0:0:0:
256,192,63509,1,0,0:0:0:0:
256,192,63616,1,0,0:0:0:0:
256,192,63724,1,8,0:0:0:0:
256,192,63938,1,8,0:0:0:0:
256,192,64261,1,8,0:0:0:0:
256,192,64583,1,0,0:0:0:0:
256,192,64797,1,8,0:0:0:0:
256,192,65012,1,0,0:0:0:0:
256,192,65120,1,0,0:0:0:0:
256,192,65227,1,8,0:0:0:0:
256,192,65442,1,8,0:0:0:0:
256,192,65657,1,12,0:0:0:0:
256,192,66516,1,4,0:0:0:0:
256,192,66730,1,0,0:0:0:0:
256,192,66838,1,0,0:0:0:0:
256,192,66945,1,8,0:0:0:0:
256,192,67375,1,0,0:0:0:0:
256,192,67590,1,0,0:0:0:0:
256,192,67697,1,8,0:0:0:0:
256,192,67912,1,0,0:0:0:0:
256,192,68019,1,0,0:0:0:0:
256,192,68234,1,0,0:0:0:0:
256,192,68449,1,0,0:0:0:0:
256,192,68556,1,0,0:0:0:0:
256,192,68663,1,8,0:0:0:0:
256,192,69093,1,0,0:0:0:0:
256,192,69308,1,8,0:0:0:0:
256,192,69415,1,0,0:0:0:0:
256,192,69630,1,0,0:0:0:0:
256,192,69737,1,8,0:0:0:0:
256,192,69952,1,0,0:0:0:0:
256,192,70167,1,0,0:0:0:0:
256,192,70274,1,8,0:0:0:0:
256,192,70382,1,8,0:0:0:0:
256,192,70596,1,0,0:0:0:0:
256,192,70811,1,0,0:0:0:0:
256,192,71026,1,0,0:0:0:0:
256,192,71133,1,8,0:0:0:0:
256,192,71456,1,8,0:0:0:0:
256,192,71670,1,0,0:0:0:0:
256,192,71993,1,0,0:0:0:0:
256,192,72315,1,8,0:0:0:0:
256,192,72529,1,0,0:0:0:0:
256,192,72637,1,0,0:0:0:0:
256,192,72744,1,8,0:0:0:0:
256,192,72959,1,8,0:0:0:0:
256,192,73066,1,0,0:0:0:0:
256,192,73174,1,0,0:0:0:0:
256,192,73281,1,0,0:0:0:0:
256,192,73389,1,0,0:0:0:0:
256,192,73603,1,0,0:0:0:0:
256,192,73711,1,0,0:0:0:0:
256,192,73818,1,8,0:0:0:0:
256,192,74248,1,0,0:0:0:0:
256,192,74462,1,0,0:0:0:0:
256,192,74570,1,8,0:0:0:0:
256,192,74785,1,0,0:0:0:0:
256,192,74892,1,0,0:0:0:0:
256,192,75107,1,0,0:0:0:0:
256,192,75322,1,0,0:0:0:0:
256,192,75429,1,0,0:0:0:0:
256,192,75536,1,8,0:0:0:0:
256,192,75966,1,0,0:0:0:0:
256,192,76181,1,8,0:0:0:0:
256,192,76288,1,8,0:0:0:0:
256,192,76503,1,8,0:0:0:0:
256,192,76610,1,0,0:0:0:0:
256,192,76825,1,0,0:0:0:0:
256,192,77040,1,0,0:0:0:0:
256,192,77147,1,8,0:0:0:0:
256,192,77255,1,8,0:0:0:0:
256,192,77469,1,0,0:0:0:0:
256,192,77577,1,0,0:0:0:0:
256,192,77684,1,0,0:0:0:0:
256,192,77899,1,0,0:0:0:0:
256,192,78006,1,8,0:0:0:0:
256,192,78328,1,8,0:0:0:0:
256,192,78543,1,0,0:0:0:0:
256,192,78865,1,4,0:0:0:0:
256,192,79188,1,4,0:0:0:0:
256,192,79402,1,0,0:0:0:0:
256,192,79510,1,0,0:0:0:0:
256,192,79617,1,8,0:0:0:0:
256,192,79832,1,8,0:0:0:0:
256,192,79939,1,0,0:0:0:0:
256,192,80047,1,8,0:0:0:0:
256,192,80154,1,8,0:0:0:0:
256,192,80261,1,0,0:0:0:0:
256,192,80691,1,0,0:0:0:0:
256,192,80906,1,0,0:0:0:0:
256,192,81013,1,0,0:0:0:0:
256,192,81121,1,0,0:0:0:0:
256,192,81335,1,0,0:0:0:0:
256,192,81443,1,8,0:0:0:0:
256,192,81765,1,0,0:0:0:0:
256,192,81980,1,8,0:0:0:0:
256,192,82194,1,0,0:0:0:0:
256,192,82409,1,0,0:0:0:0:
256,192,82624,1,8,0:0:0:0:
256,192,82731,1,0,0:0:0:0:
256,192,82839,1,0,0:0:0:0:
256,192,83054,1,0,0:0:0:0:
256,192,83161,1,8,0:0:0:0:
256,192,83376,1,8,0:0:0:0:
256,192,83483,1,0,0:0:0:0:
256,192,83913,1,0,0:0:0:0:
256,192,84020,1,8,0:0:0:0:
256,192,84127,1,8,0:0:0:0:
256,192,84342,1,8,0:0:0:0:
256,192,84557,1,0,0:0:0:0:
256,192,84772,1,0,0:0:0:0:
256,192,84879,1,8,0:0:0:0:
256,192,85201,1,0,0:0:0:0:
256,192,85416,1,8,0:0:0:0:
256,192,85631,1,8,0:0:0:0:
256,192,85846,1,0,0:0:0:0:
256,192,86060,1,0,0:0:0:0:
256,192,86168,1,0,0:0:0:0:
256,192,86275,1,8,0:0:0:0:
256,192,86490,1,0,0:0:0:0:
256,192,86597,1,8,0:0:0:0:
256,192,86812,1,0,0:0:0:0:
256,192,86919,1,8,0:0:0:0:
256,192,87349,1,0,0:0:0:0:
256,192,87456,1,0,0:0:0:0:
256,192,87564,1,8,0:0:0:0:
256,192,87779,1,8,0:0:0:0:
256,192,87993,1,0,0:0:0:0:
256,192,88208,1,0,0:0:0:0:
256,192,88316,1,8,0:0:0:0:
256,192,88638,1,0,0:0:0:0:
256,192,88852,1,8,0:0:0:0:
256,192,89067,1,0,0:0:0:0:
256,192,89282,1,0,0:0:0:0:
256,192,89497,1,0,0:0:0:0:
256,192,89604,1,0,0:0:0:0:
256,192,89712,1,8,0:0:0:0:
256,192,89926,1,0,0:0:0:0:
256,192,90034,1,8,0:0:0:0:
256,192,90249,1,0,0:0:0:0:
256,192,90356,1,0,0:0:0:0:
256,192,90785,1,0,0:0:0:0:
256,192,90893,1,0,0:0:0:0:
256,192,91000,1,8,0:0:0:0:
256,192,91215,1,8,0:0:0:0:
256,192,91430,1,8,0:0:0:0:
256,192,91537,1,0,0:0:0:0:
256,192,91645,1,0,0:0:0:0:
256,192,91859,1,0,0:0:0:0:
256,192,91967,1,0,0:0:0:0:
256,192,92074,1,0,0:0:0:0:
256,192,92289,1,8,0:0:0:0:
256,192,92504,1,0,0:0:0:0:
256,192,92611,1,0,0:0:0:0:
256,192,92718,1,8,0:0:0:0:
256,192,92933,1,0,0:0:0:0:
256,192,93041,1,0,0:0:0:0:
256,192,93148,1,8,0:0:0:0:
256,192,93363,1,0,0:0:0:0:
256,192,93578,1,8,0:0:0:0:
256,192,93685,1,8,0:0:0:0:
256,192,93792,1,0,0:0:0:0:
256,192,93900,1,0,0:0:0:0:
256,192,94007,1,0,0:0:0:0:
256,192,94329,1,8,0:0:0:0:
256,192,94651,1,8,0:0:0:0:
256,192,94866,1,0,0:0:0:0:
256,192,95296,1,8,0:0:0:0:
256,192,95511,1,8,0:0:0:0:
256,192,95725,1,0,0:0:0:0:
256,192,95940,1,8,0:0:0:0:
256,192,96155,1,8,0:0:0:0:
256,192,96370,1,0,0:0:0:0:
256,192,96477,1,0,0:0:0:0:
256,192,96584,1,8,0:0:0:0:
256,192,96799,1,8,0:0:0:0:
256,192,96907,1,8,0:0:0:0:
256,192,97229,1,0,0:0:0:0:
256,192,97336,1,8,0:0:0:0:
256,192,97444,1,0,0:0:0:0:
256,192,97873,1,4,0:0:0:0:
256,192,98303,1,12,0:0:0:0:
256,192,98732,1,4,0:0:0:0:
256,192,99162,1,12,0:0:0:0:
256,192,99591,1,0,0:0:0:0:
256,192,99699,1,0,0:0:0:0:
256,192,99806,1,8,0:0:0:0:
256,192,100021,1,8,0:0:0:0:
256,192,100343,1,8,0:0:0:0:
256,192,100665,1,0,0:0:0:0:
256,192,100880,1,8,0:0:0:0:
256,192,101095,1,0,0:0:0:0:
256,192,101202,1,8,0:0:0:0:
256,192,101310,1,8,0:0:0:0:
256,192,101524,1,8,0:0:0:0:
256,192,101739,1,12,0:0:0:0:
256,192,102598,1,4,0:0:0:0:
256,192,102813,1,8,0:0:0:0:
256,192,102920,1,0,0:0:0:0:
256,192,103028,1,0,0:0:0:0:
256,192,103457,1,0,0:0:0:0:
256,192,103672,1,0,0:0:0:0:
256,192,103779,1,8,0:0:0:0:
256,192,103994,1,8,0:0:0:0:
256,192,104102,1,0,0:0:0:0:
256,192,104316,1,0,0:0:0:0:
256,192,104531,1,8,0:0:0:0:
256,192,104639,1,0,0:0:0:0:
256,192,104746,1,0,0:0:0:0:
256,192,105175,1,0,0:0:0:0:
256,192,105390,1,8,0:0:0:0:
256,192,105498,1,8,0:0:0:0:
256,192,105712,1,8,0:0:0:0:
256,192,105820,1,0,0:0:0:0:
256,192,106035,1,0,0:0:0:0:
256,192,106249,1,8,0:0:0:0:
256,192,106357,1,8,0:0:0:0:
256,192,106464,1,0,0:0:0:0:
256,192,106679,1,0,0:0:0:0:
256,192,106894,1,0,0:0:0:0:
256,192,107108,1,8,0:0:0:0:
256,192,107216,1,0,0:0:0:0:
256,192,107538,1,8,0:0:0:0:
256,192,107753,1,0,0:0:0:0:
256,192,108075,1,0,0:0:0:0:
256,192,108397,1,8,0:0:0:0:
256,192,108612,1,0,0:0:0:0:
256,192,108719,1,0,0:0:0:0:
256,192,108827,1,8,0:0:0:0:
256,192,109041,1,8,0:0:0:0:
256,192,109149,1,0,0:0:0:0:
256,192,109256,1,8,0:0:0:0:
256,192,109364,1,0,0:0:0:0:
256,192,109471,1,0,0:0:0:0:
256,192,109686,1,8,0:0:0:0:
256,192,109793,1,0,0:0:0:0:
256,192,109901,1,0,0:0:0:0:
256,192,110330,1,0,0:0:0:0:
256,192,110545,1,0,0:0:0:0:
256,192,110652,1,8,0:0:0:0:
256,192,110867,1,8,0:0:0:0:
256,192,110974,1,0,0:0:0:0:
256,192,111189,1,0,0:0:0:0:
256,192,111404,1,8,0:0:0:0:
256,192,111511,1,0,0:0:0:0:
256,192,111619,1,0,0:0:0:0:
256,192,112048,1,0,0:0:0:0:
256,192,112263,1,8,0:0:0:0:
256,192,112371,1,8,0:0:0:0:
256,192,112585,1,8,0:0:0:0:
256,192,112693,1,0,0:0:0:0:
256,192,112907,1,0,0:0:0:0:
256,192,113122,1,8,0:0:0:0:
256,192,113230,1,8,0:0:0:0:
256,192,113337,1,0,0:0:0:0:
256,192,113552,1,0,0:0:0:0:
256,192,113767,1,0,0:0:0:0:
256,192,113981,1,0,0:0:0:0:
256,192,114089,1,8,0:0:0:0:
256,192,114411,1,8,0:0:0:0:
256,192,114626,1,0,0:0:0:0:
256,192,114948,1,4,0:0:0:0:
256,192,115270,1,4,0:0:0:0:
256,192,115485,1,0,0:0:0:0:
256,192,115592,1,0,0:0:0:0:
256,192,115700,1,8,0:0:0:0:
256,192,115914,1,8,0:0:0:0:
256,192,116022,1,8,0:0:0:0:
256,192,116129,1,0,0:0:0:0:
256,192,116236,1,8,0:0:0:0:
256,192,116344,1,0,0:0:0:0:
256,192,116773,1,0,0:0:0:0:
256,192,117203,1,0,0:0:0:0:
256,192,117633,1,0,0:0:0:0:
256,192,117847,1,0,0:0:0:0:
256,192,118062,1,0,0:0:0:0:
256,192,118492,1,0,0:0:0:0:
256,192,118921,1,0,0:0:0:0:
256,192,119351,1,0,0:0:0:0:
256,192,119566,1,0,0:0:0:0:
256,192,119780,1,0,0:0:0:0:
256,192,120210,1,0,0:0:0:0:
256,192,120639,1,0,0:0:0:0:
256,192,121069,1,0,0:0:0:0:
256,192,121499,1,0,0:0:0:0:
256,192,121821,1,0,0:0:0:0:
256,192,122143,1,0,0:0:0:0:
256,192,122358,1,0,0:0:0:0:
256,192,122465,1,0,0:0:0:0:
256,192,122572,1,0,0:0:0:0:
256,192,122787,1,0,0:0:0:0:
256,192,123002,1,0,0:0:0:0:
256,192,123217,1,0,0:0:0:0:
256,192,123646,1,0,0:0:0:0:
256,192,123861,1,0,0:0:0:0:
256,192,124076,1,0,0:0:0:0:
256,192,124183,1,0,0:0:0:0:
256,192,124291,1,0,0:0:0:0:
256,192,124505,1,0,0:0:0:0:
256,192,124720,1,8,0:0:0:0:
256,192,124935,1,0,0:0:0:0:
256,192,125365,1,0,0:0:0:0:
256,192,125579,1,0,0:0:0:0:
256,192,125794,1,0,0:0:0:0:
256,192,125901,1,0,0:0:0:0:
256,192,126009,1,8,0:0:0:0:
256,192,126224,1,0,0:0:0:0:
256,192,126438,1,8,0:0:0:0:
256,192,126653,1,0,0:0:0:0:
256,192,127083,1,0,0:0:0:0:
256,192,127512,1,0,0:0:0:0:
256,192,127942,1,0,0:0:0:0:
256,192,128371,1,0,0:0:0:0:
256,192,128586,1,8,0:0:0:0:
256,192,128801,1,8,0:0:0:0:
256,192,129016,1,0,0:0:0:0:
256,192,129230,1,8,0:0:0:0:
256,192,129553,1,8,0:0:0:0:
256,192,129875,1,8,0:0:0:0:
256,192,130090,1,0,0:0:0:0:
256,192,130519,1,0,0:0:0:0:
256,192,130734,1,0,0:0:0:0:
256,192,130949,1,0,0:0:0:0:
256,192,131163,1,0,0:0:0:0:
256,192,131271,1,0,0:0:0:0:
256,192,131593,1,0,0:0:0:0:
256,192,131808,1,8,0:0:0:0:
256,192,132023,1,0,0:0:0:0:
256,192,132237,1,0,0:0:0:0:
256,192,132452,1,0,0:0:0:0:
256,192,132560,1,0,0:0:0:0:
256,192,132667,1,0,0:0:0:0:
256,192,132882,1,0,0:0:0:0:
256,192,132989,1,8,0:0:0:0:
256,192,133204,1,0,0:0:0:0:
256,192,133311,1,0,0:0:0:0:
256,192,133741,1,0,0:0:0:0:
256,192,133848,1,0,0:0:0:0:
256,192,133956,1,8,0:0:0:0:
256,192,134170,1,8,0:0:0:0:
256,192,134385,1,0,0:0:0:0:
256,192,134600,1,0,0:0:0:0:
256,192,134707,1,0,0:0:0:0:
256,192,135029,1,0,0:0:0:0:
256,192,135244,1,8,0:0:0:0:
256,192,135459,1,8,0:0:0:0:
256,192,135674,1,0,0:0:0:0:
256,192,135889,1,0,0:0:0:0:
256,192,135996,1,0,0:0:0:0:
256,192,136103,1,8,0:0:0:0:
256,192,136318,1,0,0:0:0:0:
256,192,136425,1,8,0:0:0:0:
256,192,136640,1,0,0:0:0:0:
256,192,136748,1,8,0:0:0:0:
256,192,137177,1,0,0:0:0:0:
256,192,137285,1,0,0:0:0:0:
256,192,137392,1,8,0:0:0:0:
256,192,137607,1,8,0:0:0:0:
256,192,137822,1,0,0:0:0:0:
256,192,138036,1,0,0:0:0:0:
256,192,138144,1,8,0:0:0:0:
256,192,138466,1,0,0:0:0:0:
256,192,138681,1,8,0:0:0:0:
256,192,138895,1,8,0:0:0:0:
256,192,139110,1,0,0:0:0:0:
256,192,139325,1,0,0:0:0:0:
256,192,139432,1,0,0:0:0:0:
256,192,139540,1,8,0:0:0:0:
256,192,139755,1,0,0:0:0:0:
256,192,139862,1,8,0:0:0:0:
256,192,140077,1,0,0:0:0:0:
256,192,140184,1,0,0:0:0:0:
256,192,140614,1,0,0:0:0:0:
256,192,140721,1,0,0:0:0:0:
256,192,140828,1,8,0:0:0:0:
256,192,141043,1,8,0:0:0:0:
256,192,141258,1,0,0:0:0:0:
256,192,141473,1,0,0:0:0:0:
256,192,141688,1,8,0:0:0:0:
256,192,141795,1,0,0:0:0:0:
256,192,141902,1,0,0:0:0:0:
256,192,142117,1,8,0:0:0:0:
256,192,142332,1,0,0:0:0:0:
256,192,142439,1,0,0:0:0:0:
256,192,142547,1,8,0:0:0:0:
256,192,142761,1,0,0:0:0:0:
256,192,142869,1,0,0:0:0:0:
256,192,142976,1,8,0:0:0:0:
256,192,143191,1,0,0:0:0:0:
256,192,143406,1,8,0:0:0:0:
256,192,143513,1,8,0:0:0:0:
256,192,143621,1,0,0:0:0:0:
256,192,143728,1,0,0:0:0:0:
256,192,143835,1,0,0:0:0:0:
256,192,144157,1,4,0:0:0:0:
256,192,144480,1,4,0:0:0:0:
256,192,144802,1,4,0:0:0:0:
256,192,145124,1,12,0:0:0:0:
256,192,145339,1,12,0:0:0:0:
256,192,145554,12,0,146413,0:0:0:0:
256,192,148142,5,4,0:0:0:0:
256,192,148356,1,8,0:0:0:0:
256,192,148464,1,0,0:0:0:0:
256,192,148571,1,0,0:0:0:0:
256,192,149001,1,0,0:0:0:0:
256,192,149215,1,0,0:0:0:0:
256,192,149323,1,8,0:0:0:0:
256,192,149538,1,0,0:0:0:0:
256,192,149645,1,0,0:0:0:0:
256,192,149860,1,0,0:0:0:0:
256,192,150074,1,8,0:0:0:0:
256,192,150182,1,0,0:0:0:0:
256,192,150289,1,0,0:0:0:0:
256,192,150719,1,0,0:0:0:0:
256,192,150934,1,8,0:0:0:0:
256,192,151041,1,0,0:0:0:0:
256,192,151256,1,0,0:0:0:0:
256,192,151363,1,0,0:0:0:0:
256,192,151578,1,0,0:0:0:0:
256,192,151793,1,8,0:0:0:0:
256,192,151900,1,8,0:0:0:0:
256,192,152007,1,0,0:0:0:0:
256,192,152222,1,0,0:0:0:0:
256,192,152437,1,0,0:0:0:0:
256,192,152652,1,0,0:0:0:0:
256,192,152759,1,8,0:0:0:0:
256,192,153081,1,8,0:0:0:0:
256,192,153296,1,0,0:0:0:0:
256,192,153618,1,0,0:0:0:0:
256,192,153940,1,8,0:0:0:0:
256,192,154155,1,0,0:0:0:0:
256,192,154263,1,0,0:0:0:0:
256,192,154370,1,8,0:0:0:0:
256,192,154585,1,8,0:0:0:0:
256,192,154692,1,0,0:0:0:0:
256,192,154800,1,8,0:0:0:0:
256,192,154907,1,8,0:0:0:0:
256,192,155014,1,0,0:0:0:0:
256,192,155229,1,8,0:0:0:0:
256,192,155337,1,0,0:0:0:0:
256,192,155444,1,0,0:0:0:0:
256,192,155873,1,0,0:0:0:0:
256,192,156088,1,0,0:0:0:0:
256,192,156196,1,8,0:0:0:0:
256,192,156410,1,0,0:0:0:0:
256,192,156518,1,0,0:0:0:0:
256,192,156733,1,0,0:0:0:0:
256,192,156947,1,8,0:0:0:0:
256,192,157055,1,0,0:0:0:0:
256,192,157162,1,0,0:0:0:0:
256,192,157592,1,0,0:0:0:0:
256,192,157806,1,8,0:0:0:0:
256,192,157914,1,0,0:0:0:0:
256,192,158129,1,8,0:0:0:0:
256,192,158236,1,0,0:0:0:0:
256,192,158451,1,0,0:0:0:0:
256,192,158666,1,8,0:0:0:0:
256,192,158773,1,8,0:0:0:0:
256,192,158880,1,0,0:0:0:0:
256,192,159095,1,0,0:0:0:0:
256,192,159202,1,0,0:0:0:0:
256,192,159310,1,0,0:0:0:0:
256,192,159525,1,0,0:0:0:0:
256,192,159632,1,8,0:0:0:0:
256,192,159954,1,8,0:0:0:0:
256,192,160169,1,4,0:0:0:0:
256,192,160491,1,12,0:0:0:0:
256,192,160813,1,0,0:0:0:0:
256,192,161028,1,0,0:0:0:0:
256,192,161135,1,0,0:0:0:0:
256,192,161243,1,8,0:0:0:0:
256,192,161350,1,0,0:0:0:0:
256,192,161458,1,8,0:0:0:0:
256,192,161565,1,8,0:0:0:0:
256,192,161672,1,8,0:0:0:0:
256,192,161780,1,8,0:0:0:0:
256,192,161887,1,0,0:0:0:0:
256,192,162102,1,0,0:0:0:0:
256,192,162209,1,0,0:0:0:0:
256,192,162317,1,0,0:0:0:0:
256,192,162532,1,0,0:0:0:0:
256,192,162746,1,0,0:0:0:0:
256,192,162961,1,0,0:0:0:0:
256,192,163068,1,8,0:0:0:0:
256,192,163283,1,0,0:0:0:0:
256,192,163391,1,0,0:0:0:0:
256,192,163605,1,0,0:0:0:0:
256,192,163820,1,0,0:0:0:0:
256,192,163928,1,0,0:0:0:0:
256,192,164035,1,8,0:0:0:0:
256,192,164465,1,0,0:0:0:0:
256,192,164679,1,8,0:0:0:0:
256,192,164787,1,0,0:0:0:0:
256,192,165001,1,0,0:0:0:0:
256,192,165109,1,8,0:0:0:0:
256,192,165324,1,0,0:0:0:0:
256,192,165538,1,0,0:0:0:0:
256,192,165646,1,0,0:0:0:0:
256,192,165753,1,8,0:0:0:0:
256,192,165968,1,0,0:0:0:0:
256,192,166183,1,0,0:0:0:0:
256,192,166398,1,0,0:0:0:0:
256,192,166505,1,8,0:0:0:0:
256,192,166827,1,8,0:0:0:0:
256,192,167042,1,0,0:0:0:0:
256,192,167364,1,0,0:0:0:0:
256,192,167686,1,8,0:0:0:0:
256,192,167901,1,0,0:0:0:0:
256,192,168008,1,0,0:0:0:0:
256,192,168116,1,8,0:0:0:0:
256,192,168223,1,0,0:0:0:0:
256,192,168331,1,8,0:0:0:0:
256,192,168438,1,8,0:0:0:0:
256,192,168545,1,0,0:0:0:0:
256,192,168653,1,0,0:0:0:0:
256,192,168760,1,0,0:0:0:0:
256,192,168975,1,0,0:0:0:0:
256,192,169082,1,0,0:0:0:0:
256,192,169190,1,8,0:0:0:0:
256,192,169404,1,0,0:0:0:0:
256,192,169619,1,0,0:0:0:0:
256,192,169834,1,0,0:0:0:0:
256,192,169941,1,8,0:0:0:0:
256,192,170156,1,8,0:0:0:0:
256,192,170263,1,0,0:0:0:0:
256,192,170478,1,0,0:0:0:0:
256,192,170693,1,0,0:0:0:0:
256,192,170800,1,0,0:0:0:0:
256,192,170908,1,8,0:0:0:0:
256,192,171337,1,0,0:0:0:0:
256,192,171552,1,8,0:0:0:0:
256,192,171660,1,0,0:0:0:0:
256,192,171874,1,0,0:0:0:0:
256,192,171982,1,8,0:0:0:0:
256,192,172196,1,0,0:0:0:0:
256,192,172411,1,0,0:0:0:0:
256,192,172519,1,8,0:0:0:0:
256,192,172626,1,8,0:0:0:0:
256,192,172841,1,0,0:0:0:0:
256,192,173056,1,0,0:0:0:0:
256,192,173270,1,0,0:0:0:0:
256,192,173378,1,8,0:0:0:0:
256,192,173700,1,8,0:0:0:0:
256,192,173915,1,0,0:0:0:0:
256,192,174237,1,4,0:0:0:0:
256,192,174559,1,4,0:0:0:0:
256,192,174774,1,0,0:0:0:0:
256,192,174881,1,0,0:0:0:0:
256,192,174989,1,8,0:0:0:0:
256,192,175203,1,8,0:0:0:0:
256,192,175311,1,0,0:0:0:0:
256,192,175418,1,8,0:0:0:0:
256,192,175526,1,8,0:0:0:0:
256,192,175633,1,0,0:0:0:0:
