osu file format v12

[General]
AudioFilename: HHHHHHH.mp3
AudioLeadIn: 2007
PreviewTime: 66500
Countdown: 0
SampleSet: Normal
StackLeniency: 0.7
Mode: 1
LetterboxInBreaks: 0
WidescreenStoryboard: 0

[Editor]
Bookmarks: 16688,45038,58784,66516,81121,94866,102598,117203,130090,148142,162713
DistanceSpacing: 0.5
BeatDivisor: 4
GridSize: 8

[Metadata]
Title:Follow Tomorrow (for future mix)
TitleUnicode:Follow Tomorrow (for future mix)
Artist:HHHxMMxST
ArtistUnicode:HHHxMMxST
Creator:Uchiha_sorayuki
Version:Kantan
Source:Beatmania IIDX 19 Lincle
Tags:exit tunes glitter mayumi morinaga Konami Ryu☆ Starving Trancer
BeatmapID:280737
BeatmapSetID:107077

[Difficulty]
HPDrainRate:4
CircleSize:4
OverallDifficulty:4
ApproachRate:4
SliderMultiplier:1.4
SliderTickRate:1

[Events]
//Background and Video events
0,0,"bg_p.jpg",0,0
//Break Periods
//Storyboard Layer 0 (Background)
//Storyboard Layer 1 (Fail)
//Storyboard Layer 2 (Pass)
//Storyboard Layer 3 (Foreground)
//Storyboard Sound Samples
//Background Colour Transformations
3,100,163,162,255

[TimingPoints]
365,429.553264604811,4,1,0,82,1,0
8956,-100,4,1,0,87,0,0
16688,-100,4,1,0,95,0,0
45038,-100,4,1,0,87,0,0
57925,-100,4,1,0,91,0,0
66516,-100,4,1,0,95,0,1
80261,-100,4,1,0,87,0,0
94007,-100,4,1,0,91,0,0
102598,-100,4,1,0,95,0,1
116344,-100,4,1,0,82,0,0
130090,-100,4,1,0,87,0,0
148142,429.553264604811,4,1,0,82,1,0
148142,-100,4,1,0,95,0,1
175633,-100,4,1,0,82,0,0

[HitObjects]
240,208,1224,1,0,0:0:0:0:
240,208,2942,1,0,0:0:0:0:
240,216,4660,1,0,0:0:0:0:
256,192,6378,1,0,0:0:0:0:
256,192,7237,1,0,0:0:0:0:
256,192,7667,1,0,0:0:0:0:
256,192,8096,1,0,0:0:0:0:
256,192,8956,1,8,0:0:0:0:
256,192,9815,1,0,0:0:0:0:
256,192,10244,1,0,0:0:0:0:
256,192,10674,1,8,0:0:0:0:
256,192,11533,1,0,0:0:0:0:
256,192,12392,1,8,0:0:0:0:
256,192,13251,1,0,0:0:0:0:
256,192,13681,1,0,0:0:0:0:
256,192,14110,1,8,0:0:0:0:
256,192,14540,1,8,0:0:0:0:
256,192,14969,1,4,0:0:0:0:
256,184,16688,1,4,0:0:0:0:
256,184,17547,1,0,0:0:0:0:
256,184,17976,1,0,0:0:0:0:
256,184,18406,1,0,0:0:0:0:
256,184,19265,1,8,0:0:0:0:
256,184,19694,1,8,0:0:0:0:
256,184,20124,1,8,0:0:0:0:
256,184,20983,1,0,0:0:0:0:
256,184,21842,1,0,0:0:0:0:
256,184,22272,1,0,0:0:0:0:
256,184,22701,1,8,0:0:0:0:
256,184,23131,1,8,0:0:0:0:
256,184,23560,1,0,0:0:0:0:
256,184,24419,1,0,0:0:0:0:
256,184,24849,1,0,0:0:0:0:
256,184,25279,1,0,0:0:0:0:
256,184,26138,1,8,0:0:0:0:
256,184,26567,1,8,0:0:0:0:
256,184,26997,1,8,0:0:0:0:
256,184,27856,1,0,0:0:0:0:
256,184,28715,1,8,0:0:0:0:
256,184,29145,1,8,0:0:0:0:
256,184,29574,1,0,0:0:0:0:
256,184,30004,1,0,0:0:0:0:
256,184,30433,1,4,0:0:0:0:
256,184,31292,1,0,0:0:0:0:
256,184,32151,1,0,0:0:0:0:
256,184,32581,1,0,0:0:0:0:
256,184,33011,1,8,0:0:0:0:
256,184,33870,1,0,0:0:0:0:
256,184,34729,1,8,0:0:0:0:
256,184,35588,1,0,0:0:0:0:
256,184,36447,1,8,0:0:0:0:
256,184,36877,1,12,0:0:0:0:
256,184,37306,1,0,0:0:0:0:
256,184,38165,1,0,0:0:0:0:
256,184,39024,1,0,0:0:0:0:
256,184,39454,1,0,0:0:0:0:
256,184,39883,1,8,0:0:0:0:
256,184,40743,1,0,0:0:0:0:
256,184,41602,1,8,0:0:0:0:
256,184,42461,1,0,0:0:0:0:
256,184,42890,1,0,0:0:0:0:
256,184,43320,1,8,0:0:0:0:
256,184,43749,1,8,0:0:0:0:
256,184,44179,1,0,0:0:0:0:
256,184,45897,1,0,0:0:0:0:
256,184,46756,1,8,0:0:0:0:
256,184,47186,1,0,0:0:0:0:
256,184,47615,1,0,0:0:0:0:
256,184,49334,1,0,0:0:0:0:
256,184,50193,1,8,0:0:0:0:
256,184,50622,1,8,0:0:0:0:
256,184,51052,1,0,0:0:0:0:
256,184,51911,1,8,0:0:0:0:
256,184,52770,1,0,0:0:0:0:
256,184,53629,1,8,0:0:0:0:
256,184,54059,1,0,0:0:0:0:
256,184,54488,1,0,0:0:0:0:
256,184,55347,1,8,0:0:0:0:
256,184,56206,1,0,0:0:0:0:
256,184,56636,1,8,0:0:0:0:
256,184,57066,1,8,0:0:0:0:
256,184,57495,1,8,0:0:0:0:
256,184,57925,1,0,0:0:0:0:
256,184,58784,1,0,0:0:0:0:
256,184,59643,1,0,0:0:0:0:
256,184,60072,1,8,0:0:0:0:
256,184,60502,1,8,0:0:0:0:
256,184,61361,1,0,0:0:0:0:
256,184,61791,1,0,0:0:0:0:
256,184,62220,1,8,0:0:0:0:
256,184,62650,1,8,0:0:0:0:
256,184,63079,1,0,0:0:0:0:
256,184,63938,1,0,0:0:0:0:
256,184,64797,1,8,0:0:0:0:
256,184,65227,1,8,0:0:0:0:
256,184,65657,1,8,0:0:0:0:
256,184,66516,1,4,0:0:0:0:
256,184,67375,1,0,0:0:0:0:
256,184,67804,1,0,0:0:0:0:
256,184,68234,1,0,0:0:0:0:
256,184,69093,1,8,0:0:0:0:
256,184,69523,1,8,0:0:0:0:
256,184,69952,1,8,0:0:0:0:
256,184,70811,1,0,0:0:0:0:
256,184,71670,1,0,0:0:0:0:
256,184,72100,1,0,0:0:0:0:
256,184,72529,1,8,0:0:0:0:
256,184,72959,1,8,0:0:0:0:
256,184,73389,1,0,0:0:0:0:
256,184,74248,1,0,0:0:0:0:
256,184,74677,1,0,0:0:0:0:
256,184,75107,1,0,0:0:0:0:
256,184,75966,1,8,0:0:0:0:
256,184,76395,1,8,0:0:0:0:
256,184,76825,1,8,0:0:0:0:
256,184,77684,1,0,0:0:0:0:
256,184,78543,1,8,0:0:0:0:
256,184,78973,1,8,0:0:0:0:
256,184,79402,1,0,0:0:0:0:
256,184,79832,1,8,0:0:0:0:
256,184,80261,1,0,0:0:0:0:
256,184,81980,1,0,0:0:0:0:
256,184,82839,1,0,0:0:0:0:
256,184,83268,1,8,0:0:0:0:
256,184,83698,1,0,0:0:0:0:
256,184,85416,1,0,0:0:0:0:
256,184,86275,1,8,0:0:0:0:
256,184,86705,1,0,0:0:0:0:
256,184,87134,1,8,0:0:0:0:
256,184,87993,1,8,0:0:0:0:
256,184,88852,1,0,0:0:0:0:
256,184,89712,1,0,0:0:0:0:
256,184,90141,1,8,0:0:0:0:
256,184,90571,1,0,0:0:0:0:
256,184,91430,1,8,0:0:0:0:
256,184,92289,1,0,0:0:0:0:
256,184,92718,1,8,0:0:0:0:
256,184,93148,1,0,0:0:0:0:
256,184,93578,1,8,0:0:0:0:
256,184,94007,1,0,0:0:0:0:
256,184,94866,1,0,0:0:0:0:
256,184,95725,1,0,0:0:0:0:
256,184,96155,1,8,0:0:0:0:
256,184,96584,1,8,0:0:0:0:
256,184,97444,1,0,0:0:0:0:
256,184,97873,1,8,0:0:0:0:
256,184,98303,1,0,0:0:0:0:
256,184,98732,1,8,0:0:0:0:
256,184,99162,1,8,0:0:0:0:
256,184,100021,1,0,0:0:0:0:
256,184,100880,1,8,0:0:0:0:
256,184,101310,1,8,0:0:0:0:
256,184,101739,1,8,0:0:0:0:
256,184,102598,1,0,0:0:0:0:
256,184,103457,1,0,0:0:0:0:
256,184,103887,1,0,0:0:0:0:
256,184,104316,1,0,0:0:0:0:
256,184,105175,1,8,0:0:0:0:
256,184,105605,1,8,0:0:0:0:
256,184,106035,1,8,0:0:0:0:
256,184,106894,1,0,0:0:0:0:
256,184,107753,1,0,0:0:0:0:
256,184,108182,1,0,0:0:0:0:
256,184,108612,1,8,0:0:0:0:
256,184,109041,1,0,0:0:0:0:
256,184,109471,1,0,0:0:0:0:
256,184,110330,1,0,0:0:0:0:
256,184,110760,1,0,0:0:0:0:
256,184,111189,1,0,0:0:0:0:
256,184,112048,1,8,0:0:0:0:
256,184,112478,1,8,0:0:0:0:
256,184,112907,1,8,0:0:0:0:
256,184,113767,1,0,0:0:0:0:
256,184,114626,1,8,0:0:0:0:
256,184,115055,1,8,0:0:0:0:
256,184,115485,1,8,0:0:0:0:
256,184,115914,1,0,0:0:0:0:
256,184,116344,1,0,0:0:0:0:
256,184,117203,1,0,0:0:0:0:
256,184,118062,1,0,0:0:0:0:
256,184,118492,1,0,0:0:0:0:
256,184,118921,1,0,0:0:0:0:
256,184,119780,1,0,0:0:0:0:
256,184,120639,1,0,0:0:0:0:
256,184,121499,1,0,0:0:0:0:
256,184,121928,1,0,0:0:0:0:
256,184,122358,1,0,0:0:0:0:
256,184,123217,1,0,0:0:0:0:
256,184,124076,1,0,0:0:0:0:
256,184,124935,1,0,0:0:0:0:
256,184,125365,1,0,0:0:0:0:
256,184,125794,1,0,0:0:0:0:
256,184,126653,1,0,0:0:0:0:
256,184,127512,1,0,0:0:0:0:
256,184,128371,1,0,0:0:0:0:
256,184,128801,1,0,0:0:0:0:
256,184,129230,1,0,0:0:0:0:
256,184,129660,1,0,0:0:0:0:
256,184,130090,1,4,0:0:0:0:
256,184,131808,1,0,0:0:0:0:
256,184,132667,1,0,0:0:0:0:
256,184,133096,1,0,0:0:0:0:
256,184,133526,1,0,0:0:0:0:
256,184,135244,1,8,0:0:0:0:
256,184,136103,1,0,0:0:0:0:
256,184,136533,1,0,0:0:0:0:
256,184,136962,1,0,0:0:0:0:
256,184,137822,1,0,0:0:0:0:
256,184,138681,1,8,0:0:0:0:
256,184,139540,1,0,0:0:0:0:
256,184,139969,1,0,0:0:0:0:
256,184,140399,1,8,0:0:0:0:
256,184,141258,1,0,0:0:0:0:
256,184,142117,1,8,0:0:0:0:
256,184,142547,1,8,0:0:0:0:
256,184,142976,1,0,0:0:0:0:
256,184,143406,1,8,0:0:0:0:
256,184,143835,1,0,0:0:0:0:
256,184,144480,1,0,0:0:0:0:
256,184,145124,1,0,0:0:0:0:
256,184,145554,2,0,L|416:184,2,140
256,192,148142,1,4,0:0:0:0:
256,192,149001,1,0,0:0:0:0:
256,192,149430,1,0,0:0:0:0:
256,192,149860,1,0,0:0:0:0:
256,192,150719,1,8,0:0:0:0:
256,192,151148,1,8,0:0:0:0:
256,192,151578,1,8,0:0:0:0:
256,192,152437,1,0,0:0:0:0:
256,192,153296,1,0,0:0:0:0:
256,192,153726,1,0,0:0:0:0:
256,192,154155,1,8,0:0:0:0:
256,192,154585,1,0,0:0:0:0:
256,192,155014,1,0,0:0:0:0:
256,192,155873,1,0,0:0:0:0:
256,192,156303,1,0,0:0:0:0:
256,192,156733,1,8,0:0:0:0:
256,192,157592,1,8,0:0:0:0:
256,192,158021,1,0,0:0:0:0:
256,192,158451,1,8,0:0:0:0:
256,192,159310,1,0,0:0:0:0:
256,192,160169,1,8,0:0:0:0:
256,192,160599,1,8,0:0:0:0:
256,192,161028,1,0,0:0:0:0:
256,192,161458,1,8,0:0:0:0:
256,192,161887,1,0,0:0:0:0:
256,192,162746,1,0,0:0:0:0:
256,192,163176,1,0,0:0:0:0:
256,192,163605,1,8,0:0:0:0:
256,192,164465,1,8,0:0:0:0:
256,192,164894,1,0,0:0:0:0:
256,192,165324,1,8,0:0:0:0:
256,192,166183,1,0,0:0:0:0:
256,192,167042,1,0,0:0:0:0:
256,192,167471,1,0,0:0:0:0:
256,192,167901,1,8,0:0:0:0:
256,192,168331,1,0,0:0:0:0:
256,192,168760,1,0,0:0:0:0:
256,192,169619,1,0,0:0:0:0:
256,192,170049,1,0,0:0:0:0:
256,192,170478,1,8,0:0:0:0:
256,192,171337,1,8,0:0:0:0:
256,192,171767,1,0,0:0:0:0:
256,192,172196,1,8,0:0:0:0:
256,192,173056,1,0,0:0:0:0:
256,192,173915,1,8,0:0:0:0:
256,192,174344,1,8,0:0:0:0:
256,192,174774,1,0,0:0:0:0:
256,192,175203,1,0,0:0:0:0:
256,192,175633,1,8,0:0:0:0:
