osu file format v12

[General]
AudioFilename: Follow Tomorrow.mp3
AudioLeadIn: 2000
PreviewTime: 66988
Countdown: 0
SampleSet: Soft
StackLeniency: 0.7
Mode: 0
LetterboxInBreaks: 0
WidescreenStoryboard: 0

[Editor]
Bookmarks: 1943
DistanceSpacing: 1
BeatDivisor: 4
GridSize: 4
TimelineZoom: 1

[Metadata]
Title:Follow Tomorrow
TitleUnicode:Follow Tomorrow
Artist:HHHxMMxST
ArtistUnicode:HHHxMMxST
Creator:Piscis
Version:Insane
Source:beatmania IIDX 19 Lincle
Tags:KONAMI Ryu* Dai. Halka Mayumi Morinaga moimoi Starving Trancer bobnob DanceEvolution arcade Urushi38
BeatmapID:323932
BeatmapSetID:127782

[Difficulty]
HPDrainRate:7
CircleSize:4
OverallDifficulty:7
ApproachRate:9
SliderMultiplier:1.8
SliderTickRate:2

[Events]
//Background and Video events
0,0,"follow tomorrow.PNG",0,0
Video,0,"dai.avi"
//Break Periods
//Storyboard Layer 0 (Background)
//Storyboard Layer 1 (Fail)
//Storyboard Layer 2 (Pass)
//Storyboard Layer 3 (Foreground)
//Storyboard Sound Samples
//Background Colour Transformations
3,100,163,162,255

[TimingPoints]
1943,428.571428571429,4,2,0,45,1,0
8800,-100,4,1,1,60,0,0
17371,-100,4,1,1,65,0,0
23800,-100,4,1,2,55,0,0
23907,-100,4,1,1,65,0,0
29371,-100,4,1,0,40,0,0
31085,-100,4,1,1,65,0,0
37514,-100,4,1,2,55,0,0
37621,-100,4,1,1,65,0,0
73514,-100,4,1,2,65,0,0
73621,-100,4,1,1,65,0,0
79085,-100,4,1,0,40,0,0
80800,-100,4,1,1,65,0,0
94514,-100,4,1,0,40,0,0
97943,-100,4,1,1,5,0,0
98800,428.571428571429,4,1,1,65,1,1
105228,-100,4,1,2,65,0,1
105335,-100,4,1,1,65,0,1
109514,-100,4,1,3,65,0,1
109621,-100,4,1,1,65,0,1
110371,-100,4,1,3,65,0,1
110478,-100,4,1,1,65,0,1
110800,-100,4,1,0,40,0,1
112514,-100,4,1,0,40,0,0
114228,-100,4,1,0,35,0,0
115942,-100,4,1,0,30,0,0
117657,-100,4,1,0,25,0,0
119157,-100,4,1,2,20,0,0

[Colours]
Combo1 : 175,255,186
Combo2 : 230,175,255
Combo3 : 175,216,255
Combo4 : 255,164,119

[HitObjects]
84,148,1943,6,0,L|208:92,1,135,6|2,0:0|0:0,0:0:0:0:
276,60,2371,1,0,0:0:0:0:
364,48,2585,2,0,P|396:88|408:124,1,90,2|2,0:0|0:0,0:0:0:0:
404,168,2907,1,0,0:0:0:0:
368,196,3014,1,0,0:0:0:0:
324,200,3121,1,0,0:0:0:0:
284,180,3228,1,0,0:0:0:0:
436,276,3443,1,0,0:0:0:0:
352,308,3657,5,6,0:0:0:0:
308,292,3764,1,0,0:0:0:0:
264,292,3871,1,0,0:0:0:0:
224,312,3978,1,2,0:0:0:0:
188,340,4085,1,0,0:0:0:0:
256,172,4300,1,2,0:0:0:0:
256,172,4407,1,0,0:0:0:0:
256,172,4514,1,2,0:0:0:0:
176,128,4728,2,0,L|208:92,1,45,0|2,0:0|0:0,0:0:0:0:
256,36,4943,1,0,0:0:0:0:
306,94,5050,2,0,L|336:128,1,45,0|2,0:0|0:0,0:0:0:0:
256,244,5371,6,0,L|344:220,1,90,6|2,0:0|0:0,0:0:0:0:
384,156,5693,2,0,P|424:212|404:272,1,135,0|2,0:0|0:0,0:0:0:0:
256,244,6228,2,0,P|256:288|288:320,1,90,2|0,0:0|0:0,0:0:0:0:
332,256,6550,2,0,B|208:312,1,135
72,264,7085,1,6,0:0:0:0:
48,224,7193,1,0,0:0:0:0:
48,180,7300,1,0,0:0:0:0:
64,140,7407,1,2,0:0:0:0:
88,104,7514,2,0,P|128:88|176:88,1,90,2|0,0:0|0:0,0:0:0:0:
256,48,7943,1,2,0:0:0:0:
464,320,8264,1,2,0:0:0:0:
48,320,8585,1,2,0:0:0:0:
360,208,8800,5,4,0:0:0:0:
360,208,8907,1,0,0:0:0:0:
288,264,9121,1,0,0:0:0:0:
288,264,9228,1,0,0:0:0:0:
200,240,9443,2,0,P|184:192|184:152,1,90
260,40,9871,2,0,P|308:40|344:64,1,90,0|8,0:0|0:0,0:0:0:0:
376,92,10193,1,0,0:0:0:0:
396,132,10300,1,0,0:0:0:0:
392,176,10407,1,0,0:0:0:0:
360,208,10514,1,4,0:0:0:0:
480,132,10728,6,0,P|480:180|460:220,1,90,0|8,0:0|0:0,0:0:0:0:
288,264,11157,2,0,L|200:240,1,90
116,212,11585,1,0,0:0:0:0:
72,196,11693,1,0,0:0:0:0:
72,108,11907,1,0,0:0:0:0:
116,92,12014,1,0,0:0:0:0:
204,68,12228,5,4,0:0:0:0:
204,68,12443,2,0,P|224:108|224:152,1,90
196,188,12764,1,0,0:0:0:0:
156,208,12871,2,0,P|148:260|168:292,1,90
160,80,13300,1,0,0:0:0:0:
352,304,13514,1,0,0:0:0:0:
248,56,13728,1,0,0:0:0:0:
336,64,13943,6,0,P|356:108|356:148,1,90,4|0,0:0|0:0,0:0:0:0:
344,192,14264,1,0,0:0:0:0:
344,192,14371,1,0,0:0:0:0:
60,192,14585,1,0,0:0:0:0:
256,192,14800,12,4,15657,0:0:0:0:
60,192,15871,5,0,0:0:0:0:
184,240,16085,1,0,0:0:0:0:
164,104,16300,1,0,0:0:0:0:
60,192,16514,1,0,0:0:0:0:
80,232,16621,1,0,0:0:0:0:
100,272,16728,1,0,0:0:0:0:
184,240,16943,1,0,0:0:0:0:
208,276,17050,1,0,0:0:0:0:
232,312,17157,1,0,0:0:0:0:
284,156,17371,6,0,L|404:92,1,135,4|0,0:0|0:0,0:0:0:0:
472,56,17800,1,8,0:0:0:0:
492,144,18014,1,0,0:0:0:0:
492,144,18121,1,0,0:0:0:0:
492,144,18228,1,0,0:0:0:0:
456,228,18443,1,0,0:0:0:0:
476,316,18657,1,0,0:0:0:0:
436,336,18764,1,0,0:0:0:0:
392,340,18871,1,0,0:0:0:0:
348,332,18978,1,0,0:0:0:0:
308,308,19085,5,0,0:0:0:0:
224,344,19300,1,0,0:0:0:0:
164,276,19514,2,0,P|132:248|84:235,1,90,8|0,0:0|0:0,0:0:0:0:
248,236,19943,2,0,P|260:168|236:108,1,135
208,76,20371,1,0,0:0:0:0:
128,32,20585,1,0,0:0:0:0:
308,48,20800,5,0,0:0:0:0:
392,80,21014,2,0,P|392:108|384:132,2,45
476,108,21443,1,0,0:0:0:0:
368,252,21657,5,0,0:0:0:0:
256,108,21871,1,0,0:0:0:0:
152,256,22085,1,8,0:0:0:0:
152,256,22192,1,0,0:0:0:0:
152,256,22300,1,0,0:0:0:0:
124,172,22514,2,0,L|152:80,1,90
68,296,22943,1,0,0:0:0:0:
240,224,23157,2,0,L|328:192,1,90
68,296,23585,1,0,0:0:0:0:
184,340,23800,1,12,0:0:0:0:
284,52,24228,6,0,L|412:92,1,135
444,24,24657,2,0,P|496:76|496:104,1,90,8|0,0:0|0:0,0:0:0:0:
472,176,25085,2,0,L|484:232,1,45
364,192,25300,1,0,0:0:0:0:
364,192,25407,2,0,L|320:180,1,45,0|8,0:0|0:0,0:0:0:0:
256,244,25728,2,0,L|256:304,2,45
192,180,26157,5,0,0:0:0:0:
212,92,26371,2,0,P|256:80|300:92,1,90,8|0,0:0|0:0,0:0:0:0:
300,292,26800,2,0,P|256:304|212:292,1,90
176,268,27121,1,0,0:0:0:0:
148,232,27228,1,8,0:0:0:0:
372,192,27443,1,0,0:0:0:0:
372,192,27657,5,0,0:0:0:0:
460,176,27871,1,0,0:0:0:0:
460,176,27978,1,0,0:0:0:0:
460,176,28085,2,0,P|468:220|448:260,1,90,8|0,0:0|0:0,0:0:0:0:
364,288,28514,2,0,P|316:304|288:332,1,90
212,220,28943,2,0,P|256:168|320:160,1,135,8|0,0:0|0:0,0:0:0:0:
364,168,29371,5,2,0:0:0:0:
116,56,29693,1,2,0:0:0:0:
44,316,30014,1,2,0:0:0:0:
44,216,30228,1,2,0:0:0:0:
76,184,30335,1,0,0:0:0:0:
116,160,30443,1,0,0:0:0:0:
156,136,30550,1,0,0:0:0:0:
200,120,30657,1,2,0:0:0:0:
244,116,30764,1,0,0:0:0:0:
288,124,30871,1,0,0:0:0:0:
328,144,30978,1,0,0:0:0:0:
364,168,31085,6,0,P|416:168|452:156,1,90,6|8,0:0|0:0,0:0:0:0:
396,84,31514,1,0,0:0:0:0:
416,252,31728,2,0,P|368:260|328:248,1,90,0|2,0:0|0:0,0:0:0:0:
396,84,32157,1,0,0:0:0:0:
200,296,32371,2,0,P|240:324|280:324,1,90
200,87,32800,2,0,P|235:61|279:59,1,90,2|0,0:0|0:0,0:0:0:0:
300,148,33228,2,0,P|308:192|296:236,1,90
200,192,33657,1,2,0:0:0:0:
404,88,33871,1,2,0:0:0:0:
404,296,34085,1,10,0:0:0:0:
200,192,34300,1,2,0:0:0:0:
480,260,34514,5,2,0:0:0:0:
440,280,34621,1,0,0:0:0:0:
404,296,34728,2,0,P|360:308|320:328,1,90,0|8,0:0|0:0,0:0:0:0:
256,208,35157,1,0,0:0:0:0:
192,328,35371,6,0,P|168:320|152:304,3,45,2|0|0|0,0:0|0:0|0:0|0:0,0:0:0:0:
100,252,35800,2,0,P|96:231|96:208,3,45,8|0|0|0,0:0|0:0|0:0|0:0,0:0:0:0:
120,136,36228,6,0,P|160:108|200:96,1,90,2|2,0:0|0:0,0:0:0:0:
256,28,36657,1,10,0:0:0:0:
256,164,36871,1,2,0:0:0:0:
256,28,37085,1,2,0:0:0:0:
396,192,37300,1,2,0:0:0:0:
116,192,37514,1,12,0:0:0:0:
256,304,37943,6,0,P|208:316|168:316,1,90,2|0,0:0|0:0,0:0:0:0:
88,272,38371,1,8,0:0:0:0:
104,228,38478,1,0,0:0:0:0:
116,192,38585,2,0,L|132:144,2,45,0|0|2,0:0|0:0|0:0,0:0:0:0:
256,80,39014,2,0,L|256:36,2,45,0|0|8,0:0|0:0|0:0,0:0:0:0:
396,192,39443,2,0,L|380:144,2,45,0|0|2,0:0|0:0|0:0,0:0:0:0:
412,236,39764,1,0,0:0:0:0:
428,280,39871,1,0,0:0:0:0:
456,364,40085,1,8,0:0:0:0:
368,352,40300,5,2,0:0:0:0:
340,316,40407,1,0,0:0:0:0:
300,296,40514,1,2,0:0:0:0:
256,280,40621,1,0,0:0:0:0:
212,296,40728,1,0,0:0:0:0:
172,316,40835,1,0,0:0:0:0:
144,352,40943,1,10,0:0:0:0:
52,216,41157,1,0,0:0:0:0:
52,216,41371,6,0,P|52:164|72:132,1,90,2|0,0:0|0:0,0:0:0:0:
124,76,41693,2,0,L|256:48,1,135,2|2,0:0|0:0,0:0:0:0:
460,168,42228,2,0,P|460:220|440:252,1,90,2|0,0:0|0:0,0:0:0:0:
388,308,42550,2,0,L|256:336,1,135,2|2,0:0|0:0,0:0:0:0:
104,332,43085,6,0,P|92:288|96:244,1,90,4|0,0:0|0:0,0:0:0:0:
131,115,43407,2,0,P|157:151|156:196,1,90,8|0,0:0|0:0,0:0:0:0:
96,48,43728,2,0,P|136:28|180:28,1,90,4|2,0:0|0:0,0:0:0:0:
212,32,44050,5,0,0:0:0:0:
240,44,44157,1,0,0:0:0:0:
268,60,44264,1,0,0:0:0:0:
296,76,44371,1,10,0:0:0:0:
324,92,44478,1,0,0:0:0:0:
352,108,44585,1,0,0:0:0:0:
380,124,44693,1,0,0:0:0:0:
408,140,44800,1,4,0:0:0:0:
320,312,45014,5,0,0:0:0:0:
256,248,45228,1,0,0:0:0:0:
256,248,45443,1,0,0:0:0:0:
192,312,45657,1,0,0:0:0:0:
320,188,45871,1,0,0:0:0:0:
192,184,46085,1,0,0:0:0:0:
320,312,46300,1,0,0:0:0:0:
176,96,46514,6,0,P|256:56|332:96,1,180,0|8,0:0|0:0,0:0:0:0:
408,140,47157,1,0,0:0:0:0:
472,204,47371,2,0,P|472:260|432:336,1,135
400,356,47800,1,0,0:0:0:0:
320,312,48014,1,0,0:0:0:0:
256,144,48228,6,0,P|232:184|232:228,1,90
164,328,48657,2,0,P|96:304|56:256,1,135
36,216,49085,1,0,0:0:0:0:
64,128,49300,1,0,0:0:0:0:
104,104,49407,1,0,0:0:0:0:
144,84,49514,2,0,L|224:40,1,90,8|0,0:0|0:0,0:0:0:0:
384,168,49943,6,0,P|368:108|308:68,1,135,0|8,0:0|0:0,0:0:0:0:
268,52,50371,1,0,0:0:0:0:
248,140,50585,1,0,0:0:0:0:
256,228,50800,2,0,P|328:248|376:288,1,135
400,320,51228,1,8,0:0:0:0:
256,344,51443,1,0,0:0:0:0:
112,320,51657,6,0,P|64:304|32:280,1,90,4|0,0:0|0:0,0:0:0:0:
256,192,52085,1,0,0:0:0:0:
256,192,52300,1,0,0:0:0:0:
340,224,52514,2,0,P|404:180|428:128,1,135
432,84,52943,1,0,0:0:0:0:
256,40,53157,1,0,0:0:0:0:
400,320,53371,6,0,P|448:304|480:280,1,90,0|0,0:0|0:0,0:0:0:0:
256,192,53799,1,0,0:0:0:0:
256,192,54014,1,0,0:0:0:0:
172,224,54228,2,0,P|108:180|84:128,1,135
80,84,54657,1,0,0:0:0:0:
256,40,54871,1,0,0:0:0:0:
324,100,55085,6,0,P|372:100|408:80,1,90
484,32,55514,2,0,P|500:72|492:120,1,90
472,204,55943,1,0,0:0:0:0:
416,272,56157,1,0,0:0:0:0:
332,304,56371,1,0,0:0:0:0:
416,272,56585,1,0,0:0:0:0:
356,192,56800,5,6,0:0:0:0:
160,192,57014,1,2,0:0:0:0:
256,100,57228,1,14,0:0:0:0:
256,288,57443,1,0,0:0:0:0:
160,100,57657,5,2,0:0:0:0:
356,100,57871,1,2,0:0:0:0:
356,288,58085,1,14,0:0:0:0:
160,288,58300,1,2,0:0:0:0:
72,120,58514,6,0,P|36:192|76:276,1,180,4|8,0:0|0:0,0:0:0:0:
112,192,59157,2,0,L|204:192,1,90
256,120,59585,1,0,0:0:0:0:
256,260,59800,1,8,0:0:0:0:
256,48,60014,1,0,0:0:0:0:
256,332,60228,1,0,0:0:0:0:
312,192,60443,5,0,0:0:0:0:
312,192,60657,2,0,L|402:192,1,90,8|8,0:0|0:0,0:0:0:0:
472,248,61085,1,0,0:0:0:0:
468,260,61193,1,0,0:0:0:0:
464,276,61300,2,0,L|368:300,1,90,0|8,0:0|0:0,0:0:0:0:
300,344,61728,2,0,L|256:344,1,45
208,344,61943,5,2,0:0:0:0:
108,252,62157,2,0,P|112:164|124:148,1,90,0|10,0:0|0:0,0:0:0:0:
404,252,62585,2,0,P|400:164|388:148,1,90,0|2,0:0|0:0,0:0:0:0:
256,44,63014,2,0,L|256:144,1,90,0|10,0:0|0:0,0:0:0:0:
256,268,63443,1,0,0:0:0:0:
256,192,63657,12,0,64943,0:0:0:0:
188,204,65157,5,0,0:0:0:0:
108,248,65371,1,12,0:0:0:0:
108,248,65478,2,0,P|84:256|60:276,2,45,0|0|12,0:0|0:0|0:0,0:0:0:0:
136,336,65907,1,0,0:0:0:0:
136,336,66014,1,12,0:0:0:0:
228,344,66228,1,12,0:0:0:0:
264,260,66443,1,0,0:0:0:0:
304,180,66657,1,0,0:0:0:0:
348,164,66764,1,0,0:0:0:0:
392,160,66871,1,0,0:0:0:0:
436,168,66978,1,0,0:0:0:0:
476,188,67085,6,0,B|460:264|400:296,1,135,4|0,0:0|0:0,0:0:0:0:
360,316,67514,1,8,0:0:0:0:
228,344,67728,1,0,0:0:0:0:
276,220,67943,2,0,P|252:164|192:124,1,135
152,104,68371,1,0,0:0:0:0:
48,192,68585,1,0,0:0:0:0:
152,280,68800,5,0,0:0:0:0:
256,192,69014,1,0,0:0:0:0:
256,192,69121,1,0,0:0:0:0:
256,192,69228,1,0,0:0:0:0:
152,280,69443,1,0,0:0:0:0:
48,192,69657,2,0,P|48:116|80:68,1,135
120,44,70085,1,0,0:0:0:0:
208,64,70300,1,0,0:0:0:0:
48,192,70514,5,0,0:0:0:0:
88,272,70728,1,0,0:0:0:0:
128,292,70835,2,0,L|184:312,1,45
252,344,71157,1,0,0:0:0:0:
324,300,71371,2,0,P|368:284|412:288,1,90
480,344,71800,1,0,0:0:0:0:
456,212,72014,1,0,0:0:0:0:
480,344,72228,5,0,0:0:0:0:
440,128,72443,1,0,0:0:0:0:
420,40,72657,2,0,P|376:48|332:40,1,90,8|0,0:0|0:0,0:0:0:0:
184,36,73085,1,0,0:0:0:0:
256,100,73300,1,0,0:0:0:0:
256,144,73407,1,0,0:0:0:0:
256,188,73514,1,12,0:0:0:0:
108,84,73943,6,0,B|56:124|56:124|32:192,1,135
24,264,74371,1,8,0:0:0:0:
96,320,74585,2,0,P|136:340|180:336,1,90
224,320,74907,1,0,0:0:0:0:
264,300,75014,1,0,0:0:0:0:
340,256,75228,2,0,P|380:232|424:232,1,90
404,320,75657,5,0,0:0:0:0:
356,152,75871,1,0,0:0:0:0:
356,152,75978,1,0,0:0:0:0:
356,152,76085,2,0,L|264:116,1,90,8|0,0:0|0:0,0:0:0:0:
108,192,76514,1,0,0:0:0:0:
108,192,76621,1,0,0:0:0:0:
108,192,76728,2,0,L|192:228,1,90,0|8,0:0|0:0,0:0:0:0:
256,292,77157,1,0,0:0:0:0:
108,192,77371,5,0,0:0:0:0:
356,152,77585,1,0,0:0:0:0:
216,52,77800,1,8,0:0:0:0:
236,176,78014,1,0,0:0:0:0:
180,244,78228,1,0,0:0:0:0:
144,272,78335,1,0,0:0:0:0:
100,284,78443,1,0,0:0:0:0:
60,268,78550,1,0,0:0:0:0:
32,232,78657,1,0,0:0:0:0:
116,104,78871,1,0,0:0:0:0:
100,284,79085,5,2,0:0:0:0:
256,192,79407,1,2,0:0:0:0:
412,284,79728,1,2,0:0:0:0:
464,212,79943,5,2,0:0:0:0:
448,184,80050,1,0,0:0:0:0:
424,160,80157,1,0,0:0:0:0:
396,144,80264,1,0,0:0:0:0:
368,140,80371,1,2,0:0:0:0:
340,144,80478,1,0,0:0:0:0:
304,152,80585,1,0,0:0:0:0:
272,172,80693,1,0,0:0:0:0:
256,192,80800,1,4,0:0:0:0:
224,272,81014,5,0,0:0:0:0:
148,320,81228,2,0,P|104:312|68:284,1,90,8|0,0:0|0:0,0:0:0:0:
40,200,81657,1,0,0:0:0:0:
40,200,81764,2,0,P|88:148|148:132,1,135,0|8,0:0|0:0,0:0:0:0:
236,120,82300,1,0,0:0:0:0:
324,140,82514,2,0,P|344:60|264:36,1,180,0|8,0:0|0:0,0:0:0:0:
208,208,83157,2,0,P|232:256|268:268,1,90
344,224,83585,2,0,P|388:224|428:248,1,90,0|8,0:0|0:0,0:0:0:0:
468,328,84014,1,0,0:0:0:0:
212,344,84228,6,0,L|108:256,1,135,4|0,0:0|0:0,0:0:0:0:
76,224,84657,1,8,0:0:0:0:
44,192,84764,1,0,0:0:0:0:
76,60,85085,2,0,P|144:60|204:92,1,135
224,128,85514,1,8,0:0:0:0:
288,192,85728,1,0,0:0:0:0:
156,192,85943,5,4,0:0:0:0:
224,260,86157,1,0,0:0:0:0:
224,128,86371,1,8,0:0:0:0:
288,192,86585,1,0,0:0:0:0:
320,108,86800,2,0,P|380:152|380:208,1,135
360,248,87228,1,8,0:0:0:0:
156,192,87443,1,0,0:0:0:0:
256,344,87657,5,4,0:0:0:0:
124,316,87871,1,0,0:0:0:0:
64,196,88085,1,8,0:0:0:0:
124,316,88300,1,0,0:0:0:0:
244,252,88514,2,0,P|244:200|220:172,1,90
188,140,88835,1,0,0:0:0:0:
144,132,88943,1,8,0:0:0:0:
244,252,89157,1,0,0:0:0:0:
308,192,89371,5,0,0:0:0:0:
256,68,89585,1,0,0:0:0:0:
388,40,89800,1,8,0:0:0:0:
256,68,90014,1,0,0:0:0:0:
376,132,90228,2,0,P|396:168|440:192,1,90
476,212,90550,1,0,0:0:0:0:
496,252,90657,1,8,0:0:0:0:
376,132,90871,1,0,0:0:0:0:
140,176,91085,6,0,P|140:224|160:260,1,90
308,304,91514,2,0,P|308:256|288:220,1,90,8|0,0:0|0:0,0:0:0:0:
132,356,91943,2,0,P|180:356|216:336,1,90
159,259,92371,1,8,0:0:0:0:
288,220,92585,1,0,0:0:0:0:
416,176,92800,6,0,P|416:120|352:64,1,135,6|0,0:0|0:0,0:0:0:0:
292,36,93228,2,0,B|224:56|224:56|160:56,1,135,14|0,0:0|0:0,0:0:0:0:
84,36,93657,2,0,P|64:116|80:168,1,135,6|0,0:0|0:0,0:0:0:0:
104,236,94085,2,0,L|192:264,1,90,14|0,0:0|0:0,0:0:0:0:
376,324,94514,5,2,0:0:0:0:
256,160,94835,1,2,0:0:0:0:
136,324,95157,1,2,0:0:0:0:
256,160,95478,1,2,0:0:0:0:
212,288,95800,2,0,P|256:300|300:288,1,90,2|2,0:0|0:0,0:0:0:0:
256,192,96228,12,0,97943,0:0:0:0:
64,60,98800,6,0,L|92:192,1,135,4|0,0:0|0:0,0:0:0:0:
108,268,99228,1,8,0:0:0:0:
180,324,99442,2,0,B|224:344|268:336,1,90
312,320,99764,1,0,0:0:0:0:
348,292,99871,1,0,0:0:0:0:
364,248,99978,1,0,0:0:0:0:
352,204,100085,1,0,0:0:0:0:
296,132,100300,1,0,0:0:0:0:
232,68,100514,5,0,0:0:0:0:
232,68,100621,2,0,L|144:48,1,90
100,36,100942,1,8,0:0:0:0:
52,112,101157,2,0,P|44:160|52:204,1,90
72,272,101478,2,0,P|88:288|112:300,3,45,0|0|0|8,0:0|0:0|0:0|0:0,0:0:0:0:
180,328,101907,2,0,P|212:332|248:328,2,45
308,316,102228,6,0,P|352:304|388:276,1,90
416,128,102657,2,0,P|372:132|340:164,1,90,8|0,0:0|0:0,0:0:0:0:
256,192,103085,1,0,0:0:0:0:
256,192,103192,1,0,0:0:0:0:
256,192,103300,1,0,0:0:0:0:
256,88,103514,1,8,0:0:0:0:
256,296,103728,1,0,0:0:0:0:
124,192,103942,6,0,P|108:241|112:280,1,90
388,192,104371,2,0,P|403:241|400:278,1,90,8|0,0:0|0:0,0:0:0:0:
336,340,104800,1,0,0:0:0:0:
176,340,105014,1,0,0:0:0:0:
256,88,105228,1,12,0:0:0:0:
256,88,105442,5,0,0:0:0:0:
256,88,105550,1,0,0:0:0:0:
256,88,105657,2,0,L|400:56,1,135,4|0,0:0|0:0,0:0:0:0:
460,40,106085,1,8,0:0:0:0:
460,132,106300,1,0,0:0:0:0:
468,176,106407,1,0,0:0:0:0:
476,220,106514,1,0,0:0:0:0:
392,252,106728,1,0,0:0:0:0:
400,296,106835,1,0,0:0:0:0:
408,340,106942,1,8,0:0:0:0:
316,348,107157,1,0,0:0:0:0:
256,280,107371,5,0,0:0:0:0:
180,328,107585,2,0,L|96:296,1,90,0|8,0:0|0:0,0:0:0:0:
96,296,108014,1,0,0:0:0:0:
92,192,108228,2,0,L|176:160,1,90
176,159,108657,1,8,0:0:0:0:
256,192,108871,1,0,0:0:0:0:
324,132,109085,6,0,P|304:60|256:24,2,135
188,252,109942,2,0,P|208:324|256:360,2,135
256,192,110800,5,2,0:0:0:0:
60,72,111121,1,2,0:0:0:0:
28,300,111442,1,2,0:0:0:0:
96,164,111657,1,2,0:0:0:0:
104,208,111764,1,0,0:0:0:0:
124,248,111871,1,0,0:0:0:0:
156,280,111978,1,0,0:0:0:0:
192,304,112085,1,2,0:0:0:0:
236,316,112192,1,0,0:0:0:0:
280,308,112300,1,0,0:0:0:0:
324,292,112407,1,0,0:0:0:0:
356,260,112514,1,2,0:0:0:0:
460,112,112835,6,0,P|420:88|376:80,1,90,2|0,0:0|0:0,0:0:0:0:
332,88,113157,1,2,0:0:0:0:
256,132,113371,1,2,0:0:0:0:
180,88,113585,1,0,0:0:0:0:
52,112,113800,1,0,0:0:0:0:
104,40,114014,1,0,0:0:0:0:
128,160,114228,6,0,L|144:256,1,90,2|0,0:0|0:0,0:0:0:0:
152,292,114550,1,2,0:0:0:0:
224,344,114764,1,0,0:0:0:0:
224,344,114871,1,2,0:0:0:0:
312,324,115085,2,0,P|329:268|352:244,1,90,2|0,0:0|0:0,0:0:0:0:
388,224,115407,2,0,P|424:160|408:100,1,135,2|2,0:0|0:0,0:0:0:0:
228,92,115942,6,0,P|164:104|128:160,2,135,2|2|2,0:0|0:0|0:0,0:0:0:0:
304,44,116800,1,2,0:0:0:0:
208,176,117014,1,0,0:0:0:0:
208,340,117228,1,0,0:0:0:0:
304,208,117442,1,0,0:0:0:0:
308,308,117657,6,0,L|468:276,2,135,2|2|2,0:0|0:0|0:0,0:0:0:0:
152,256,118514,2,0,L|16:288,2,135,2|2|2,0:0|0:0|0:0,0:0:0:0:
