osu file format v12

[General]
AudioFilename: Follow Tomorrow.mp3
AudioLeadIn: 2000
PreviewTime: 66988
Countdown: 0
SampleSet: Normal
StackLeniency: 0.7
Mode: 0
LetterboxInBreaks: 0
WidescreenStoryboard: 1

[Editor]
Bookmarks: 1943
DistanceSpacing: 1.2
BeatDivisor: 4
GridSize: 4
TimelineZoom: 1

[Metadata]
Title:Follow Tomorrow
TitleUnicode:Follow Tomorrow
Artist:HHHxMMxST
ArtistUnicode:HHHxMMxST
Creator:Piscis
Version:Hyper
Source:beatmania IIDX 19 Lincle
Tags:KONAMI Ryu* Dai. Halka Mayumi Morinaga moimoi Starving Trancer bobnob DanceEvolution arcade Urushi38
BeatmapID:323934
BeatmapSetID:127782

[Difficulty]
HPDrainRate:6
CircleSize:4
OverallDifficulty:6
ApproachRate:8
SliderMultiplier:1.6
SliderTickRate:2

[Events]
//Background and Video events
0,0,"follow tomorrow.PNG",0,0
Video,0,"dai.avi"
//Break Periods
//Storyboard Layer 0 (Background)
//Storyboard Layer 1 (Fail)
//Storyboard Layer 2 (Pass)
//Storyboard Layer 3 (Foreground)
//Storyboard Sound Samples
//Background Colour Transformations
3,100,163,162,255

[TimingPoints]
1943,428.571428571429,4,2,1,45,1,0
8800,-100,4,1,1,60,0,0
17371,-100,4,1,1,65,0,0
23800,-100,4,1,2,55,0,0
23907,-100,4,1,1,65,0,0
29371,-100,4,1,0,40,0,0
31085,-100,4,1,1,65,0,0
37514,-100,4,1,2,55,0,0
37621,-100,4,1,1,65,0,0
73514,-100,4,1,2,65,0,0
73621,-100,4,1,1,65,0,0
79085,-100,4,1,0,40,0,0
80800,-100,4,1,3,65,0,0
87657,-100,4,1,1,65,0,0
94514,-100,4,1,0,40,0,0
97943,-100,4,1,1,5,0,0
98800,428.571428571429,4,1,1,65,1,1
105228,-100,4,1,2,65,0,1
105335,-100,4,1,1,65,0,1
110800,-100,4,1,0,40,0,1
112514,-100,4,1,0,40,0,0
114228,-100,4,1,0,35,0,0
115942,-100,4,1,0,30,0,0
117657,-100,4,1,0,25,0,0
119157,-100,4,1,2,20,0,0

[Colours]
Combo1 : 175,255,186
Combo2 : 230,175,255
Combo3 : 175,216,255
Combo4 : 255,164,119

[HitObjects]
428,72,1943,6,0,P|364:36|316:36,1,120,6|2,0:0|0:0,0:0:0:0:
272,52,2371,1,0,0:0:0:0:
184,96,2585,1,2,0:0:0:0:
100,140,2800,1,2,0:0:0:0:
104,236,3014,2,0,L|116:276,1,40
208,248,3335,2,0,L|224:292,1,40
256,168,3657,6,0,P|312:144|368:156,1,120,6|2,0:0|0:0,0:0:0:0:
408,180,4085,1,0,0:0:0:0:
476,248,4300,2,0,P|492:284|492:324,1,80,2|2,0:0|0:0,0:0:0:0:
400,304,4728,2,0,L|360:316,1,40,2|2,0:0|0:0,0:0:0:0:
296,244,5050,2,0,L|256:256,1,40,2|2,0:0|0:0,0:0:0:0:
168,288,5371,5,6,0:0:0:0:
96,224,5585,2,0,L|80:188,1,40,2|2,0:0|0:0,0:0:0:0:
136,56,6014,1,2,0:0:0:0:
56,108,6228,2,0,P|60:72|92:40,1,80,2|0,0:0|0:0,0:0:0:0:
136,56,6550,2,0,P|192:72|256:64,1,120
380,108,7085,6,0,B|412:116|396:192|428:212,1,120,6|2,0:0|0:0,0:0:0:0:
456,252,7514,1,0,0:0:0:0:
380,308,7728,1,2,0:0:0:0:
288,336,7942,2,0,P|228:336|172:312,1,120,2|2,0:0|0:0,0:0:0:0:
248,192,8585,2,0,P|212:168|172:168,1,80,2|4,0:0|0:0,0:0:0:0:
52,92,9121,5,0,0:0:0:0:
96,228,9442,1,0,0:0:0:0:
40,308,9657,1,0,0:0:0:0:
40,308,9764,1,0,0:0:0:0:
40,308,9871,1,0,0:0:0:0:
96,228,10085,2,0,P|176:224|248:192,1,160,8|4,0:0|0:0,0:0:0:0:
272,176,10621,5,0,0:0:0:0:
292,156,10728,1,0,0:0:0:0:
304,132,10835,1,0,0:0:0:0:
304,104,10942,1,8,0:0:0:0:
208,100,11157,2,0,L|128:120,1,80,0|0,0:0|0:0,0:0:0:0:
296,72,11585,2,0,L|336:60,1,40
420,104,11907,2,0,L|464:92,1,40
440,188,12228,6,0,P|480:232|488:292,1,120,4|0,0:0|0:0,0:0:0:0:
476,336,12657,1,8,0:0:0:0:
384,304,12871,2,0,P|380:264|356:232,1,80,0|0,0:0|0:0,0:0:0:0:
308,148,13300,2,0,P|292:112|296:72,2,80,0|8|0,0:0|0:0|0:0,0:0:0:0:
224,196,13942,2,0,L|120:264,1,120,4|0,0:0|0:0,0:0:0:0:
84,288,14371,1,8,0:0:0:0:
84,288,14585,1,0,0:0:0:0:
256,192,14800,12,0,16514,0:0:0:0:
104,72,16942,5,0,0:0:0:0:
104,72,17371,6,0,L|144:192,1,120,4|0,0:0|0:0,0:0:0:0:
160,232,17800,1,8,0:0:0:0:
228,300,18014,1,0,0:0:0:0:
316,260,18228,2,0,P|344:224|352:192,1,80,0|0,0:0|0:0,0:0:0:0:
352,164,18550,1,0,0:0:0:0:
340,140,18657,1,8,0:0:0:0:
256,92,18871,1,0,0:0:0:0:
179,40,19085,6,0,P|163:96|184:152,1,120
224,180,19514,1,8,0:0:0:0:
332,40,19728,1,0,0:0:0:0:
332,40,19943,2,0,P|348:88|328:152,1,120
288,180,20371,2,0,P|288:220|308:256,2,80,8|0|0,0:0|0:0|0:0,0:0:0:0:
212,304,21121,6,0,L|176:288,1,40,0|8,0:0|0:0,0:0:0:0:
88,248,21443,1,0,0:0:0:0:
136,164,21657,2,0,P|120:128|88:104,1,80
64,92,21978,1,8,0:0:0:0:
36,88,22085,1,8,0:0:0:0:
112,32,22300,1,0,0:0:0:0:
204,64,22514,6,0,L|324:48,1,120
372,44,22943,1,8,0:0:0:0:
432,120,23157,2,0,P|432:160|416:196,1,80
352,268,23585,1,0,0:0:0:0:
352,268,23693,1,0,0:0:0:0:
352,268,23800,1,12,0:0:0:0:
44,276,24228,6,0,P|92:316|148:316,1,120,4|0,0:0|0:0,0:0:0:0:
192,300,24657,2,0,P|236:300|272:320,1,80,8|0,0:0|0:0,0:0:0:0:
352,268,25085,1,0,0:0:0:0:
408,344,25300,1,0,0:0:0:0:
448,320,25407,1,0,0:0:0:0:
480,284,25514,2,0,P|480:244|460:208,1,80,8|0,0:0|0:0,0:0:0:0:
400,136,25943,1,0,0:0:0:0:
336,64,26157,6,0,L|304:40,2,40,0|0|8,0:0|0:0|0:0,0:0:0:0:
488,96,26585,1,0,0:0:0:0:
308,168,26800,1,0,0:0:0:0:
372,240,27014,1,0,0:0:0:0:
280,268,27228,2,0,L|232:280,2,40,8|0|0,0:0|0:0|0:0,0:0:0:0:
152,304,27657,5,0,0:0:0:0:
120,212,27871,1,0,0:0:0:0:
112,184,27978,1,0,0:0:0:0:
104,156,28085,1,8,0:0:0:0:
148,68,28300,2,0,P|184:84|224:84,1,80
316,60,28728,1,0,0:0:0:0:
408,28,28943,2,0,P|432:64|432:100,1,80,8|0,0:0|0:0,0:0:0:0:
404,192,29371,5,2,0:0:0:0:
256,336,29693,1,2,0:0:0:0:
108,192,30014,1,2,0:0:0:0:
128,96,30228,2,2,B|192:32|260:124|260:124|328:32|392:96,1,320,2|6,0:0|0:0,0:0:0:0:
256,212,31300,6,0,L|280:292,1,80,0|8,0:0|0:0,0:0:0:0:
372,312,31728,2,0,L|350:236,1,80,0|2,0:0|0:0,0:0:0:0:
324,144,32157,1,0,0:0:0:0:
396,80,32371,1,8,0:0:0:0:
324,144,32585,1,0,0:0:0:0:
276,60,32800,6,0,P|240:44|200:44,1,80,2|0,0:0|0:0,0:0:0:0:
120,100,33228,2,0,L|84:80,2,40,8|0|2,0:0|0:0|0:0,0:0:0:0:
96,192,33657,2,0,L|52:192,2,40,2|0|2,0:0|0:0|0:0,0:0:0:0:
120,284,34085,2,0,L|80:300,2,40,10|0|2,0:0|0:0|0:0,0:0:0:0:
208,248,34514,6,0,P|224:208|216:172,1,80,2|8,0:0|0:0,0:0:0:0:
204,128,34835,1,0,0:0:0:0:
168,96,34943,1,8,0:0:0:0:
120,100,35050,1,0,0:0:0:0:
76,124,35157,1,0,0:0:0:0:
32,212,35371,2,0,P|16:268|24:296,1,80,2|0,0:0|0:0,0:0:0:0:
40,332,35693,1,0,0:0:0:0:
88,320,35800,1,8,0:0:0:0:
120,284,35907,1,0,0:0:0:0:
140,240,36014,1,0,0:0:0:0:
220,188,36228,6,0,B|236:172|256:168|276:172|292:188,1,80,2|2,0:0|0:0,0:0:0:0:
372,240,36657,1,10,0:0:0:0:
256,336,36871,1,2,0:0:0:0:
140,240,37085,1,2,0:0:0:0:
168,100,37300,1,2,0:0:0:0:
344,100,37514,1,12,0:0:0:0:
180,216,37943,6,0,P|136:192|104:192,1,80,6|0,0:0|0:0,0:0:0:0:
28,244,38371,2,0,L|48:280,1,40,8|0,0:0|0:0,0:0:0:0:
140,300,38693,2,0,L|160:336,1,40,0|2,0:0|0:0,0:0:0:0:
256,336,39014,2,0,P|288:312|304:276,1,80,0|8,0:0|0:0,0:0:0:0:
256,192,39443,1,0,0:0:0:0:
208,107,39657,2,0,P|224:71|256:48,1,80,2|0,0:0|0:0,0:0:0:0:
340,92,40085,1,8,0:0:0:0:
428,56,40300,5,2,0:0:0:0:
456,64,40407,1,0,0:0:0:0:
476,84,40514,1,2,0:0:0:0:
488,108,40621,1,0,0:0:0:0:
492,136,40728,2,0,P|484:176|460:208,1,80,2|8,0:0|0:0,0:0:0:0:
392,276,41157,1,2,0:0:0:0:
308,324,41371,6,0,P|272:340|232:340,1,80,2|0,0:0|0:0,0:0:0:0:
184,340,41693,2,0,P|132:312|72:312,1,120,2|2,0:0|0:0,0:0:0:0:
56,216,42228,2,0,P|48:176|60:136,1,80,2|0,0:0|0:0,0:0:0:0:
92,104,42550,2,0,B|148:104|148:64|204:64,1,120,2|2,0:0|0:0,0:0:0:0:
296,40,43085,6,0,P|312:72|304:120,1,80,4|0,0:0|0:0,0:0:0:0:
280,156,43407,2,0,P|280:196|294:232,1,80,4|0,0:0|0:0,0:0:0:0:
340,244,43728,2,0,P|346:287|328:320,1,80,4|2,0:0|0:0,0:0:0:0:
308,336,44050,5,0,0:0:0:0:
280,344,44157,1,0,0:0:0:0:
252,348,44264,1,0,0:0:0:0:
224,340,44371,1,10,0:0:0:0:
200,324,44478,1,0,0:0:0:0:
184,300,44585,1,0,0:0:0:0:
176,272,44693,1,0,0:0:0:0:
176,244,44800,1,4,0:0:0:0:
256,192,45014,5,0,0:0:0:0:
328,128,45228,2,0,P|328:88|304:56,1,80,8|0,0:0|0:0,0:0:0:0:
208,60,45657,2,0,P|186:92|186:132,1,80
216,168,45978,2,0,P|172:208|112:208,1,120,8|0,0:0|0:0,0:0:0:0:
52,284,46514,2,0,P|116:324|196:308,1,160,0|8,0:0|0:0,0:0:0:0:
284,272,47157,6,0,P|320:256|360:260,1,80
416,336,47585,1,0,0:0:0:0:
492,276,47800,1,8,0:0:0:0:
416,336,48014,1,0,0:0:0:0:
492,276,48228,6,0,P|492:236|476:200,1,80
408,132,48657,2,0,P|368:132|332:148,1,80,8|0,0:0|0:0,0:0:0:0:
252,204,49085,2,0,P|224:152|240:96,1,120
268,56,49514,1,8,0:0:0:0:
364,72,49728,6,0,P|392:88|408:132,1,80
436,224,50157,2,0,P|464:264|492:276,1,80,0|8,0:0|0:0,0:0:0:0:
336,212,50585,1,0,0:0:0:0:
336,312,50800,2,0,P|284:340|228:320,1,120
204,280,51228,2,0,P|164:256|128:256,1,80,8|0,0:0|0:0,0:0:0:0:
40,288,51657,5,4,0:0:0:0:
104,164,51871,2,0,P|104:120|120:88,1,80,0|8,0:0|0:0,0:0:0:0:
208,48,52300,1,0,0:0:0:0:
284,104,52514,2,0,P|352:96|396:68,1,120
428,32,52943,1,8,0:0:0:0:
484,112,53157,1,0,0:0:0:0:
420,184,53371,6,0,P|428:224|456:256,1,80
484,344,53800,1,8,0:0:0:0:
388,336,54014,1,0,0:0:0:0:
360,324,54121,1,0,0:0:0:0:
332,312,54228,2,0,P|272:308|216:328,1,120,0|0,0:0|0:0,0:0:0:0:
172,352,54657,1,8,0:0:0:0:
80,320,54871,1,0,0:0:0:0:
76,224,55085,6,0,P|44:184|40:152,1,80
172,244,55514,1,8,0:0:0:0:
172,244,55728,1,0,0:0:0:0:
260,224,55943,2,0,P|292:184|296:152,1,80
172,144,56371,1,8,0:0:0:0:
172,144,56585,1,0,0:0:0:0:
295,55,56800,6,0,P|260:39|220:39,1,80,2|0,0:0|0:0,0:0:0:0:
48,55,57228,2,0,P|84:39|124:40,1,80,10|0,0:0|0:0,0:0:0:0:
296,156,57657,1,2,0:0:0:0:
40,156,57871,1,0,0:0:0:0:
260,224,58085,1,10,0:0:0:0:
76,224,58300,1,0,0:0:0:0:
168,272,58514,6,0,B|144:236|168:196|192:156|168:116,1,160,4|8,0:0|0:0,0:0:0:0:
120,36,59157,1,0,0:0:0:0:
216,36,59371,1,0,0:0:0:0:
300,80,59585,1,0,0:0:0:0:
396,80,59800,1,8,0:0:0:0:
352,164,60014,1,0,0:0:0:0:
308,252,60228,6,0,P|352:272|384:272,1,80
440,196,60657,2,0,P|472:232|476:280,1,80,8|0,0:0|0:0,0:0:0:0:
440,196,61085,1,0,0:0:0:0:
440,196,61192,1,0,0:0:0:0:
440,196,61300,1,0,0:0:0:0:
224,224,61514,2,0,L|144:236,1,80,8|0,0:0|0:0,0:0:0:0:
48,248,61943,5,2,0:0:0:0:
116,68,62371,1,10,0:0:0:0:
224,224,62800,1,2,0:0:0:0:
304,52,63228,1,10,0:0:0:0:
256,192,63657,12,0,64942,0:0:0:0:
256,56,65371,5,14,0:0:0:0:
396,204,65692,1,10,0:0:0:0:
220,304,66014,1,2,0:0:0:0:
356,328,66228,1,6,0:0:0:0:
160,132,66657,1,8,0:0:0:0:
160,132,67085,6,0,P|184:72|232:44,1,120,4|0,0:0|0:0,0:0:0:0:
272,44,67514,1,8,0:0:0:0:
360,84,67728,1,0,0:0:0:0:
280,140,67942,1,0,0:0:0:0:
272,44,68157,1,0,0:0:0:0:
316,64,68264,1,0,0:0:0:0:
360,84,68371,2,0,P|376:120|376:160,1,80,8|0,0:0|0:0,0:0:0:0:
292,204,68800,6,0,P|292:268|312:320,1,120
344,356,69228,1,8,0:0:0:0:
404,280,69442,1,0,0:0:0:0:
368,192,69657,2,0,P|328:188|292:204,1,80
256,192,69978,1,0,0:0:0:0:
219,180,70085,2,0,P|183:196|144:192,1,80,8|0,0:0|0:0,0:0:0:0:
84,112,70514,6,0,P|100:72|124:44,1,80
208,92,70943,1,8,0:0:0:0:
304,92,71157,1,0,0:0:0:0:
388,44,71371,2,0,P|413:74|428:112,1,80
352,168,71800,1,8,0:0:0:0:
160,168,72014,1,0,0:0:0:0:
84,228,72228,6,0,P|112:280|164:312,1,120
208,328,72657,1,8,0:0:0:0:
256,192,72871,1,0,0:0:0:0:
296,280,73085,1,0,0:0:0:0:
388,300,73300,1,0,0:0:0:0:
416,308,73407,1,0,0:0:0:0:
444,316,73514,1,12,0:0:0:0:
472,124,73943,6,0,L|356:88,1,120,4|0,0:0|0:0,0:0:0:0:
312,68,74371,1,8,0:0:0:0:
216,56,74585,1,0,0:0:0:0:
120,44,74800,2,0,P|80:44|44:60,1,80
28,104,75121,1,0,0:0:0:0:
20,148,75228,2,0,P|44:180|80:196,1,80,8|0,0:0|0:0,0:0:0:0:
275,218,75657,6,0,P|217:202|172:164,1,120
144,124,76085,1,8,0:0:0:0:
80,196,76300,1,0,0:0:0:0:
144,124,76514,2,0,P|180:104|220:104,1,80
264,116,76835,2,0,P|320:136|380:136,1,120
436,216,77371,6,0,P|456:144|436:60,1,160,0|8,0:0|0:0,0:0:0:0:
276,220,78014,1,0,0:0:0:0:
276,220,78228,2,0,P|232:264|136:264,1,160,0|8,0:0|0:0,0:0:0:0:
188,184,78871,1,0,0:0:0:0:
112,128,79085,6,0,P|160:88|216:88,1,120,2|2,0:0|0:0,0:0:0:0:
344,156,79728,1,2,0:0:0:0:
360,60,79943,2,2,P|464:160|404:304,1,320,2|4,0:0|0:0,0:0:0:0:
312,336,81014,5,0,0:0:0:0:
256,260,81228,2,0,P|216:276|184:296,1,80,8|0,0:0|0:0,0:0:0:0:
100,340,81657,2,0,P|64:320|44:248,1,120
64,204,82085,2,0,P|96:184|140:184,1,80,8|0,0:0|0:0,0:0:0:0:
232,160,82514,6,0,P|312:136|360:80,1,160,0|8,0:0|0:0,0:0:0:0:
232,36,83157,2,0,P|152:60|104:116,1,160,0|8,0:0|0:0,0:0:0:0:
64,204,83800,1,8,0:0:0:0:
140,316,84014,1,8,0:0:0:0:
256,244,84228,6,0,P|296:288|352:312,1,120,4|0,0:0|0:0,0:0:0:0:
396,324,84657,1,8,0:0:0:0:
464,256,84871,1,0,0:0:0:0:
480,160,85085,2,0,P|464:96|424:56,1,120
384,36,85514,2,0,P|344:48|312:72,1,80,8|0,0:0|0:0,0:0:0:0:
256,148,85943,5,4,0:0:0:0:
324,268,86157,1,0,0:0:0:0:
188,268,86371,1,8,0:0:0:0:
256,148,86585,1,0,0:0:0:0:
200,72,86800,2,0,P|144:72|84:96,1,120
48,124,87228,2,0,L|28:204,1,80,8|0,0:0|0:0,0:0:0:0:
88,276,87657,5,4,0:0:0:0:
132,192,87871,2,0,L|180:128,1,80,0|8,0:0|0:0,0:0:0:0:
200,36,88300,1,0,0:0:0:0:
280,88,88514,2,0,P|328:88|356:72,1,80
400,52,88835,1,0,0:0:0:0:
444,32,88943,2,0,P|468:76|468:108,1,80,8|0,0:0|0:0,0:0:0:0:
396,168,89371,6,0,B|396:212|434:237|476:264|476:304,1,160,0|8,0:0|0:0,0:0:0:0:
396,352,90014,1,2,0:0:0:0:
304,332,90228,2,0,L|264:324,1,40,2|0,0:0|0:0,0:0:0:0:
304,236,90550,2,0,L|264:248,1,40,2|8,0:0|0:0,0:0:0:0:
180,292,90871,1,2,0:0:0:0:
80,112,91085,5,0,0:0:0:0:
152,176,91300,1,0,0:0:0:0:
184,88,91514,1,8,0:0:0:0:
256,24,91728,1,0,0:0:0:0:
328,88,91943,1,0,0:0:0:0:
256,152,92157,1,0,0:0:0:0:
352,176,92371,1,8,0:0:0:0:
424,112,92585,1,0,0:0:0:0:
448,208,92800,6,0,P|424:240|384:256,1,80,6|0,0:0|0:0,0:0:0:0:
296,248,93228,2,0,P|288:288|296:328,1,80,10|0,0:0|0:0,0:0:0:0:
467,341,93657,2,0,L|388:352,1,80,6|0,0:0|0:0,0:0:0:0:
204,352,94085,2,0,L|132:312,1,80,10|0,0:0|0:0,0:0:0:0:
56,256,94514,6,0,P|40:200|56:140,1,120,2|2,0:0|0:0,0:0:0:0:
256,96,95157,1,2,0:0:0:0:
256,300,95478,1,2,0:0:0:0:
396,152,95800,2,0,P|408:192|396:228,1,80,2|2,0:0|0:0,0:0:0:0:
256,192,96228,12,0,97943,0:0:0:0:
408,104,98800,6,0,L|340:208,1,120,4|0,0:0|0:0,0:0:0:0:
312,244,99228,1,8,0:0:0:0:
236,300,99442,2,0,P|264:332|300:336,1,80
392,308,99871,2,0,L|428:292,1,40
472,272,100085,1,8,0:0:0:0:
484,176,100300,1,0,0:0:0:0:
484,176,100514,6,0,P|464:120|408:104,1,120
364,88,100942,2,0,P|324:76|296:52,1,80,8|0,0:0|0:0,0:0:0:0:
200,28,101371,2,0,P|200:88|236:136,1,120
268,168,101800,2,0,L|256:248,1,80,8|0,0:0|0:0,0:0:0:0:
372,316,102228,6,0,L|448:284,2,80,0|0|8,0:0|0:0|0:0,0:0:0:0:
140,316,102871,2,0,L|64:284,2,80
172,184,103514,2,0,L|184:104,1,80,8|0,0:0|0:0,0:0:0:0:
36,168,103942,6,0,L|68:288,1,120
80,328,104371,1,8,0:0:0:0:
176,344,104585,1,0,0:0:0:0:
268,320,104800,2,0,P|308:300|344:300,1,80,0|12,0:0|0:0,0:0:0:0:
392,308,105121,1,0,0:0:0:0:
436,324,105228,1,12,0:0:0:0:
468,68,105657,6,0,P|412:48|352:60,1,120,4|0,0:0|0:0,0:0:0:0:
308,76,106085,2,0,P|272:76|232:56,1,80,8|0,0:0|0:0,0:0:0:0:
140,40,106514,1,0,0:0:0:0:
56,88,106728,1,0,0:0:0:0:
44,136,106835,1,0,0:0:0:0:
60,180,106942,2,0,P|68:216|96:248,1,80,8|0,0:0|0:0,0:0:0:0:
192,240,107371,6,0,P|256:240|304:212,1,120
340,184,107800,2,0,P|380:168|416:168,1,80,8|0,0:0|0:0,0:0:0:0:
480,288,108228,2,0,P|440:304|404:304,1,80,8|0,0:0|0:0,0:0:0:0:
308,296,108657,1,8,0:0:0:0:
216,328,108871,1,0,0:0:0:0:
120,336,109085,6,0,P|80:296|60:236,1,120
64,188,109514,1,8,0:0:0:0:
88,96,109728,1,0,0:0:0:0:
304,144,109942,2,0,P|276:92|224:64,1,120
176,56,110371,1,8,0:0:0:0:
88,96,110585,1,0,0:0:0:0:
136,180,110800,6,0,P|172:232|220:260,1,120,2|2,0:0|0:0,0:0:0:0:
340,184,111442,1,2,0:0:0:0:
340,88,111657,2,2,P|444:52|436:208,1,320
264,328,112835,6,0,L|400:312,1,120,2|2,0:0|0:0,0:0:0:0:
480,304,113371,1,2,0:0:0:0:
160,96,114228,2,0,L|104:216,1,120,2|2,0:0|0:0,0:0:0:0:
64,344,114871,2,0,L|152:336,1,80,2|2,0:0|0:0,0:0:0:0:
200,256,115407,1,2,0:0:0:0:
200,256,115514,2,0,L|240:176,1,80,2|2,0:0|0:0,0:0:0:0:
280,96,115942,6,0,L|400:56,1,120,2|2,0:0|0:0,0:0:0:0:
464,184,116585,2,0,L|384:208,1,80,2|2,0:0|0:0,0:0:0:0:
24,320,117657,2,0,L|80:208,1,120,2|2,0:0|0:0,0:0:0:0:
160,96,118300,1,2,0:0:0:0:
256,72,118514,2,0,L|256:192,1,120,2|2,0:0|0:0,0:0:0:0:
256,336,119157,1,2,0:0:0:0:
