osu file format v14

[General]
AudioFilename: Fairy Tail OP12.mp3
AudioLeadIn: 0
PreviewTime: 65290
Countdown: 0
SampleSet: Soft
StackLeniency: 0.7
Mode: 0
LetterboxInBreaks: 1
WidescreenStoryboard: 1

[Editor]
Bookmarks: 10363,47464
DistanceSpacing: 1
BeatDivisor: 4
GridSize: 4
TimelineZoom: 1.8

[Metadata]
Title:Tenohira
TitleUnicode:テノヒラ
Artist:HERO
ArtistUnicode:HERO
Creator:mion_6GKM
Version:Normal
Source:Fairy Tail
Tags:fairy tail op 12 key of the starry heaven mion
BeatmapID:719962
BeatmapSetID:323987

[Difficulty]
HPDrainRate:3
CircleSize:3
OverallDifficulty:3
ApproachRate:4
SliderMultiplier:1
SliderTickRate:2

[Events]
//Background and Video events
0,0,"Michelle.png",0,0
Video,0,"Fairy Tail Opening 12.avi"
//Break Periods
//Storyboard Layer 0 (Background)
//Storyboard Layer 1 (Fail)
//Storyboard Layer 2 (Pass)
//Storyboard Layer 3 (Foreground)
//Storyboard Sound Samples

[TimingPoints]
1088,289.855072463768,4,2,1,70,1,0
9928,-100,4,2,3,70,0,0
10073,-100,4,2,1,70,0,0
10218,-100,4,2,3,70,0,0
10363,-100,4,2,1,70,0,0
20943,-100,4,2,3,70,0,0
21087,-100,4,2,1,70,0,0
23261,-100,4,2,3,70,0,0
23406,-100,4,2,1,70,0,0
26450,-100,4,2,3,70,0,0
26595,-100,4,2,1,70,0,0
26885,-100,4,2,1,40,0,0
28914,-100,4,2,1,70,0,1
29203,-100,4,2,2,70,0,1
35001,-100,4,2,3,70,0,1
35145,-100,4,2,2,70,0,1
36160,-100,4,2,3,70,0,1
36305,-100,4,2,2,70,0,1
38189,-100,4,2,1,70,0,1
38479,-100,4,2,2,70,0,1
40798,-100,4,2,3,70,0,1
40943,-100,4,2,2,70,0,1
43116,-100,4,2,3,70,0,1
43261,-100,4,2,2,70,0,1
45145,-100,4,2,1,70,0,0
45435,-100,4,2,2,70,0,0
47464,-100,4,2,1,70,0,0
48914,-100,4,2,3,70,0,0
49059,-100,4,2,1,70,0,0
52899,-100,4,2,3,70,0,0
53044,-100,4,2,1,70,0,0
55725,-100,4,2,3,70,0,0
55870,-100,4,2,1,70,0,0
56305,-100,4,2,3,70,0,0
56450,-100,4,2,1,70,0,0
58044,-100,4,2,3,70,0,0
58189,-100,4,2,1,70,0,0
60363,-100,4,2,3,70,0,0
60508,-100,4,2,1,70,0,0
62392,-100,4,2,3,70,0,0
62537,-100,4,2,1,70,0,0
63696,-100,4,2,1,40,0,0
66015,-100,4,2,1,70,0,1
66305,-100,4,2,2,70,0,1
70943,-100,4,2,3,70,0,1
71087,-100,4,2,2,70,0,1
75290,-100,4,2,1,70,0,1
75580,-100,4,2,2,70,0,1
76740,-100,4,2,3,70,0,1
76885,-100,4,2,2,70,0,1
80218,-100,4,2,3,70,0,1
80363,-100,4,2,1,70,0,1
80725,-100,4,2,3,70,0,1
80870,-100,4,2,2,70,0,1
83406,-100,4,2,1,70,0,1
83551,-100,4,2,3,70,0,1
83696,-100,4,2,1,70,0,1
84131,-100,4,2,3,70,0,1
84276,-100,4,2,1,70,0,1
85870,-100,4,2,3,70,0,1
86015,-100,4,2,1,70,0,1
86885,-100,4,2,1,40,0,0

[Colours]
Combo1 : 128,128,255
Combo2 : 255,128,128
Combo3 : 255,128,64
Combo4 : 255,255,128
Combo5 : 128,255,128
Combo6 : 128,255,255
Combo7 : 0,128,255

[HitObjects]
80,92,1088,6,0,P|56:180|64:196,1,100,4|8,0:0|0:0,0:0:0:0:
72,280,1667,2,0,P|156:280|192:268,1,100,2|8,0:0|0:0,0:0:0:0:
220,268,2102,2,0,B|284:288|288:332|372:284,1,150,2|8,0:0|0:0,0:0:0:0:
340,192,2827,1,0,0:0:0:0:
256,136,3116,1,10,0:0:0:0:
208,132,3261,6,0,P|172:176|212:272,1,150,2|8,0:0|0:0,0:0:0:0:
292,280,3986,2,0,P|364:280|396:264,1,100,0|8,0:0|0:0,0:0:0:0:
428,176,4566,2,0,P|424:108|408:76,1,100,2|8,0:0|0:0,0:0:0:0:
312,80,5145,2,0,P|256:84|212:64,1,100,0|8,0:0|0:0,0:0:0:0:
120,92,5725,6,0,P|96:152|108:196,1,100,2|8,0:0|0:0,0:0:0:0:
184,244,6305,2,0,P|252:248|276:292,1,100,2|8,0:0|0:0,0:0:0:0:
312,296,6740,2,0,P|368:304|420:284,1,100,2|2,0:0|0:0,0:0:0:0:
436,252,7174,1,8,0:0:0:0:
448,152,7464,2,0,P|384:140|332:160,1,100,2|8,0:0|0:0,0:0:0:0:
304,160,7899,6,0,P|228:164|196:148,1,100,2|2,0:0|0:0,0:0:0:0:
164,132,8334,1,8,0:0:0:0:
76,180,8624,2,0,P|72:232|104:272,1,100,2|8,0:3|0:0,0:0:0:0:
200,276,9203,2,0,P|264:284|276:328,1,100,0|8,0:0|0:0,0:0:0:0:
376,308,9783,2,0,P|420:248|432:212,2,100,4|8|4,3:3|0:0|0:0,0:0:0:0:
276,316,10653,5,8,0:0:0:0:
184,280,10943,1,0,0:0:0:0:
84,288,11232,2,0,P|64:232|76:176,1,100,8|0,0:0|0:0,0:0:0:0:
140,120,11812,2,0,P|200:128|256:104,1,100,8|0,0:0|0:0,0:0:0:0:
332,88,12392,2,0,P|396:120|400:148,1,100,8|0,0:0|0:0,0:0:0:0:
340,220,12972,6,0,P|328:296|400:308,1,150,8|0,0:0|0:0,0:0:0:0:
432,300,13551,1,8,0:0:0:0:
444,200,13841,1,0,0:0:0:0:
384,120,14131,1,8,0:0:0:0:
288,144,14421,2,0,L|180:144,1,100,0|8,0:0|0:0,0:0:0:0:
88,160,15001,6,0,L|88:264,1,100,0|8,0:0|0:0,0:0:0:0:
180,296,15580,2,0,L|284:296,1,100,0|8,0:0|0:0,0:0:0:0:
356,232,16160,1,0,0:0:0:0:
384,136,16450,1,8,0:0:0:0:
292,92,16740,1,0,0:0:0:0:
212,156,17030,2,0,L|96:156,1,100,8|0,0:0|0:0,0:0:0:0:
64,244,17609,6,0,P|88:292|132:316,1,100,8|2,0:0|0:0,0:0:0:0:
172,296,18044,1,2,0:0:0:0:
220,292,18189,2,0,L|324:292,1,100,10|2,0:0|0:3,0:0:0:0:
372,208,18769,1,8,0:0:0:0:
292,148,19059,1,8,0:0:0:0:
196,180,19348,1,8,0:0:0:0:
96,168,19638,6,0,P|76:240|84:264,2,100,4|0|8,0:0|0:0|0:0,0:0:0:0:
184,120,20508,1,0,0:0:0:0:
276,76,20798,2,0,P|328:104|316:188,1,150
276,208,21377,2,0,P|272:256|324:288,1,100,8|0,0:0|0:0,0:0:0:0:
400,244,21957,1,0,0:0:0:0:
456,160,22247,6,0,P|456:96|432:64,1,100,0|8,0:0|0:0,0:0:0:0:
340,100,22827,1,0,0:0:0:0:
248,64,23116,2,0,P|184:68|120:128,1,150
120,172,23696,1,8,0:0:0:0:
100,268,23986,2,0,P|152:296|192:292,1,100
276,240,24566,6,0,P|332:228|372:252,1,100,0|8,0:0|0:0,0:0:0:0:
432,172,25145,1,0,0:0:0:0:
356,108,25435,1,0,0:0:0:0:
260,136,25725,2,0,L|160:136,1,100,0|8,0:0|0:0,0:0:0:0:
60,148,26305,2,0,L|68:256,1,100
256,192,26885,12,0,28914,0:0:0:0:
80,84,29493,6,0,P|92:176|92:204,1,100,2|8,0:0|0:0,0:0:0:0:
88,284,30073,2,0,P|156:292|192:272,1,100,2|10,0:0|0:0,0:0:0:0:
248,204,30653,2,0,P|312:188|348:200,1,100,2|8,0:0|0:0,0:0:0:0:
400,280,31232,6,0,P|436:216|440:168,1,100,2|8,0:0|0:0,0:0:0:0:
408,152,31667,1,0,0:0:0:0:
364,128,31812,2,0,L|264:128,1,100,2|8,0:0|0:0,0:0:0:0:
172,88,32392,2,0,P|104:124|100:164,1,100,2|10,0:0|0:0,0:0:0:0:
144,232,32972,1,2,0:0:0:0:
80,308,33261,1,8,0:0:0:0:
180,324,33551,6,0,P|256:324|288:320,1,100,2|8,0:0|0:0,0:0:0:0:
352,252,34131,2,0,P|408:240|464:264,1,100,2|10,0:0|0:0,0:0:0:0:
468,156,34711,2,0,P|408:108|304:180,1,200,2|2,0:0|0:0,0:0:0:0:
208,168,35580,1,8,0:0:0:0:
108,184,35870,6,0,P|104:240|176:308,2,150,2|2|10,0:0|0:0|0:0,0:0:0:0:
156,96,37030,2,0,L|264:96,1,100,2|10,0:0|0:0,0:0:0:0:
328,168,37609,2,0,L|444:168,1,100,0|8,0:0|0:0,0:0:0:0:
412,268,38189,6,0,P|336:304|304:300,1,100,4|10,0:0|0:0,0:0:0:0:
272,292,38624,1,0,0:0:0:0:
224,308,38769,2,0,P|140:312|116:296,1,100,2|10,0:0|0:0,0:0:0:0:
84,216,39348,2,0,P|140:176|152:140,1,100,2|10,0:0|0:0,0:0:0:0:
232,88,39928,2,0,P|296:88|336:84,1,100,2|8,0:0|0:0,0:0:0:0:
420,132,40508,6,0,P|420:192|348:264,2,150,2|0|10,0:0|0:0|0:0,0:0:0:0:
324,100,41667,2,0,L|216:100,1,100,0|10,0:0|0:0,0:0:0:0:
128,128,42247,2,0,P|92:188|92:232,1,100,2|8,0:0|0:0,0:0:0:0:
188,228,42827,6,0,P|168:300|240:320,1,150,2|0,0:0|0:0,0:0:0:0:
272,304,43406,2,0,P|336:300|384:316,2,100,0|8|2,0:0|0:0|0:0,0:0:0:0:
176,280,44276,1,8,0:0:0:0:
212,188,44566,1,8,0:0:0:0:
128,136,44856,1,8,0:0:0:0:
128,136,45145,6,0,P|72:168|64:208,1,100,4|0,0:0|0:0,0:0:0:0:
108,288,45725,2,0,P|176:300|216:284,1,100,10|2,0:0|0:0,0:0:0:0:
292,248,46305,2,0,P|360:240|404:260,1,100,2|8,0:0|0:0,0:0:0:0:
412,152,46885,2,2,L|352:148,2,50,2|10|10,0:0|0:0|0:0,0:0:0:0:
412,252,47464,6,0,P|360:304|316:308,1,100,4|8,0:0|0:0,0:0:0:0:
260,244,48044,2,0,P|192:244|152:268,1,100,0|8,0:0|0:0,0:0:0:0:
92,188,48624,2,0,P|100:128|180:136,1,150
220,156,49203,1,0,0:0:0:0:
308,112,49493,2,0,L|420:112,1,100,8|0,0:0|0:0,0:0:0:0:
424,212,50073,6,0,P|416:284|388:300,1,100,8|0,0:0|0:0,0:0:0:0:
300,280,50653,2,0,P|244:280|188:304,1,100,8|0,0:0|0:0,0:0:0:0:
104,308,51232,2,0,P|80:260|104:212,1,100,8|0,0:0|0:0,0:0:0:0:
176,156,51812,1,8,0:0:0:0:
120,72,52102,1,0,0:0:0:0:
120,72,52392,2,0,B|192:96|216:40|272:100,2,150,8|0|0,0:0|0:0|0:0,0:0:0:0:
92,168,53551,6,0,P|96:236|120:260,1,100,8|0,0:0|0:0,0:0:0:0:
208,220,54131,2,0,P|280:212|316:224,1,100,8|0,0:0|0:0,0:0:0:0:
356,304,54711,2,0,P|408:272|436:236,2,100,8|0|8,0:0|0:0|0:0,0:0:0:0:
256,304,55580,2,0,L|156:304,1,100,4|8,0:3|0:0,0:0:0:0:
92,228,56160,2,0,L|196:228,1,100,8|8,0:0|0:0,0:0:0:0:
248,144,56740,6,0,P|344:136|384:220,1,200,4|8,0:0|0:0,0:0:0:0:
284,232,57609,1,0,0:0:0:0:
192,272,57899,2,0,P|120:280|88:204,1,150
84,168,58479,2,0,L|204:168,1,100,8|0,0:0|0:0,0:0:0:0:
268,112,59059,2,0,L|352:176|352:176,2,100,0|0|8,0:0|0:0|0:0,0:0:0:0:
168,100,59928,1,0,0:0:0:0:
100,172,60218,6,0,P|112:256|100:288,1,100
208,288,60798,2,0,P|272:296|312:284,1,100,8|0,0:0|0:0,0:0:0:0:
348,260,61232,1,0,0:0:0:0:
380,164,61522,1,0,0:0:0:0:
344,132,61667,2,0,P|272:112|240:128,1,100,0|8,0:0|0:0,0:0:0:0:
152,136,62247,6,0,L|48:168,1,100,0|8,0:0|0:0,0:0:0:0:
68,264,62827,2,0,L|172:232,2,100,0|8|0,0:0|0:0|0:0,0:0:0:0:
256,192,63696,12,4,66015,0:0:0:0:
112,64,66595,6,0,P|104:128|124:176,1,100,2|8,0:0|0:0,0:0:0:0:
212,176,67174,2,0,P|224:248|216:296,1,100,2|10,0:0|0:0,0:0:0:0:
316,308,67754,2,0,P|384:308|424:292,2,100,2|8|2,0:0|0:0|0:0,0:0:0:0:
236,248,68624,1,8,0:0:0:0:
148,296,68914,1,0,0:0:0:0:
80,224,69203,1,10,0:0:0:0:
132,136,69493,6,0,L|248:136,1,100,0|10,0:0|0:0,0:0:0:0:
320,92,70073,2,0,P|364:144|364:172,1,100,2|8,0:0|0:0,0:0:0:0:
284,232,70653,2,0,P|268:304|336:316,1,150,2|0,0:0|0:0,0:0:0:0:
376,304,71232,2,0,P|412:296|488:328,1,100,2|10,0:0|0:0,0:0:0:0:
436,220,71812,1,2,0:0:0:0:
396,128,72102,2,0,L|280:128,1,100,8|2,0:0|0:0,0:0:0:0:
200,100,72682,1,8,0:0:0:0:
100,116,72972,6,0,P|104:180|72:220,1,100,2|10,0:0|0:0,0:0:0:0:
60,304,73551,2,0,P|120:320|168:304,1,100,2|8,0:0|0:0,0:0:0:0:
236,248,74131,1,2,0:0:0:0:
324,292,74421,1,10,0:0:0:0:
420,264,74711,2,0,L|428:152,2,100,0|8|4,0:0|0:0|0:0,0:0:0:0:
324,292,75580,6,0,L|224:292,1,100,10|0,0:0|0:0,0:0:0:0:
128,264,76160,1,10,0:0:0:0:
132,164,76450,2,0,P|208:168|168:84,1,200,2|2,0:0|0:0,0:0:0:0:
76,96,77319,1,8,0:0:0:0:
44,192,77609,2,0,L|64:292,1,100,2|8,0:0|0:0,0:0:0:0:
164,292,78189,2,0,L|280:296,1,100,0|8,0:0|0:0,0:0:0:0:
356,252,78769,6,0,P|388:196|396:144,1,100,0|10,0:0|0:0,0:0:0:0:
296,156,79348,2,0,P|232:160|200:136,1,100,2|8,0:0|0:0,0:0:0:0:
112,104,79928,2,0,B|84:137|108:169|108:169|56:173|84:225,1,150,2|0,0:0|0:0,0:0:0:0:
96,272,80508,2,0,P|160:292|256:268,1,150,2|0,0:0|0:0,0:0:0:0:
284,252,81087,1,2,0:0:0:0:
384,240,81377,6,0,P|412:176|412:132,1,100,8|2,0:0|0:0,0:0:0:0:
324,100,81957,2,0,P|256:108|216:96,1,100,8|2,0:0|0:0,0:0:0:0:
128,116,82537,1,10,0:0:0:0:
164,208,82827,1,0,0:0:0:0:
96,280,83116,1,8,0:0:0:0:
188,316,83406,6,0,L|288:316,1,100,8|8,0:0|0:0,0:0:0:0:
344,232,83986,2,0,L|456:232,1,100,8|8,0:0|0:0,0:0:0:0:
424,132,84566,2,0,P|344:132|264:88,1,150,4|0,0:0|0:0,0:0:0:0:
232,104,85145,5,8,0:0:0:0:
132,112,85435,1,0,0:0:0:0:
88,200,85725,2,0,P|104:272|128:288,1,100
216,320,86305,2,0,P|216:260|184:224,1,100,8|0,0:0|0:0,0:0:0:0:
256,192,86885,12,0,89203,0:0:0:0:
