osu file format v14

[General]
AudioFilename: Fairy Tail OP12.mp3
AudioLeadIn: 0
PreviewTime: 65290
Countdown: 0
SampleSet: Soft
StackLeniency: 0.7
Mode: 0
LetterboxInBreaks: 1
WidescreenStoryboard: 1

[Editor]
Bookmarks: 10363,47464
DistanceSpacing: 1
BeatDivisor: 2
GridSize: 4
TimelineZoom: 1.7

[Metadata]
Title:Tenohira
TitleUnicode:テノヒラ
Artist:HERO
ArtistUnicode:HERO
Creator:mion_6GKM
Version:Easy
Source:Fairy Tail
Tags:fairy tail op 12 key of the starry heaven mion
BeatmapID:719960
BeatmapSetID:323987

[Difficulty]
HPDrainRate:2
CircleSize:3
OverallDifficulty:1
ApproachRate:3
SliderMultiplier:0.7
SliderTickRate:2

[Events]
//Background and Video events
0,0,"Michelle.png",0,0
Video,0,"Fairy Tail Opening 12.avi"
//Break Periods
//Storyboard Layer 0 (Background)
//Storyboard Layer 1 (Fail)
//Storyboard Layer 2 (Pass)
//Storyboard Layer 3 (Foreground)
//Storyboard Sound Samples

[TimingPoints]
1088,289.855072463768,4,2,1,70,1,0
1377,-100,4,2,3,70,0,0
1522,-100,4,2,1,70,0,0
2537,-100,4,2,3,70,0,0
2682,-100,4,2,1,70,0,0
3696,-100,4,2,3,70,0,0
3841,-100,4,2,1,70,0,0
4856,-100,4,2,3,70,0,0
5001,-100,4,2,1,70,0,0
6015,-100,4,2,3,70,0,0
6160,-100,4,2,1,70,0,0
7174,-100,4,2,3,70,0,0
7319,-100,4,2,1,70,0,0
8334,-100,4,2,3,70,0,0
8479,-100,4,2,1,70,0,0
9928,-100,4,2,3,70,0,0
10363,-100,4,2,1,70,0,0
11232,-100,4,2,3,70,0,0
11377,-100,4,2,1,70,0,0
12392,-100,4,2,3,70,0,0
12537,-100,4,2,1,70,0,0
16450,-100,4,2,3,70,0,0
16595,-100,4,2,1,70,0,0
18914,-100,4,2,3,70,0,0
19203,-100,4,2,1,70,0,0
19348,-100,4,2,3,70,0,0
19638,-100,4,2,1,70,0,0
20943,-100,4,2,3,70,0,0
21087,-100,4,2,1,70,0,0
26305,-100,4,2,3,70,0,0
26595,-100,4,2,1,70,0,0
26885,-100,4,2,1,40,0,0
28914,-100,4,2,1,70,0,1
29203,-100,4,2,2,70,0,1
31522,-100,4,2,3,70,0,1
31667,-100,4,2,2,70,0,1
33841,-100,4,2,3,70,0,1
33986,-100,4,2,3,70,0,1
34086,-100,4,2,2,70,0,1
35001,-100,4,2,3,70,0,1
35145,-100,4,2,2,70,0,1
36160,-100,4,2,3,70,0,1
36305,-100,4,2,2,70,0,1
37319,-100,4,2,3,70,0,1
37464,-100,4,2,2,70,0,1
38189,-100,4,2,1,70,0,1
38479,-100,4,2,3,70,0,1
38624,-100,4,2,2,70,0,1
39638,-100,4,2,3,70,0,1
39783,-100,4,2,2,70,0,1
40218,-100,4,2,3,70,0,1
40363,-100,4,2,2,70,0,1
44711,-100,4,2,3,70,0,1
45145,-100,4,2,1,70,0,0
45435,-100,4,2,1,40,0,0
47464,-100,4,2,1,70,0,0
48914,-100,4,2,3,70,0,0
49059,-100,4,2,1,70,0,0
55725,-100,4,2,3,70,0,0
55870,-100,4,2,1,70,0,0
56305,-100,4,2,3,70,0,0
56740,-100,4,2,1,70,0,0
58914,-100,4,2,3,70,0,0
59059,-100,4,2,1,70,0,0
61232,-100,4,2,3,70,0,0
61377,-100,4,2,1,70,0,0
63696,-100,4,2,1,40,0,0
66015,-100,4,2,1,70,0,1
66305,-100,4,2,2,70,0,1
68624,-100,4,2,3,70,0,1
68769,-100,4,2,2,70,0,1
70943,-100,4,2,3,70,0,1
71087,-100,4,2,2,70,0,1
73261,-100,4,2,3,70,0,1
73406,-100,4,2,2,70,0,1
73841,-100,4,2,3,70,0,1
73986,-100,4,2,2,70,0,1
75290,-100,4,2,1,70,0,1
75580,-100,4,2,3,70,0,1
75725,-100,4,2,2,70,0,1
76740,-100,4,2,3,70,0,1
76885,-100,4,2,2,70,0,1
77319,-100,4,2,3,70,0,1
77464,-100,4,2,2,70,0,1
80218,-100,4,2,3,70,0,1
80363,-100,4,2,2,70,0,1
81377,-100,4,2,3,70,0,1
81522,-100,4,2,2,70,0,1
83406,-100,4,2,1,70,0,1
83841,-100,4,2,3,70,0,1
83986,-100,4,2,1,70,0,1
84421,-100,4,2,3,70,0,1
84566,-100,4,2,1,70,0,1
85580,-100,4,2,3,70,0,1
85870,-100,4,2,1,70,0,1
86885,-100,4,2,1,40,0,0

[Colours]
Combo1 : 128,128,255
Combo2 : 255,128,128
Combo3 : 255,128,64
Combo4 : 255,255,128
Combo5 : 128,255,128
Combo6 : 128,255,255
Combo7 : 0,128,255

[HitObjects]
104,56,1088,6,0,P|84:124|128:252,2,210,0|8|2,0:0|0:0|0:0,0:0:0:0:
200,100,3261,2,0,P|216:164|316:196,1,175,2|2,0:0|0:0,0:0:0:0:
392,128,4421,2,0,P|440:176|412:280,1,175,2|2,0:0|0:0,0:0:0:0:
328,220,5580,6,0,P|236:244|152:180,1,175,2|2,0:0|0:0,0:0:0:0:
76,252,6740,2,0,P|68:292|176:320,1,175,2|2,0:0|0:0,0:0:0:0:
264,280,7899,6,0,P|340:296|432:256,1,175,2|2,0:0|0:3,0:0:0:0:
376,168,9059,2,0,P|316:168|252:144,1,105,4|8,0:0|0:0,0:0:0:0:
216,116,9783,2,0,P|136:124|104:180,1,140,4|4,0:3|0:0,0:0:0:0:
196,280,10943,6,0,L|356:280,1,140
384,232,11812,1,8,0:0:0:0:
380,164,12102,2,0,P|324:144|252:180,1,140
184,180,12972,1,8,0:0:0:0:
268,292,13551,6,0,P|352:308|412:296,2,140,8|8|8,0:0|0:0|0:0,0:0:0:0:
196,296,15001,2,0,P|148:296|104:276,1,70,0|8,0:0|0:0,0:0:0:0:
40,180,15870,1,8,0:0:0:0:
96,136,16160,6,0,P|144:112|248:116,1,140
300,108,17030,2,0,L|388:108,1,70,8|0,0:0|0:0,0:0:0:0:
424,152,17609,6,0,P|432:212|384:280,1,140,8|8,0:0|0:0,0:0:0:0:
320,288,18479,1,2,0:3:0:0:
252,280,18769,2,0,L|132:280,2,105,8|8|4,0:0|0:0|0:0,0:0:0:0:
364,196,20218,5,8,0:0:0:0:
276,88,20798,2,0,L|184:108,1,70
140,124,21377,2,0,P|124:188|168:276,1,140,8|0,0:0|0:0,0:0:0:0:
284,296,22537,2,0,L|376:296,1,70,8|0,0:0|0:0,0:0:0:0:
404,248,23116,6,0,P|412:168|396:84,2,140,0|8|0,0:0|0:0|0:0,0:0:0:0:
332,252,24566,2,0,L|252:252,1,70,0|8,0:0|0:0,0:0:0:0:
120,248,25435,2,0,L|120:160,1,70
164,124,26015,2,0,P|264:140|320:112,1,140,8|0,0:0|0:0,0:0:0:0:
256,192,26885,12,4,28914,0:0:0:0:
392,144,30073,5,0,0:0:0:0:
336,188,30363,2,0,L|360:284,2,70,10|2|8,0:0|0:0|0:0,0:0:0:0:
280,148,31232,2,0,P|196:112|124:132,1,140,2|0,0:0|0:0,0:0:0:0:
84,144,32102,1,10,0:0:0:0:
108,212,32392,2,0,L|168:276,1,70,0|10,0:0|0:0,0:0:0:0:
416,156,33551,6,0,L|396:268,2,105,2|0|10,0:0|0:0|0:0,0:0:0:0:
384,92,34711,2,0,B|324:60|308:116|232:88,1,140,0|2,0:0|0:0,0:0:0:0:
180,116,35580,1,10,0:0:0:0:
248,132,35870,6,0,L|372:132,2,105,2|2|10,0:0|0:0|0:0,0:0:0:0:
180,152,37030,2,0,B|148:208|216:232|152:304,1,140,2|0,0:0|0:0,0:0:0:0:
304,280,38189,6,0,P|376:288|444:256,1,140,4|0,0:0|0:0,0:0:0:0:
412,196,39059,1,10,0:0:0:0:
368,144,39348,2,0,P|288:112|220:132,2,140,0|2|2,0:0|0:0|0:0,0:0:0:0:
412,196,40798,6,0,L|424:264,1,70,8|0,0:0|0:0,0:0:0:0:
372,312,41377,2,0,P|300:328|212:304,1,140,10|10,0:0|0:0,0:0:0:0:
168,292,42247,1,2,0:0:0:0:
100,304,42537,6,0,P|79:238|102:173,2,140,8|8|8,0:0|0:0|0:0,0:0:0:0:
172,296,43986,1,0,0:0:0:0:
312,284,44566,2,0,P|408:272|424:224,1,140,10|4,0:0|0:0,0:0:0:0:
256,192,45435,12,4,47464,0:0:0:0:
116,96,48334,5,8,0:0:0:0:
68,148,48624,2,0,P|72:232|116:284,1,140
172,260,49493,2,0,L|264:260,1,70,8|0,0:0|0:0,0:0:0:0:
300,296,50073,2,0,P|360:296|416:232,2,140,8|8|8,0:0|0:0|0:0,0:0:0:0:
232,276,51522,5,0,0:0:0:0:
164,288,51812,2,0,L|76:288,2,70,8|0|8,0:0|0:0|0:0,0:0:0:0:
304,288,52972,2,0,P|328:188|304:136,1,140,8|8,0:0|0:0,0:0:0:0:
248,140,53841,2,0,L|160:140,1,70,0|8,0:0|0:0,0:0:0:0:
108,140,54421,1,0,0:0:0:0:
52,184,54711,2,0,P|44:240|124:288,1,140,8|8,0:0|0:0,0:0:0:0:
172,292,55580,6,0,L|264:292,1,70,4|8,3:3|0:0,0:0:0:0:
304,256,56160,2,0,B|376:260|372:304|468:268,1,140,8|4,0:0|0:0,0:0:0:0:
380,144,57319,1,8,0:0:0:0:
256,76,57899,2,0,L|156:76,1,70,4|0,3:0|0:0,0:0:0:0:
116,84,58479,2,0,P|84:160|104:228,1,140,8|0,0:0|0:0,0:0:0:0:
144,264,59348,5,0,0:0:0:0:
284,276,59928,1,0,0:0:0:0:
356,276,60218,2,0,B|364:228|364:228|416:192|380:132,1,140,0|8,0:0|0:0,0:0:0:0:
332,108,61087,2,0,L|248:108,2,70
120,116,62537,2,0,P|104:188|104:200,1,70,8|0,0:0|0:0,0:0:0:0:
120,252,63116,2,0,P|184:276|208:268,1,70,8|0,0:0|0:0,0:0:0:0:
256,192,63696,12,4,66015,0:0:0:0:
392,108,67174,6,0,P|412:188|412:192,1,70,0|10,0:0|0:0,0:0:0:0:
376,236,67754,2,0,L|304:236,1,70,2|8,0:0|0:0,0:0:0:0:
240,260,68334,2,0,P|156:256|128:204,1,140,2|0,0:0|0:0,0:0:0:0:
132,144,69203,2,0,L|224:144,1,70,8|2,0:0|0:0,0:0:0:0:
264,112,69783,1,10,0:0:0:0:
432,240,70653,6,0,P|392:300|320:296,1,140,2|2,0:0|0:0,0:0:0:0:
260,284,71522,2,0,L|172:284,1,70,10|0,0:0|0:0,0:0:0:0:
120,284,72102,2,0,L|120:204,1,70,8|2,0:0|0:0,0:0:0:0:
84,152,72682,1,8,0:0:0:0:
128,96,72972,6,0,B|224:124|268:88|268:88|224:124|260:228,1,280,2|2,0:0|0:0,0:0:0:0:
212,268,74421,1,10,0:0:0:0:
272,304,74711,2,0,L|356:304,1,70,0|8,0:0|0:0,0:0:0:0:
400,264,75290,6,0,P|424:180|412:112,1,140,4|0,0:0|0:0,0:0:0:0:
352,104,76160,1,10,0:0:0:0:
284,120,76450,2,0,B|212:152|196:72|136:120,2,140,2|2|2,0:0|0:0|0:0,0:0:0:0:
332,172,77899,5,8,0:0:0:0:
336,240,78189,2,0,L|252:240,1,70,0|8,0:0|0:0,0:0:0:0:
196,240,78769,2,0,L|112:240,1,70,0|10,0:0|0:0,0:0:0:0:
88,180,79348,2,0,L|84:96,1,70,2|8,0:0|0:0,0:0:0:0:
144,76,79928,6,0,P|188:88|304:72,1,140,2|0,0:0|0:0,0:0:0:0:
408,136,81087,2,0,P|424:188|384:272,1,140,0|2,0:0|0:0,0:0:0:0:
324,248,81957,1,8,0:0:0:0:
256,272,82247,2,0,L|172:272,1,70,0|10,0:0|0:0,0:0:0:0:
116,272,82827,2,0,L|116:184,1,70,0|8,0:0|0:0,0:0:0:0:
148,140,83406,5,0,0:0:0:0:
204,96,83696,2,0,L|288:96,1,70,8|8,0:0|0:0,0:0:0:0:
312,156,84276,2,0,L|392:156,1,70,8|4,0:0|0:0,0:0:0:0:
376,296,85145,6,0,B|328:288|296:352|296:352|264:288|208:312,1,210,8|0,0:0|0:0,0:0:0:0:
144,312,86305,2,0,L|92:260,1,70,8|0,0:0|0:0,0:0:0:0:
256,192,86885,12,0,89203,0:0:0:0:
