osu file format v12

[General]
AudioFilename: FT OP12[Allen_cross].mp3
AudioLeadIn: 0
PreviewTime: 27174
Countdown: 0
SampleSet: Soft
StackLeniency: 0.7
Mode: 0
LetterboxInBreaks: 0
EpilepsyWarning: 1
WidescreenStoryboard: 1

[Editor]
DistanceSpacing: 1
BeatDivisor: 4
GridSize: 8
TimelineZoom: 1

[Metadata]
Title:Tenohira (TV Size)
TitleUnicode:Tenohira (TV Size)
Artist:HERO
ArtistUnicode:HERO
Creator:Raisa12
Version:Normal
Source:Fairy Tail
Tags:Opening 12 dekutai Natsu Lucy Michelle Hanjamon
BeatmapID:333297
BeatmapSetID:131705

[Difficulty]
HPDrainRate:4
CircleSize:3
OverallDifficulty:4
ApproachRate:5
SliderMultiplier:1
SliderTickRate:2

[Events]
//Background and Video events
Video,0,"Nalu.avi"
0,0,"RailgunBG.png",0,0
//Break Periods
2,45345,46554
//Storyboard Layer 0 (Background)
//Storyboard Layer 1 (Fail)
//Storyboard Layer 2 (Pass)
//Storyboard Layer 3 (Foreground)
//Storyboard Sound Samples
//Background Colour Transformations
3,100,163,162,255

[TimingPoints]
1088,289.855072463768,4,2,1,65,1,0
1305,-100,4,2,2,65,0,0
1450,-100,4,2,1,65,0,0
5363,-100,4,2,2,65,0,0
5508,-100,4,2,1,65,0,0
12319,-100,4,2,2,65,0,0
12464,-100,4,2,1,65,0,0
14059,-100,4,2,2,65,0,0
14203,-100,4,2,1,65,0,0
18696,-100,4,2,2,50,0,0
18841,-100,4,2,1,65,0,0
19276,-100,4,2,2,50,0,0
19421,-100,4,2,1,65,0,0
22464,-100,4,2,2,65,0,0
22609,-100,4,2,1,65,0,0
24203,-100,4,2,2,65,0,0
24348,-100,4,2,1,65,0,0
28914,-100,4,2,1,80,0,1
34348,-100,4,2,2,80,0,1
34493,-100,4,2,1,80,0,1
43044,-100,4,2,2,80,0,1
43189,-100,4,2,1,80,0,1
43624,-100,4,2,2,80,0,1
43769,-100,4,2,1,80,0,1
45145,-100,4,2,1,65,0,0
51160,-100,4,2,2,65,0,0
51305,-100,4,2,1,65,0,0
55798,-100,4,2,2,65,0,0
55943,-100,4,2,1,65,0,0
56377,-100,4,2,2,65,0,0
56522,-100,4,2,1,80,0,0
66015,-100,4,2,1,80,0,1
74928,-100,4,2,2,80,0,1
75073,-100,4,2,1,80,0,1
78406,-100,4,2,2,80,0,1
78551,-100,4,2,1,80,0,1
81885,-100,4,2,2,80,0,1
82030,-100,4,2,1,80,0,1
83044,-100,4,2,2,80,0,1
83189,-100,4,2,1,80,0,1
84203,-100,4,2,2,65,0,1
84348,-100,4,2,1,80,0,1
86885,-100,4,2,1,80,0,0
86981,-100,4,2,1,5,0,0

[Colours]
Combo1 : 128,191,255
Combo2 : 128,128,255
Combo3 : 255,255,128
Combo4 : 241,163,241
Combo5 : 255,128,128

[HitObjects]
56,208,1088,6,0,P|104:280|216:272,1,200,4|0,0:0|0:0,0:0:0:0:
296,228,1957,2,0,P|391:220|456:296,1,200,8|8,0:0|0:0,0:0:0:0:
352,320,2827,1,0,0:0:0:0:
352,320,3116,6,0,L|416:117,1,200,8|8,0:0|0:0,0:0:0:0:
352,48,3986,1,0,0:0:0:0:
284,120,4276,2,0,P|265:156|115:166,1,200,8|8,0:0|0:0,0:0:0:0:
188,96,5145,2,0,P|112:72|40:116,2,150,0|2|8,0:0|0:0|0:0,0:0:0:0:
124,172,6305,5,0,0:0:0:0:
180,256,6595,1,8,0:0:0:0:
216,292,6740,2,0,B|288:336|380:280,1,150,0|8,0:0|0:0,0:0:0:0:
436,228,7464,1,0,0:0:0:0:
476,136,7754,1,8,0:0:0:0:
440,100,7899,2,0,B|368:55|296:99,1,150,0|8,0:0|0:0,0:0:0:0:
256,188,8624,1,0,0:0:0:0:
256,192,8914,12,4,10363,0:0:0:0:
369,78,10943,6,0,L|356:196,1,100,8|8,0:0|0:0,0:0:0:0:
336,224,11377,2,0,P|271:258|197:246,1,150,2|8,0:0|0:0,0:0:0:0:
104,284,12102,2,0,B|85:223|-1:191|-1:191|42:110|12:43,1,300,0|8,0:0|0:0,0:0:0:0:
112,24,13261,2,0,P|124:84|120:144,1,100,0|8,0:0|0:0,0:0:0:0:
172,208,13841,6,0,P|268:236|352:176,1,200
420,116,14711,1,8,0:0:0:0:
492,188,15001,2,0,L|512:300,2,100,0|8|0,0:0|0:0|0:0,0:0:0:0:
420,116,15870,6,0,P|370:116|321:127,1,100,8|0,0:0|0:0,0:0:0:0:
228,164,16450,2,0,P|179:174|129:175,1,100,8|0,0:0|0:0,0:0:0:0:
72,92,17030,2,0,P|28:173|83:266,1,200,8|8,0:0|0:0,0:0:0:0:
256,344,18189,1,8,0:0:0:0:
308,260,18479,6,0,P|354:176|310:90,2,200,0|8|4,0:0|0:0|0:0,0:0:0:0:
208,260,19928,6,0,L|104:272,1,100,0|8,0:0|0:0,0:0:0:0:
48,188,20508,1,0,0:0:0:0:
72,92,20798,5,8,0:0:0:0:
156,36,21087,2,0,L|255:24,1,100,0|8,0:0|0:0,0:0:0:0:
356,20,21667,2,0,P|368:76|356:136,1,100,0|8,0:0|0:0,0:0:0:0:
348,216,22247,2,0,P|268:276|164:252,1,200
96,200,23116,6,0,P|90:150|102:102,1,100,8|0,0:0|0:0,0:0:0:0:
184,40,23696,2,0,L|340:60|340:60,2,150,8|0|8,0:0|0:0|0:0,0:0:0:0:
88,8,24856,1,8,0:0:0:0:
36,92,25145,2,0,L|24:204,1,100,0|8,0:0|0:0,0:0:0:0:
108,248,25725,2,0,L|120:360,1,100,0|8,0:0|0:0,0:0:0:0:
216,332,26305,6,0,P|257:303|324:304,1,100,0|8,0:0|0:0,0:0:0:0:
400,332,26885,1,0,0:0:0:0:
460,252,27174,1,8,0:0:0:0:
444,152,27464,2,0,P|412:116|349:120,1,100,0|4,0:0|0:0,0:0:0:0:
328,268,28334,6,0,L|203:111,1,200,8|4,0:0|0:0,0:0:0:0:
140,36,29203,1,8,0:0:0:0:
108,132,29493,2,0,P|116:180|101:227,1,100,0|8,0:0|0:0,0:0:0:0:
16,172,30073,2,0,P|7:123|22:76,1,100,0|8,0:0|0:0,0:0:0:0:
112,32,30653,2,0,L|216:48,1,100,0|8,0:0|0:0,0:0:0:0:
304,88,31232,2,0,L|402:103,1,100,0|8,0:0|0:0,0:0:0:0:
484,164,31812,2,0,P|496:212|492:264,2,100,0|8|0,0:0|0:0|0:0,0:0:0:0:
492,64,32682,1,8,0:0:0:0:
336,192,33261,6,0,P|265:259|172:234,1,200,8|8,0:0|0:0,0:0:0:0:
240,160,34131,2,0,P|310:92|403:117,1,200,0|0,0:0|0:0,0:0:0:0:
432,212,35001,1,8,0:0:0:0:
376,296,35290,2,0,L|280:352,1,100,0|8,0:0|0:0,0:0:0:0:
212,284,35870,2,0,L|102:300,1,100,0|8,0:0|0:0,0:0:0:0:
32,240,36450,2,0,P|24:192|40:128,2,100,0|8|4,0:0|0:0|0:0,0:0:0:0:
228,280,37609,5,0,0:0:0:0:
320,240,37899,2,0,P|336:192|332:136,1,100,8|4,0:0|0:0,0:0:0:0:
252,84,38479,2,0,P|236:132|240:188,1,100,8|0,0:0|0:0,0:0:0:0:
228,280,39059,2,0,P|178:277|131:293,1,100,8|0,0:0|0:0,0:0:0:0:
36,328,39638,2,0,L|16:216,1,100,8|0,0:0|0:0,0:0:0:0:
72,144,40218,6,0,L|92:32,1,100,8|0,0:0|0:0,0:0:0:0:
180,0,40798,1,8,0:0:0:0:
272,44,41087,1,0,0:0:0:0:
304,140,41377,6,0,P|316:192|298:253,1,100,8|0,0:0|0:0,0:0:0:0:
256,324,41957,1,8,0:0:0:0:
204,236,42247,2,0,P|195:188|208:140,1,100,0|8,0:0|0:0,0:0:0:0:
120,92,42827,6,0,P|99:193|123:293,2,200,0|0|0,0:0|0:0|0:0,0:0:0:0:
208,44,44276,2,0,P|256:32|320:52,1,100,8|0,0:0|0:0,0:0:0:0:
396,84,44856,2,0,P|444:96|508:76,1,100,8|4,0:0|0:0,0:0:0:0:
60,288,47754,5,8,0:0:0:0:
120,208,48044,2,0,B|168:192|204:136,1,100,0|8,0:0|0:0,0:0:0:0:
284,96,48624,1,0,0:0:0:0:
376,52,48914,2,0,B|472:88,1,100,8|0,0:0|0:0,0:0:0:0:
460,188,49493,2,0,B|366:152,1,100,8|0,0:0|0:0,0:0:0:0:
280,204,50073,1,8,0:0:0:0:
196,256,50363,2,0,B|102:220,1,100,0|8,0:0|0:0,0:0:0:0:
40,144,50943,6,0,P|42:95|172:48,1,200,0|0,0:0|0:0,0:0:0:0:
256,92,51812,2,0,P|349:110|405:34,1,200,8|8,0:0|0:0,0:0:0:0:
484,100,52682,2,4,L|500:212,2,100,0|8|0,0:0|0:0|0:0,0:0:0:0:
384,88,53551,6,0,L|287:131,1,100,8|0,0:0|0:0,0:0:0:0:
292,28,54131,2,0,L|195:71,1,100,8|0,0:0|0:0,0:0:0:0:
112,20,54711,2,0,P|112:124|202:166,1,200,8|8,0:0|0:0,0:0:0:0:
280,208,55580,2,0,P|360:259|355:354,2,200,0|8|4,0:0|0:0|0:0,0:0:0:0:
356,140,57030,1,0,0:0:0:0:
436,84,57319,5,8,0:0:0:0:
344,40,57609,2,0,L|240:24,2,100,0|8|0,0:0|0:0|0:0,0:0:0:0:
356,140,58479,2,0,P|313:231|211:248,1,200,8|8,0:0|0:0,0:0:0:0:
156,180,59348,1,0,0:0:0:0:
252,148,59638,2,0,P|294:56|396:39,1,200,8|8,0:0|0:0,0:0:0:0:
476,80,60508,6,0,L|464:196,1,100,0|8,0:0|0:0,0:0:0:0:
392,248,61087,2,0,L|380:364,2,100,0|8|0,0:0|0:0|0:0,0:0:0:0:
356,156,61957,1,8,0:0:0:0:
188,264,62537,6,0,P|108:264|80:240,1,100,8|0,0:0|0:0,0:0:0:0:
28,180,63116,2,0,L|16:80,2,100,8|0|4,0:0|0:0|0:0,0:0:0:0:
164,232,65435,6,0,P|256:260|360:228,1,200,8|4,0:0|0:0,0:0:0:0:
304,144,66305,2,0,P|256:157|209:143,1,100,8|0,0:0|0:0,0:0:0:0:
112,116,66885,2,0,P|64:101|17:115,1,100,8|0,0:0|0:0,0:0:0:0:
64,204,67464,2,0,L|56:320,2,100,8|0|8,0:0|0:0|0:0,0:0:0:0:
112,116,68334,6,0,L|120:0,1,100,0|8,0:0|0:0,0:0:0:0:
216,48,68914,1,0,0:0:0:0:
312,80,69203,1,8,0:0:0:0:
408,112,69493,2,0,L|401:211,1,100,0|8,0:0|0:0,0:0:0:0:
252,348,70363,6,0,P|200:344|148:316,1,100,8|0,0:0|0:0,0:0:0:0:
100,240,70943,2,0,L|88:136,1,100,8|0,0:0|0:0,0:0:0:0:
188,144,71522,2,0,L|220:44,1,100,8|0,0:0|0:0,0:0:0:0:
316,80,72102,2,0,P|356:112|420:120,2,100,8|0|8,0:0|0:0|0:0,0:0:0:0:
280,172,72972,6,0,L|249:267,1,100,0|8,0:0|0:0,0:0:0:0:
168,324,73551,1,0,0:0:0:0:
72,288,73841,2,0,L|103:193,1,100,8|4,0:0|0:0,0:0:0:0:
72,96,74421,1,8,0:0:0:0:
144,28,74711,6,0,P|236:44|264:148,1,200,0|4,0:0|0:0,0:0:0:0:
316,224,75580,2,0,B|420:256,1,100,8|0,0:0|0:0,0:0:0:0:
356,340,76160,2,0,B|260:310,1,100,8|0,0:0|0:0,0:0:0:0:
216,220,76740,2,0,P|224:172|264:132,1,100,8|0,0:0|0:0,0:0:0:0:
196,60,77319,21,8,0:0:0:0:
96,60,77608,1,0,0:0:0:0:
148,148,77898,1,8,0:0:0:0:
216,220,78189,2,0,P|192:308|96:332,1,200,0|0,0:0|0:0,0:0:0:0:
112,232,79059,2,0,L|252:376|252:376,1,200,8|8,0:0|0:0,0:0:0:0:
352,360,79928,37,0,0:0:0:0:
422,289,80218,2,8,L|478:201,1,100,8|0,0:0|0:0,0:0:0:0:
404,136,80798,1,8,0:0:0:0:
328,72,81087,2,8,L|228:144,1,100,0|8,0:0|0:0,0:0:0:0:
196,44,81667,2,0,P|142:123|180:211,1,200,0|0,0:0|0:0,0:0:0:0:
320,360,82827,6,0,L|442:179,1,200,0|0,0:0|0:0,0:0:0:0:
448,96,83696,1,8,0:0:0:0:
352,72,83986,2,0,P|256:44|144:84,1,200,0|4,0:0|0:0,0:0:0:0:
56,240,85145,1,8,0:0:0:0:
256,240,85725,1,0,0:0:0:0:
296,148,86015,6,0,L|400:132,1,100,0|8,0:0|0:0,0:0:0:0:
496,120,86595,1,4,0:0:0:0:
256,192,86885,12,0,89928,0:0:0:0:
