osu file format v12

[General]
AudioFilename: FT OP12[Allen_cross].mp3
AudioLeadIn: 0
PreviewTime: 27174
Countdown: 0
SampleSet: Soft
StackLeniency: 0.7
Mode: 0
LetterboxInBreaks: 0
EpilepsyWarning: 1
WidescreenStoryboard: 1

[Editor]
DistanceSpacing: 1
BeatDivisor: 4
GridSize: 4
TimelineZoom: 1

[Metadata]
Title:Tenohira (TV Size)
TitleUnicode:Tenohira (TV Size)
Artist:HERO
ArtistUnicode:HERO
Creator:Raisa12
Version:Hard
Source:Fairy Tail
Tags:Opening 12 dekutai Natsu Lucy Michelle Hanjamon
BeatmapID:334172
BeatmapSetID:131705

[Difficulty]
HPDrainRate:6
CircleSize:4
OverallDifficulty:6
ApproachRate:7
SliderMultiplier:1.1
SliderTickRate:2

[Events]
//Background and Video events
Video,0,"Nalu.avi"
0,0,"RailgunBG.png",0,0
//Break Periods
2,45345,46854
//Storyboard Layer 0 (Background)
//Storyboard Layer 1 (Fail)
//Storyboard Layer 2 (Pass)
//Storyboard Layer 3 (Foreground)
//Storyboard Sound Samples
//Background Colour Transformations
3,100,163,162,255

[TimingPoints]
1088,289.855072463768,4,2,1,65,1,0
5363,-100,4,2,2,65,0,0
5508,-100,4,2,1,65,0,0
14059,-100,4,2,2,65,0,0
14203,-100,4,2,1,65,0,0
28914,-100,4,2,1,80,0,1
33769,-100,4,2,2,80,0,1
33914,-100,4,2,1,80,0,1
34348,-100,4,2,2,80,0,1
34493,-100,4,2,1,80,0,1
45145,-100,4,2,1,65,0,0
66015,-100,4,2,1,80,0,1
74928,-100,4,2,2,80,0,1
75073,-100,4,2,1,80,0,1
80145,-100,4,2,2,80,0,1
80290,-100,4,2,1,80,0,1
80725,-100,4,2,2,80,0,1
80870,-100,4,2,1,80,0,1
86885,-100,4,2,1,80,0,0
86957,-100,4,2,1,10,0,0

[Colours]
Combo1 : 128,191,255
Combo2 : 128,128,255
Combo3 : 255,255,128
Combo4 : 241,163,241
Combo5 : 255,128,128

[HitObjects]
183,130,1088,6,0,P|161:188|179:246,1,110,4|8,0:0|0:0,0:0:0:0:
256,304,1667,1,0,0:0:0:0:
360,264,1957,1,8,0:0:0:0:
360,264,2102,2,0,P|390:184|365:104,1,165,2|8,0:0|0:0,0:0:0:0:
276,48,2827,1,0,0:0:0:0:
172,76,3116,1,8,0:0:0:0:
128,108,3261,6,0,P|97:187|122:267,1,165,2|8,0:0|0:0,0:0:0:0:
220,216,3986,2,0,P|272:224|316:264,1,110,0|8,0:0|0:0,0:0:0:0:
352,296,4421,2,0,P|430:291|491:226,1,165,2|8,0:0|0:0,0:0:0:0:
388,192,5145,2,0,P|309:196|248:261,2,165,0|2|8,0:0|0:0|0:0,0:0:0:0:
456,104,6305,2,0,P|388:81|338:92,1,110,0|8,0:0|0:0,0:0:0:0:
300,108,6740,6,0,P|228:145|150:125,1,165,2|8,0:0|0:0,0:0:0:0:
108,24,7464,1,0,0:0:0:0:
216,40,7754,1,8,0:0:0:0:
216,40,7899,2,0,L|232:224,1,165,2|8,0:0|0:0,0:0:0:0:
240,316,8624,1,4,0:0:0:0:
256,192,8914,12,0,10363,0:0:0:0:
132,84,10653,6,0,P|157:132|220:144,1,110,8|0,0:0|0:0,0:0:0:0:
312,108,11232,1,8,0:0:0:0:
312,108,11377,2,0,P|396:116|436:204,1,165,2|8,0:0|0:0,0:0:0:0:
444,236,11957,2,0,L|404:288,1,55,0|2,0:0|0:0,0:0:0:0:
304,308,12392,1,8,0:0:0:0:
304,308,12537,6,0,P|220:300|180:212,1,165,0|8,0:0|0:0,0:0:0:0:
176,28,13261,1,2,0:0:0:0:
140,132,13551,1,8,0:0:0:0:
252,104,13841,6,0,P|360:128|432:44,1,220,0|2,0:0|0:0,0:0:0:0:
512,128,14711,1,8,0:0:0:0:
492,180,14856,2,0,L|464:304,1,110,0|8,0:0|0:0,0:0:0:0:
468,288,15290,1,8,0:0:0:0:
360,308,15580,2,0,L|255:382,1,110,2|8,0:0|0:0,0:0:0:0:
164,340,16160,6,0,P|136:296|144:228,1,110,0|8,0:0|0:0,0:0:0:0:
154,35,16740,2,0,P|183:81|180:136,1,110,0|8,0:0|0:0,0:0:0:0:
216,180,17174,2,0,P|270:183|316:154,1,110,0|0,0:0|0:0,0:0:0:0:
352,112,17609,2,0,P|398:83|452:86,1,110,8|0,0:0|0:0,0:0:0:0:
424,192,18189,1,8,0:0:0:0:
360,280,18479,6,8,L|305:289,3,55
252,296,19059,2,8,L|198:305,4,55
256,184,19928,1,0,0:0:0:0:
208,84,20218,6,0,B|270:55|324:96|324:96|365:87,1,165,8|0,0:0|0:0,0:0:0:0:
420,80,20798,2,0,P|471:103|496:160,1,110,8|0,0:0|0:0,0:0:0:0:
464,196,21232,1,0,0:0:0:0:
424,232,21377,2,0,P|400:284|417:342,1,110,8|0,0:0|0:0,0:0:0:0:
512,292,21957,2,0,L|272:268,1,220,8|8,0:0|0:0,0:0:0:0:
184,280,22827,1,0,0:0:0:0:
208,172,23116,6,0,L|426:193,1,220,8|8,0:0|0:0,0:0:0:0:
472,164,23841,2,0,P|480:100|458:54,1,110,2|0,0:0|0:0,0:0:0:0:
408,52,24276,2,0,P|357:71|303:61,1,110,8|0,0:0|0:0,0:0:0:0:
244,156,24856,1,8,0:0:0:0:
152,216,25145,6,0,B|137:176|137:176|140:140|140:140|128:104,1,110,0|8,0:0|0:0,0:0:0:0:
128,56,25580,2,0,P|154:38|199:32,1,55,0|2,0:0|0:0,0:0:0:0:
232,40,25870,1,0,0:0:0:0:
284,52,26015,2,0,B|336:80|404:56,1,110,8|0,0:0|0:0,0:0:0:0:
476,128,26595,6,0,L|464:248,1,110,8|0,0:0|0:0,0:0:0:0:
345,349,27174,2,0,L|356:240,1,110,8|0,0:0|0:0,0:0:0:0:
276,164,27754,1,8,0:0:0:0:
276,164,27899,2,8,L|212:176,2,55
332,156,28334,6,0,P|452:216|448:308,1,220,8|4,0:0|0:0,0:0:0:0:
380,368,29203,1,8,0:0:0:0:
348,264,29493,2,0,P|294:275|240:268,1,110,0|8,0:0|0:0,0:0:0:0:
160,344,30072,1,0,0:0:0:0:
108,248,30363,1,8,0:0:0:0:
108,248,30508,2,0,L|124:188,1,55,0|0,0:0|0:0,0:0:0:0:
164,92,30943,5,8,0:0:0:0:
272,108,31232,2,0,P|328:96|392:136,1,110,0|8,0:0|0:0,0:0:0:0:
424,216,31812,1,0,0:0:0:0:
320,176,32102,2,0,P|299:125|311:73,1,110,8|0,0:0|0:0,0:0:0:0:
404,136,32682,2,0,P|416:188|395:238,1,110,8|0,0:0|0:0,0:0:0:0:
300,292,33261,5,8,0:0:0:0:
300,292,33406,1,0,0:0:0:0:
300,292,33551,2,0,P|248:272|124:288,1,165
92,252,34131,2,0,P|112:200|96:76,1,165,2|0,0:0|0:0,0:0:0:0:
68,52,34711,1,0,0:0:0:0:
172,12,35001,2,0,L|268:92,1,110,8|0,0:0|0:0,0:0:0:0:
224,188,35580,2,0,L|320:268,1,110,8|0,0:0|0:0,0:0:0:0:
416,288,36160,6,0,P|420:236|388:182,1,110,10|0,0:0|0:0,0:0:0:0:
352,148,36595,1,0,0:0:0:0:
320,104,36740,2,0,P|315:49|341:2,1,110,10|0,0:0|0:0,0:0:0:0:
216,148,37320,2,0,P|219:93|193:46,1,110,8|0,0:0|0:0,0:0:0:0:
112,120,37899,1,8,0:0:0:0:
34,197,38189,6,0,L|64:312,1,110,4|8,0:0|0:0,0:0:0:0:
164,348,38769,2,0,P|206:316|284:324,1,110,0|8,0:0|0:0,0:0:0:0:
348,380,39348,2,0,P|412:390|467:356,1,110,0|8,0:0|0:0,0:0:0:0:
452,316,39783,1,0,0:0:0:0:
396,308,39928,2,0,P|331:297|276:331,1,110,0|8,0:0|0:0,0:0:0:0:
216,236,40508,5,0,0:0:0:0:
120,184,40798,2,0,P|156:140|208:124,1,110,8|0,0:0|0:0,0:0:0:0:
312,144,41377,2,0,P|366:161|418:146,1,110,8|0,0:0|0:0,0:0:0:0:
368,48,41957,2,0,L|359:267,1,220,8|8,0:0|0:0,0:0:0:0:
264,324,42827,5,0,0:0:0:0:
164,372,43116,2,0,P|153:323|168:264,1,110,8|0,0:0|0:0,0:0:0:0:
205,52,43696,2,0,P|217:106|208:160,1,110,8|0,0:0|0:0,0:0:0:0:
316,40,44276,1,8,0:0:0:0:
352,144,44566,6,0,L|416:172,1,55
448,196,44856,1,0,0:0:0:0:
476,244,45001,1,0,0:0:0:0:
468,296,45145,1,4,0:0:0:0:
200,128,47754,5,8,0:0:0:0:
300,84,48044,2,0,L|416:100,1,110,0|8,0:0|0:0,0:0:0:0:
436,148,48479,2,0,P|400:192|424:312,1,165,0|8,0:0|0:0,0:0:0:0:
300,276,49203,1,0,0:0:0:0:
192,296,49493,1,8,0:0:0:0:
192,296,49638,2,0,P|208:217|165:149,1,165,0|8,0:0|0:0,0:0:0:0:
148,68,50363,1,0,0:0:0:0:
248,112,50653,6,0,P|279:152|294:216,1,110,8|0,0:0|0:0,0:0:0:0:
292,320,51232,1,8,0:0:0:0:
388,268,51522,1,0,0:0:0:0:
448,176,51812,2,0,L|456:116,1,55,8|0,0:0|0:0,0:0:0:0:
372,48,52247,1,0,0:0:0:0:
372,48,52392,2,0,L|361:129,1,82.5,8|0,0:0|0:0,0:0:0:0:
320,260,52972,1,8,0:0:0:0:
228,320,53261,6,0,B|120:296,1,110,0|8,0:0|0:0,0:0:0:0:
96,248,53696,1,0,0:0:0:0:
84,196,53841,2,0,L|77:141,2,55,0|0|8,0:0|0:0|0:0,0:0:0:0:
96,248,54276,2,0,P|172:256|244:200,1,165,2|8,0:0|0:0,0:0:0:0:
372,32,55290,5,8,0:0:0:0:
428,124,55580,2,8,L|437:179,3,55
476,216,56160,2,8,L|485:270,4,55,8|8|8|8|4,0:0|0:0|0:0|0:0|0:0,0:0:0:0:
464,324,57030,6,0,P|412:352|344:339,1,110,2|8,0:0|0:0,0:0:0:0:
276,280,57609,1,0,0:0:0:0:
232,244,57754,1,0,0:0:0:0:
204,196,57899,2,0,P|149:193|102:220,1,110,8|2,0:0|0:0,0:0:0:0:
8,276,58479,2,0,L|-4:160,1,110,8|0,0:0|0:0,0:0:0:0:
103,2,59059,2,0,L|92:112,1,110,8|0,0:0|0:0,0:0:0:0:
104,220,59638,2,0,P|151:246|205:244,1,110,8|2,0:0|0:0,0:0:0:0:
409,224,60218,6,0,P|362:197|308:200,1,110,8|2,0:0|0:0,0:0:0:0:
224,128,60798,1,8,0:0:0:0:
136,64,61087,2,0,P|116:120|128:176,1,110,0|8,0:0|0:0,0:0:0:0:
160,372,61667,2,0,P|180:321|172:268,1,110,0|8,0:0|0:0,0:0:0:0:
64,252,62247,1,0,0:0:0:0:
136,168,62537,6,0,L|244:120,1,110,8|0,0:0|0:0,0:0:0:0:
280,156,62972,1,0,0:0:0:0:
328,184,63116,2,0,L|436:136,1,110,8|0,0:0|0:0,0:0:0:0:
472,40,63696,1,4,0:0:0:0:
164,260,65435,6,0,P|256:308|360:252,1,220,4|0,0:0|0:0,0:0:0:0:
440,192,66305,1,8,0:0:0:0:
404,88,66595,2,0,P|368:48|292:44,1,110,0|8,0:0|0:0,0:0:0:0:
197,37,67174,2,0,P|144:47|108:88,1,110,0|8,0:0|0:0,0:0:0:0:
76,192,67754,1,0,0:0:0:0:
184,216,68044,6,0,P|239:220|289:173,1,110,8|0,0:0|0:0,0:0:0:0:
316,148,68479,1,0,0:0:0:0:
352,108,68624,2,0,P|395:76|449:81,1,110,8|0,0:0|0:0,0:0:0:0:
504,176,69203,2,0,L|480:292,1,110,8|0,0:0|0:0,0:0:0:0:
372,264,69783,2,0,L|279:337,1,110,8|0,0:0|0:0,0:0:0:0:
180,300,70363,5,8,0:0:0:0:
168,292,70507,1,0,0:0:0:0:
156,284,70653,1,0,0:0:0:0:
104,188,70943,2,0,L|12:128,1,110,8|0,0:0|0:0,0:0:0:0:
104,68,71522,1,8,0:0:0:0:
118,65,71666,1,0,0:0:0:0:
132,62,71812,1,0,0:0:0:0:
204,144,72102,6,0,P|256:160|328:132,1,110,8|0,0:0|0:0,0:0:0:0:
408,192,72682,2,0,P|460:176|532:204,1,110,8|0,0:0|0:0,0:0:0:0:
464,288,73261,1,8,0:0:0:0:
316,336,73551,1,2,0:0:0:0:
256,196,73841,1,8,0:0:0:0:
400,144,74131,1,4,0:0:0:0:
280,48,74421,1,8,0:0:0:0:
280,48,74711,6,0,P|212:132|101:122,1,220,2|4,0:0|0:0,0:0:0:0:
172,36,75580,1,8,0:0:0:0:
172,36,75870,2,0,L|222:152,1,110,0|8,0:0|0:0,0:0:0:0:
324,156,76450,2,0,L|374:272,1,110,0|8,0:0|0:0,0:0:0:0:
332,360,77030,2,0,P|388:364|448:332,1,110,2|8,0:0|0:0,0:0:0:0:
400,240,77609,6,0,P|396:184|428:124,1,110,0|8,0:0|0:0,0:0:0:0:
468,44,78189,1,0,0:0:0:0:
360,28,78479,1,8,0:0:0:0:
284,108,78769,1,2,0:0:0:0:
172,108,79059,6,0,P|167:213|250:279,1,220,8|8,0:0|0:0,0:0:0:0:
348,228,79928,2,0,P|352:129|274:67,1,192.5,0|0,0:0|0:0,0:0:0:0:
264,84,80508,2,0,P|166:117|74:29,1,220,2|0,0:0|0:0,0:0:0:0:
36,152,81377,1,8,0:0:0:0:
84,252,81667,2,0,L|208:296,1,110,0|8,0:0|0:0,0:0:0:0:
272,216,82247,2,0,L|168:179,1,110,0|8,0:0|0:0,0:0:0:0:
120,80,82827,5,0,0:0:0:0:
228,60,83116,2,0,L|332:97,1,110,8|0,0:0|0:0,0:0:0:0:
432,140,83696,1,8,0:0:0:0:
352,216,83986,2,0,P|256:260|148:204,1,220,8|4,0:0|0:0,0:0:0:0:
256,192,84638,12,0,85725,0:0:0:0:
256,192,86015,6,0,L|196:312,1,110,0|8,0:0|0:0,0:0:0:0:
96,300,86595,1,2,0:0:0:0:
52,200,86885,1,4,0:0:0:0:
256,192,86957,12,0,89928,0:0:0:0:
