osu file format v12

[General]
AudioFilename: 1.mp3
AudioLeadIn: 2000
PreviewTime: 59154
Countdown: 0
SampleSet: Soft
StackLeniency: 0.6
Mode: 0
LetterboxInBreaks: 0

[Editor]
Bookmarks: 15622,37959,47741
DistanceSpacing: 1.3
BeatDivisor: 4
GridSize: 4

[Metadata]
Title:Houkyou no Messiah (Chinese Version)
TitleUnicode:咆筺のメシア (Chinese Version)
Artist:HARUKI
ArtistUnicode:HARUKI
Creator:JauiPlaY
Version:IMPACT!!
Source:Robotics;Notes
Tags:no_gu 5pb. nitro+ nitroplus opening
BeatmapID:238714
BeatmapSetID:87381

[Difficulty]
HPDrainRate:7
CircleSize:4
OverallDifficulty:8
ApproachRate:9
SliderMultiplier:1.6
SliderTickRate:1

[Events]
//Background and Video events
0,0,"98868fd235e61d60f65d3459252dac8c.jpg",0,0
Video,-387,"2.avi"
//Break Periods
//Storyboard Layer 0 (Background)
//Storyboard Layer 1 (Fail)
//Storyboard Layer 2 (Pass)
//Storyboard Layer 3 (Foreground)
//Storyboard Sound Samples
//Background Colour Transformations
3,100,0,0,0

[TimingPoints]
296,326.086956521739,4,2,0,100,1,0
2578,-100,4,1,2,70,0,0
2904,-100,4,2,3,85,0,0
11872,-100,4,2,4,95,0,0
12035,-100,4,2,3,85,0,0
12116,-100,4,2,4,45,0,0
12361,-100,4,2,3,85,0,0
12442,-100,4,2,4,55,0,0
12687,-100,4,2,3,65,0,0
13013,-100,4,2,4,55,0,0
13502,-100,4,2,3,75,0,0
15540,-100,4,2,4,65,0,0
15622,-100,4,2,4,75,0,0
15785,-100,4,2,3,55,0,0
15948,-100,4,2,4,45,0,0
16437,-100,4,2,3,45,0,0
25078,-100,4,1,3,40,0,0
25730,-100,4,2,3,55,0,0
26219,-100,4,2,4,50,0,0
26382,-100,4,2,3,60,0,1
26464,-100,4,2,0,100,0,0
26709,-100,4,2,3,80,0,0
36002,-100,4,1,1,60,0,0
36654,-100,4,2,3,50,0,0
36980,-100,4,2,3,80,0,0
37306,-100,4,2,4,60,0,0
37632,-100,4,2,3,80,0,0
37795,-100,4,2,4,60,0,0
38122,-100,4,2,3,70,0,0
38448,-100,4,2,3,85,0,0
43339,-100,4,2,3,50,0,0
43420,-100,4,2,3,85,0,0
45948,-100,4,2,3,50,0,0
46029,-100,4,2,3,85,0,0
47089,-100,4,2,4,50,0,0
47415,-100,4,2,3,85,0,0
47741,-100,4,2,4,75,0,0
48067,-100,4,2,3,80,0,0
48312,-100,4,2,4,70,0,0
48556,-100,4,2,3,70,0,0
48882,-100,4,2,3,85,0,0
53285,-100,4,2,3,50,0,0
53611,-100,4,2,4,50,0,0
53774,-100,4,2,3,85,0,0
56953,-100,4,2,4,75,0,0
57198,-100,4,2,3,85,0,0
57768,-100,4,2,4,75,0,0
57931,-100,4,2,3,5,0,0
58013,-100,4,2,4,75,0,0
58257,-100,4,2,3,5,0,0
58339,-100,4,2,4,75,0,0
58584,-100,4,2,3,5,0,0
58665,-100,4,2,4,75,0,0
58828,-100,4,2,3,65,0,0
60948,-100,4,1,1,85,0,0
61274,-100,4,2,3,5,0,0
61437,-100,4,2,3,80,0,1
66654,-100,4,2,4,55,0,1
66980,-100,4,2,3,80,0,1
71872,-100,4,2,4,55,0,1
72198,-100,4,2,3,55,0,1
72279,-100,4,2,3,80,0,1
76763,-100,4,2,4,70,0,1
76926,-100,4,2,3,70,0,1
77252,-100,4,2,3,80,0,1
80024,-100,4,2,4,65,0,1
80350,-100,4,2,3,75,0,1
80513,-100,4,2,4,65,0,1
80839,-100,4,2,3,55,0,1
81165,-100,4,2,4,50,0,1
81491,-100,4,2,4,70,0,1
81817,-100,4,2,3,55,0,1
82469,-100,4,2,3,65,0,1
83448,-100,4,2,3,55,0,1
83774,-100,4,2,4,50,0,1
83937,-100,4,2,3,55,0,1
85078,-100,4,2,3,55,0,0

[Colours]
Combo1 : 190,125,255
Combo2 : 128,255,0
Combo3 : 77,166,255
Combo4 : 245,90,114
Combo5 : 255,255,26

[HitObjects]
256,192,296,12,8,2578,0:0:0:0:
256,192,2904,6,0,P|284:248|304:264,1,80,6|2,0:0|0:0,0:0:0:0:
456,176,3230,2,0,P|428:120|408:104,1,80,8|0,0:0|0:0,0:0:0:0:
310,92,3556,1,0,0:0:0:0:
201,92,3719,1,2,0:0:0:0:
359,185,3882,1,8,0:0:0:0:
152,185,4045,1,0,0:0:0:0:
103,278,4209,6,0,L|103:361,1,80,2|2,0:0|0:0,0:0:0:0:
256,272,4535,2,0,L|256:188,1,80,8|2,0:0|0:0,0:0:0:0:
409,278,4861,2,0,L|409:361,1,80,0|2,0:0|0:0,0:0:0:0:
256,272,5187,1,8,0:0:0:0:
409,278,5350,1,0,0:0:0:0:
256,192,5513,6,0,P|228:248|208:264,1,80,2|2,0:0|0:0,0:0:0:0:
56,176,5839,2,0,P|84:120|104:104,1,80,8|0,0:0|0:0,0:0:0:0:
202,92,6165,1,0,0:0:0:0:
311,92,6328,1,2,0:0:0:0:
153,185,6491,1,8,0:0:0:0:
360,185,6654,1,0,0:0:0:0:
409,278,6818,6,0,L|409:361,1,80,2|2,0:0|0:0,0:0:0:0:
256,272,7143,2,0,L|256:188,1,80,8|2,0:0|0:0,0:0:0:0:
103,278,7470,2,0,L|103:361,1,80,0|2,0:0|0:0,0:0:0:0:
256,272,7795,1,8,0:0:0:0:
103,278,7959,1,10,0:0:0:0:
103,278,8040,1,8,0:0:0:0:
103,278,8122,5,2,0:0:0:0:
140,180,8285,1,2,0:0:0:0:
220,116,8448,1,8,0:0:0:0:
300,48,8611,1,0,0:0:0:0:
212,48,8774,1,0,0:0:0:0:
292,116,8937,1,2,0:0:0:0:
372,180,9100,1,8,0:0:0:0:
409,278,9263,1,0,0:0:0:0:
306,260,9426,5,2,0:0:0:0:
372,180,9589,1,2,0:0:0:0:
409,278,9752,1,8,0:0:0:0:
206,260,9915,5,2,0:0:0:0:
256,168,10078,1,0,0:0:0:0:
306,260,10241,1,2,0:0:0:0:
103,278,10404,5,8,0:0:0:0:
140,180,10567,1,0,0:0:0:0:
206,260,10730,5,2,0:0:0:0:
256,168,10893,1,2,0:0:0:0:
328,92,11056,2,0,P|320:36|304:4,1,80,8|0,0:0|0:0,0:0:0:0:
201,14,11382,2,0,P|192:36|184:92,1,80,0|2,0:0|0:0,0:0:0:0:
256,168,11709,1,8,0:0:0:0:
306,260,11872,1,2,0:0:0:0:
410,278,12035,5,8,0:0:0:0:
372,260,12116,1,2,0:0:0:0:
342,234,12198,1,2,0:0:0:0:
319,202,12279,1,2,0:0:0:0:
306,163,12361,1,8,0:0:0:0:
304,124,12442,1,4,0:0:0:0:
300,84,12524,1,4,0:0:0:0:
276,51,12605,1,4,0:0:0:0:
235,51,12687,5,8,0:0:0:0:
212,84,12768,1,8,0:0:0:0:
208,124,12850,1,8,0:0:0:0:
206,163,12931,1,8,0:0:0:0:
193,202,13013,1,4,0:0:0:0:
170,234,13094,1,4,0:0:0:0:
140,260,13176,1,4,0:0:0:0:
102,278,13257,1,4,0:0:0:0:
100,124,13502,5,8,0:0:0:0:
90,141,13665,1,8,0:0:0:0:
412,124,13991,1,8,0:0:0:0:
422,141,14154,1,8,0:0:0:0:
256,192,14480,5,8,0:0:0:0:
256,300,14806,1,10,0:0:0:0:
256,320,14969,1,10,0:0:0:0:
321,272,15295,5,8,0:0:0:0:
291,292,15377,1,8,0:0:0:0:
256,300,15458,1,2,0:0:0:0:
220,292,15540,1,2,0:0:0:0:
190,272,15621,1,4,0:0:0:0:
256,192,15785,1,8,0:0:0:0:
256,88,15948,5,8,0:0:0:0:
404,36,16437,2,0,B|416:80|416:80|424:84|424:84|440:136,1,80,0|8,0:0|0:0,0:0:0:0:
348,171,16763,1,0,0:0:0:0:
256,192,16926,1,0,0:0:0:0:
324,272,17089,2,0,B|264:296|256:312|256:312|248:296|188:272,1,160,2|0,0:0|0:0,0:0:0:0:
162,171,17578,5,0,0:0:0:0:
108,36,17741,2,0,B|96:80|96:80|88:84|88:84|72:136,1,80,2|8,0:0|0:0,0:0:0:0:
28,200,18067,2,0,B|40:244|40:244|48:248|48:248|64:300,1,80,2|0,0:0|0:0,0:0:0:0:
136,332,18393,1,0,0:0:0:0:
188,240,18556,6,0,P|256:276|324:240,1,160,2|0,0:0|0:0,0:0:0:0:
188,144,19045,2,0,P|256:108|324:144,1,160,2|0,0:0|0:0,0:0:0:0:
484,200,19535,2,0,B|472:244|472:244|464:248|464:248|448:300,1,80
376,332,19861,2,0,P|412:264|376:196,1,160,2|0,0:0|0:0,0:0:0:0:
136,196,20350,2,0,P|100:264|136:332,1,160,2|0,0:0|0:0,0:0:0:0:
204,256,20839,1,8,0:0:0:0:
308,256,21002,1,2,0:0:0:0:
188,128,21165,6,0,B|248:104|256:88|256:88|264:104|324:128,1,160,2|0,0:0|0:0,0:0:0:0:
396,200,21654,1,0,0:0:0:0:
308,256,21817,2,0,P|328:300|360:328,1,80,10|0,0:0|0:0,0:0:0:0:
256,360,22143,1,0,0:0:0:0:
256,360,22306,2,0,L|256:176,1,160,2|0,0:0|0:0,0:0:0:0:
116,200,22795,5,2,0:0:0:0:
161,321,22958,2,0,P|184:300|204:256,1,80,0|8,0:0|0:0,0:0:0:0:
188,144,23285,2,0,P|256:108|324:144,1,160,2|2,0:0|0:0,0:0:0:0:
384,60,23774,2,0,P|428:56|456:20,1,80,2|0,0:0|0:0,0:0:0:0:
324,144,24100,2,0,P|326:188|294:220,1,80,0|2,0:0|0:0,0:0:0:0:
128,60,24426,2,0,P|84:56|56:20,1,80,0|2,0:0|0:0,0:0:0:0:
188,144,24752,2,0,P|181:187|209:223,1,80,0|0,0:0|0:0,0:0:0:0:
256,56,25078,5,4,0:0:0:0:
256,80,25404,1,4,0:0:0:0:
256,104,25730,5,8,0:0:0:0:
256,128,25812,1,8,0:0:0:0:
256,152,25893,1,8,0:0:0:0:
256,176,25975,1,8,0:0:0:0:
256,200,26056,1,8,0:0:0:0:
256,304,26219,1,8,0:0:0:0:
352,264,26382,6,0,P|424:262|484:323,1,160,6|8,0:0|0:0,0:0:0:0:
388,364,26872,2,0,P|388:291|452:234,1,160,0|2,0:0|0:0,0:0:0:0:
352,264,27361,2,0,P|344:208|312:168,1,80,8|0,0:0|0:0,0:0:0:0:
352,88,27687,1,2,0:0:0:0:
179,188,27850,1,2,0:0:0:0:
332,188,28013,1,8,0:0:0:0:
160,88,28176,5,0,0:0:0:0:
256,312,28502,1,10,0:0:0:0:
352,88,28828,6,0,B|324:52|324:52|316:52|316:52|296:32,1,80,8|2,0:0|0:0,0:0:0:0:
256,124,29154,2,0,L|256:224,1,80,2|8,0:0|0:0,0:0:0:0:
160,88,29480,2,0,B|188:52|188:52|196:52|196:52|216:32,1,80
179,188,29806,2,0,P|168:208|160:264,1,80,2|8,0:0|0:0,0:0:0:0:
256,312,30132,1,0,0:0:0:0:
160,264,30295,6,0,P|87:262|27:323,1,160,2|8,0:0|0:0,0:0:0:0:
124,364,30785,2,0,P|123:291|59:234,1,160,0|2,0:0|0:0,0:0:0:0:
132,160,31274,1,8,0:0:0:0:
256,220,31437,1,2,0:0:0:0:
380,160,31600,5,2,0:0:0:0:
416,232,31763,1,0,0:0:0:0:
380,168,31926,2,0,L|424:260,1,80,8|0,0:0|0:0,0:0:0:0:
320,296,32252,2,0,B|296:328|256:344|256:344|216:328|192:296,1,160,2|8,0:0|0:0,0:0:0:0:
256,220,32741,1,0,0:0:0:0:
96,232,32904,5,2,0:0:0:0:
132,160,33067,1,2,0:0:0:0:
97,240,33230,2,0,L|132:168,1,80,8|0,0:0|0:0,0:0:0:0:
192,88,33556,2,0,B|216:56|256:40|256:40|296:56|320:88,1,160,2|8,0:0|0:0,0:0:0:0:
256,168,34045,1,0,0:0:0:0:
256,168,34127,1,8,0:0:0:0:
256,168,34209,6,0,L|256:248,1,80,10|8,0:0|0:0,0:0:0:0:
368,360,34698,2,0,L|298:320,1,80,8|8,0:0|0:0,0:0:0:0:
144,360,35187,2,0,L|213:320,1,80,8|8,0:0|0:0,0:0:0:0:
176,248,35513,5,2,0:0:0:0:
336,248,35676,1,2,0:0:0:0:
256,108,35839,1,8,0:0:0:0:
256,264,36002,5,2,0:0:0:0:
324,152,36328,1,2,0:0:0:0:
188,152,36654,1,4,0:0:0:0:
256,264,36980,5,2,0:0:0:0:
256,264,37062,1,2,0:0:0:0:
256,264,37143,1,8,0:0:0:0:
164,240,37306,1,4,0:0:0:0:
348,240,37469,1,2,0:0:0:0:
256,172,37632,2,0,L|256:108,2,40,8|8|4,0:0|0:0|0:0,0:0:0:0:
256,284,37959,1,2,0:0:0:0:
344,356,38122,6,0,P|424:296|464:224,1,160,4|8,0:0|0:0,0:0:0:0:
448,32,38611,2,0,P|368:92|328:164,1,160,2|2,0:0|0:0,0:0:0:0:
310,276,39100,2,0,P|300:231|276:195,1,80,8|0,0:0|0:0,0:0:0:0:
168,356,39426,6,0,P|88:296|48:224,1,160,2|8,0:0|0:0,0:0:0:0:
64,32,39915,2,0,P|144:92|184:164,1,160,2|2,0:0|0:0,0:0:0:0:
202,276,40404,2,0,P|212:231|236:195,1,80,8|2,0:0|0:0,0:0:0:0:
256,100,40730,5,2,0:0:0:0:
310,266,41056,1,8,0:0:0:0:
331,295,41219,1,2,0:0:0:0:
168,163,41546,1,2,0:0:0:0:
134,152,41709,1,8,0:0:0:0:
343,163,42035,5,2,0:0:0:0:
377,152,42198,1,8,0:0:0:0:
201,266,42523,1,2,0:0:0:0:
180,295,42686,1,8,0:0:0:0:
256,352,42850,1,0,0:0:0:0:
256,248,43013,2,0,L|256:188,2,40,8|0|8,0:0|0:0|0:0,0:0:0:0:
340,308,43339,6,0,B|356:324|356:324|416:276|432:204,1,160,6|8,0:0|0:0,0:0:0:0:
392,44,43828,2,0,B|376:28|376:28|316:76|300:148,1,160,2|2,0:0|0:0,0:0:0:0:
256,248,44317,1,8,0:0:0:0:
301,140,44480,1,2,0:0:0:0:
210,140,44643,2,0,B|196:76|136:28|136:28|120:44,1,160,2|8,0:0|0:0,0:0:0:0:
81,211,45132,2,0,B|96:276|156:324|156:324|172:308,1,160,2|2,0:0|0:0,0:0:0:0:
256,352,45622,1,8,0:0:0:0:
256,248,45785,1,2,0:0:0:0:
300,140,45948,6,0,P|312:93|299:31,1,80,4|2,0:0|0:0,0:0:0:0:
98,170,46274,2,0,P|116:195|156:224,1,80,8|2,0:0|0:0,0:0:0:0:
356,224,46600,2,0,P|395:195|423:139,1,80,8|8,0:0|0:0,0:0:0:0:
202,61,46926,2,0,P|200:93|212:140,1,80,8|8,0:0|0:0,0:0:0:0:
256,248,47415,6,0,L|256:328,2,80,8|0|2,0:0|0:0|0:0,0:0:0:0:
148,157,48067,5,8,0:0:0:0:
179,132,48148,1,8,0:0:0:0:
216,117,48230,1,8,0:0:0:0:
256,112,48311,1,4,0:0:0:0:
296,117,48393,1,2,0:0:0:0:
332,132,48474,1,2,0:0:0:0:
364,157,48556,6,0,P|400:244|476:296,1,160,4|8,0:0|0:0,0:0:0:0:
448,184,49045,2,0,P|361:220|309:296,1,160,2|2,0:0|0:0,0:0:0:0:
236,332,49535,2,0,P|204:280|200:236,1,80,8|0,0:0|0:0,0:0:0:0:
148,157,49861,2,0,P|112:244|36:296,1,160,2|8,0:0|0:0,0:0:0:0:
64,184,50350,2,0,P|151:220|203:296,1,160,2|2,0:0|0:0,0:0:0:0:
276,332,50839,2,0,P|308:280|312:236,1,80,8|2,0:0|0:0,0:0:0:0:
343,119,51165,1,2,0:0:0:0:
201,222,51491,5,8,0:0:0:0:
423,119,51654,1,2,0:0:0:0:
310,222,51980,5,2,0:0:0:0:
88,119,52143,1,8,0:0:0:0:
121,222,52469,5,2,0:0:0:0:
390,222,52632,1,8,0:0:0:0:
168,119,52959,5,8,0:0:0:0:
256,56,53122,1,8,0:0:0:0:
256,56,53285,2,0,L|256:230,1,160,4|8,0:0|0:0,0:0:0:0:
321,296,53774,6,0,B|315:326|315:326|355:367,1,80,8|2,0:0|0:0,0:0:0:0:
412,206,54100,2,0,B|417:175|417:175|377:134,1,80,8|2,0:0|0:0,0:0:0:0:
322,205,54426,2,0,B|291:199|291:199|250:239,1,80,8|2,0:0|0:0,0:0:0:0:
410,297,54752,2,0,B|440:302|440:302|481:262,1,80,8|2,0:0|0:0,0:0:0:0:
256,232,55078,6,0,B|220:197|220:197|190:203,1,80,8|2,0:0|0:0,0:0:0:0:
36,268,55404,2,0,B|71:302|71:302|102:297,1,80,8|2,0:0|0:0,0:0:0:0:
127,140,55730,2,0,B|94:175|94:175|100:206,1,80,8|2,0:0|0:0,0:0:0:0:
161,361,56056,2,0,B|196:326|196:326|191:296,1,80,8|2,0:0|0:0,0:0:0:0:
100,207,56382,5,8,0:0:0:0:
170,130,56545,1,2,0:0:0:0:
201,30,56709,1,8,0:0:0:0:
256,120,56872,2,0,L|256:176,2,40,2|4|2,0:0|0:0|0:0,0:0:0:0:
311,30,57198,1,2,0:0:0:0:
342,130,57361,1,8,0:0:0:0:
412,207,57525,1,2,0:0:0:0:
312,296,57687,6,0,L|312:256,1,40,8|4,0:0|0:0,0:0:0:0:
364,228,57850,2,0,L|336:200,1,40,2|0,0:0|0:0,0:0:0:0:
352,143,58013,2,0,L|312:143,1,40,2|2,0:0|0:0,0:0:0:0:
284,92,58176,2,0,L|256:120,1,40,4|0,0:0|0:0,0:0:0:0:
199,103,58339,2,0,L|199:143,1,40,4|4,0:0|0:0,0:0:0:0:
148,172,58502,2,0,L|176:200,1,40,4|0,0:0|0:0,0:0:0:0:
159,256,58665,2,0,L|199:256,1,40,2|2,0:0|0:0,0:0:0:0:
228,308,58828,2,0,L|256:280,1,40,2|2,0:0|0:0,0:0:0:0:
364,228,59154,5,10,0:0:0:0:
256,279,59317,1,10,0:0:0:0:
148,156,59643,5,10,0:0:0:0:
255,104,59806,1,10,0:0:0:0:
256,192,60132,5,8,0:0:0:0:
364,156,60459,5,8,0:0:0:0:
148,228,60622,1,8,0:0:0:0:
324,312,60948,6,0,P|256:348|188:312,1,160,2|0,0:0|0:0,0:0:0:0:
256,192,61437,6,0,B|312:232|312:232|416:232,1,160,4|2,0:0|0:0,0:0:0:0:
380,132,61926,2,0,B|388:90|388:90|394:90|394:90|403:45,1,80,8|0,0:0|0:0,0:0:0:0:
256,192,62252,2,0,B|248:234|248:234|242:234|242:234|233:279,1,80,2|2,0:0|0:0,0:0:0:0:
256,192,62578,2,0,B|200:232|200:232|96:232,1,160,8|2,0:0|0:0,0:0:0:0:
132,132,63067,2,0,B|124:90|124:90|118:90|118:90|109:45,1,80,2|8,0:0|0:0,0:0:0:0:
256,192,63393,2,0,B|264:234|264:234|270:234|270:234|279:279,1,80,0|2,0:0|0:0,0:0:0:0:
296,112,63719,2,0,B|256:104|256:104|216:112,1,80,2|8,0:0|0:0,0:0:0:0:
187,242,64045,6,0,P|255:278|323:242,1,160,2|2,0:0|0:0,0:0:0:0:
378,151,64535,1,8,0:0:0:0:
428,242,64698,1,0,0:0:0:0:
324,242,64861,1,2,0:0:0:0:
378,151,65024,5,2,0:0:0:0:
375,332,65187,1,8,0:0:0:0:
220,239,65350,2,0,P|248:176|233:80,1,160,2|2,0:0|0:0,0:0:0:0:
134,151,65839,5,8,0:0:0:0:
84,242,66002,1,0,0:0:0:0:
188,242,66165,1,8,0:0:0:0:
134,151,66328,5,2,0:0:0:0:
137,332,66491,1,8,0:0:0:0:
292,239,66654,2,0,P|263:176|278:80,1,160,8|2,0:0|0:0,0:0:0:0:
360,32,67143,5,8,0:0:0:0:
424,192,67306,1,0,0:0:0:0:
488,112,67469,1,2,0:0:0:0:
376,120,67632,1,2,0:0:0:0:
296,200,67795,1,8,0:0:0:0:
256,304,67959,5,0,0:0:0:0:
216,200,68122,1,2,0:0:0:0:
136,120,68285,1,2,0:0:0:0:
24,112,68448,1,8,0:0:0:0:
88,192,68611,1,0,0:0:0:0:
152,32,68774,5,2,0:0:0:0:
360,32,68937,1,2,0:0:0:0:
136,120,69100,1,8,0:0:0:0:
376,120,69263,6,0,P|329:184|241:210,1,160,2|2,0:0|0:0,0:0:0:0:
272,96,69752,2,0,P|248:56|240:8,1,80,8|2,0:0|0:0,0:0:0:0:
360,288,70078,2,0,P|384:328|392:376,1,80,8|2,0:0|0:0,0:0:0:0:
256,336,70404,2,0,L|256:248,1,80,8|2,0:0|0:0,0:0:0:0:
120,360,70730,2,0,P|128:328|152:288,1,80,8|8,0:0|0:0,0:0:0:0:
271,23,71056,2,0,P|264:56|240:96,1,80,8|2,0:0|0:0,0:0:0:0:
256,210,71382,2,0,P|182:184|136:120,1,160,4|10,0:0|0:0,0:0:0:0:
188,20,71872,6,0,B|248:44|256:60|256:60|264:44|324:20,1,160,8|2,0:0|0:0,0:0:0:0:
373,233,72361,2,0,P|376:248|408:304,1,80,8|0,0:0|0:0,0:0:0:0:
461,200,72687,2,0,P|472:191|505:136,1,80,2|2,0:0|0:0,0:0:0:0:
390,141,73013,2,0,P|376:136|312:136,1,80,8|0,0:0|0:0,0:0:0:0:
256,40,73339,5,2,0:0:0:0:
200,136,73502,2,0,P|135:136|121:141,1,80,2|8,0:0|0:0,0:0:0:0:
7,136,73828,2,0,P|39:191|50:200,1,80,0|2,0:0|0:0,0:0:0:0:
104,304,74154,2,0,P|136:248|138:233,1,80,2|8,0:0|0:0,0:0:0:0:
191,324,74480,6,0,B|215:356|255:372|255:372|295:356|319:324,1,160,2|2,0:0|0:0,0:0:0:0:
336,220,74969,2,0,P|368:196|412:180,1,80,8|0,0:0|0:0,0:0:0:0:
212,144,75295,2,0,P|207:104|189:61,1,80,2|2,0:0|0:0,0:0:0:0:
300,144,75622,2,0,P|304:104|322:61,1,80,8|0,0:0|0:0,0:0:0:0:
176,220,75948,2,0,P|144:196|100:180,1,80,2|2,0:0|0:0,0:0:0:0:
256,252,76274,1,8,0:0:0:0:
200,327,76437,5,8,0:0:0:0:
213,346,76519,1,8,0:0:0:0:
233,360,76600,1,8,0:0:0:0:
256,364,76681,1,8,0:0:0:0:
280,360,76763,1,2,0:0:0:0:
300,346,76845,1,2,0:0:0:0:
313,327,76926,1,2,0:0:0:0:
256,252,77089,1,10,0:0:0:0:
208,160,77252,6,0,B|200:112|312:88|304:40,1,160,0|8,0:0|0:0,0:0:0:0:
207,41,77741,2,0,B|200:88|312:112|304:160,1,160,2|2,0:0|0:0,0:0:0:0:
256,252,78230,1,8,0:0:0:0:
313,327,78393,1,0,0:0:0:0:
313,327,78475,1,8,0:0:0:0:
313,327,78556,5,0,0:0:0:0:
376,132,78719,1,2,0:0:0:0:
368,236,78882,1,8,0:0:0:0:
344,32,79045,1,0,0:0:0:0:
168,32,79209,5,8,0:0:0:0:
144,236,79372,1,2,0:0:0:0:
136,132,79535,1,8,0:0:0:0:
199,327,79698,1,2,0:0:0:0:
313,327,79861,5,4,0:0:0:0:
199,327,80024,1,2,0:0:0:0:
368,236,80187,1,2,0:0:0:0:
144,236,80350,1,8,0:0:0:0:
376,132,80514,1,4,0:0:0:0:
136,132,80677,1,4,0:0:0:0:
344,32,80840,1,12,0:0:0:0:
168,32,81002,1,2,0:0:0:0:
256,88,81165,5,4,0:0:0:0:
256,104,81247,1,4,0:0:0:0:
256,120,81328,1,4,0:0:0:0:
256,136,81410,1,4,0:0:0:0:
256,152,81491,1,2,0:0:0:0:
256,168,81573,1,2,0:0:0:0:
256,184,81654,1,2,0:0:0:0:
256,200,81736,1,2,0:0:0:0:
296,244,81817,6,0,L|308:284,3,40,2|2|2|2,0:0|0:0|0:0|0:0,0:0:0:0:
216,244,82143,2,0,L|204:284,3,40,2|2|2|2,0:0|0:0|0:0|0:0,0:0:0:0:
256,312,82469,6,0,B|232:240|152:240|128:168,1,160,4|8,0:0|0:0,0:0:0:0:
256,312,82959,2,0,B|280:240|360:240|384:168,1,160,8|8,0:0|0:0,0:0:0:0:
306,120,83448,1,12,0:0:0:0:
205,120,83611,1,8,0:0:0:0:
366,200,83774,6,0,B|352:164|328:164|304:132,1,80,8|10,0:0|0:0,0:0:0:0:
146,200,84100,2,0,B|160:164|184:164|208:132,1,80,10|10,0:0|0:0,0:0:0:0:
256,248,84426,2,0,L|256:336,2,80,10|10|10,0:0|0:0|0:0,0:0:0:0:
256,144,84915,1,10,0:0:0:0:
256,40,85078,1,14,0:0:0:0:
256,192,85160,12,2,88910,0:0:0:0:
