osu file format v12

[General]
AudioFilename: 1.mp3
AudioLeadIn: 2000
PreviewTime: 59154
Countdown: 0
SampleSet: Soft
StackLeniency: 0.6
Mode: 0
LetterboxInBreaks: 0

[Editor]
Bookmarks: 2904,15948,26382,34209,35513,38122,43339,45948,47089,53285,53611,56382,61437,66654,71382,77089,83448,85078
DistanceSpacing: 1.3
BeatDivisor: 4
GridSize: 4

[Metadata]
Title:Houkyou no Messiah (Chinese Version)
TitleUnicode:咆筺のメシア (Chinese Version)
Artist:HARUKI
ArtistUnicode:HARUKI
Creator:JauiPlaY
Version:Hard
Source:Robotics;Notes
Tags:no_gu 5pb. nitro+ nitroplus opening
BeatmapID:238713
BeatmapSetID:87381

[Difficulty]
HPDrainRate:5
CircleSize:4
OverallDifficulty:6
ApproachRate:7
SliderMultiplier:1.3
SliderTickRate:1

[Events]
//Background and Video events
0,0,"98868fd235e61d60f65d3459252dac8c.jpg",0,0
Video,-387,"2.avi"
//Break Periods
//Storyboard Layer 0 (Background)
//Storyboard Layer 1 (Fail)
//Storyboard Layer 2 (Pass)
//Storyboard Layer 3 (Foreground)
//Storyboard Sound Samples
//Background Colour Transformations
3,100,0,0,0

[TimingPoints]
296,326.086956521739,4,2,1,70,1,0
26382,-100,4,2,1,70,0,1
26464,-100,4,2,1,70,0,0
61437,-100,4,2,1,70,0,1
85078,-100,4,2,1,70,0,0

[Colours]
Combo1 : 190,125,255
Combo2 : 128,255,0
Combo3 : 77,166,255
Combo4 : 245,90,114
Combo5 : 255,255,26

[HitObjects]
256,192,296,12,0,2578,0:0:0:0:
256,192,2904,6,0,P|296:144|423:112,2,195,4|8|8,0:0|0:0|0:0,0:0:0:0:
352,312,4209,1,0,0:0:0:0:
352,312,4372,2,0,P|360:240|406:188,1,130,8|0,0:0|0:0,0:0:0:0:
439,259,4861,2,0,P|375:275|311:267,1,130,8|8,0:0|0:0,0:0:0:0:
176,352,5513,6,0,P|74:331|16:258,2,195,8|8|8,0:0|0:0|0:0,0:0:0:0:
232,208,6817,2,0,P|227:258|218:280,1,65,0|8,0:0|0:0,0:0:0:0:
152,236,7143,2,0,P|108:211|91:193,1,65
140,136,7469,1,8,0:0:0:0:
209,102,7632,2,0,B|250:115|250:115|291:115,2,65,0|8|8,0:0|0:0|0:0,0:0:0:0:
257,39,8122,6,0,P|298:139|373:197,2,195,8|8|8,0:0|0:0|0:0,0:0:0:0:
384,64,9426,1,0,0:0:0:0:
384,64,9589,2,0,B|456:23|456:23|514:28,1,130,8|0,0:0|0:0,0:0:0:0:
475,100,10078,2,0,B|501:178|501:178|485:234,1,130,8|8,0:0|0:0,0:0:0:0:
392,344,10730,6,0,P|376:296|360:272,1,65,8|0,0:0|0:0,0:0:0:0:
240,200,11219,2,0,P|256:248|272:272,1,65,8|0,0:0|0:0,0:0:0:0:
152,368,11709,2,0,P|136:320|120:296,1,65,8|0,0:0|0:0,0:0:0:0:
55,279,12035,2,0,B|21:252|21:252|10:225,1,65,0|8,0:0|0:0,0:0:0:0:
74,184,12361,2,0,B|55:144|55:144|57:115,1,65
132,104,12687,2,0,B|132:60|132:60|146:35,1,65,8|0,0:0|0:0,0:0:0:0:
219,61,13013,2,0,B|238:22|238:22|262:5,1,65,8|8,0:0|0:0,0:0:0:0:
328,148,13502,5,8,0:0:0:0:
328,148,13665,2,0,B|328:78|328:78|334:80|334:80|338:18,1,130,8|8,0:0|0:0,0:0:0:0:
406,119,14154,2,0,B|406:189|406:189|400:187|400:187|396:249,1,130,8|8,0:0|0:0,0:0:0:0:
280,212,14806,1,8,0:0:0:0:
280,212,14969,2,0,B|232:168|232:168|140:168,1,130,8|8,0:0|0:0,0:0:0:0:
120,232,15459,2,0,B|116:264|116:264|120:264|120:264|116:296,1,65,0|8,0:0|0:0,0:0:0:0:
60,180,15785,2,0,B|64:148|64:148|60:148|60:148|64:116,1,65,0|4,0:0|0:0,0:0:0:0:
200,40,16437,5,0,0:0:0:0:
200,40,16600,2,0,P|260:104|336:104,1,130,2|0,0:0|0:0,0:0:0:0:
344,172,17089,2,0,P|408:112|408:36,1,130,2|0,0:0|0:0,0:0:0:0:
264,40,17741,2,0,P|200:100|200:176,1,130,2|0,0:0|0:0,0:0:0:0:
228,208,18230,2,2,P|228:250|246:285,1,65
304,232,18556,6,0,P|232:208|152:208,1,130
60,300,19045,2,0,P|132:324|212:324,1,130,2|0,0:0|0:0,0:0:0:0:
304,232,19535,2,0,P|288:215|272:176,1,65,2|0,0:0|0:0,0:0:0:0:
208,132,19861,2,0,P|199:215|166:262,1,130
120,196,20350,2,0,P|128:112|161:65,1,130,2|0,0:0|0:0,0:0:0:0:
208,132,20839,2,2,P|240:124|272:104,1,65
276,32,21165,6,0,P|380:60|440:116,1,130
500,188,21817,2,0,P|482:176|378:148,1,130,2|0,0:0|0:0,0:0:0:0:
344,220,22306,2,0,P|360:304|400:356,1,130,2|0,0:0|0:0,0:0:0:0:
452,300,22795,2,0,P|436:258|409:237,1,65,0|2,0:0|0:0,0:0:0:0:
344,220,23122,2,0,P|326:209|301:173,1,65
256,112,23448,2,2,P|238:123|213:159,1,65
152,208,23774,6,0,P|108:132|120:56,1,130
188,115,24263,2,0,P|232:191|220:267,1,130,2|0,0:0|0:0,0:0:0:0:
152,208,24752,2,0,P|132:244|112:268,1,65,2|0,0:0|0:0,0:0:0:0:
40,256,25078,5,2,0:0:0:0:
188,114,25404,1,2,0:0:0:0:
220,312,25730,2,0,L|188:292,4,32.5,8|0|0|0|8,0:0|0:0|0:0|0:0|0:0,0:0:0:0:
296,288,26219,1,8,0:0:0:0:
344,348,26382,6,0,B|424:312|424:312|448:272,1,130,4|8,0:0|0:0,0:0:0:0:
389,132,27035,2,0,L|369:64,2,65,0|0|8,0:0|0:0|0:0,0:0:0:0:
308,128,27524,2,0,B|320:212|320:212|368:244,1,130,0|2,0:0|0:0,0:0:0:0:
427,201,28013,1,8,0:0:0:0:
389,132,28176,2,0,B|365:56|365:56|301:48,1,130,2|2,0:0|0:0,0:0:0:0:
308,128,28665,1,8,0:0:0:0:
247,175,28828,1,0,0:0:0:0:
320,204,28991,6,0,P|232:154|219:111,1,130,0|8,0:0|0:0,0:0:0:0:
48,88,29643,2,0,P|135:137|148:180,1,130,0|8,0:0|0:0,0:0:0:0:
144,240,30132,1,0,0:0:0:0:
80,284,30295,2,0,L|124:344,1,65,0|2,0:0|0:0,0:0:0:0:
183,292,30622,2,0,L|144:239,1,65,8|2,0:0|0:0,0:0:0:0:
27,322,30948,2,0,L|80:284,1,65,0|2,0:0|0:0,0:0:0:0:
48,212,31274,1,8,0:0:0:0:
44,132,31437,1,0,0:0:0:0:
60,56,31600,6,0,P|128:88|208:100,1,130,0|8,0:0|0:0,0:0:0:0:
348,72,32252,2,0,P|280:40|200:28,1,130,0|8,0:0|0:0,0:0:0:0:
181,98,32741,2,0,P|220:168|280:192,1,130,0|2,0:0|0:0,0:0:0:0:
323,138,33230,2,0,P|329:128|336:76,1,65,8|2,0:0|0:0,0:0:0:0:
292,264,33556,2,0,P|286:274|279:326,1,65,0|2,0:0|0:0,0:0:0:0:
356,325,33882,2,0,P|379:233|361:198,1,130,8|4,0:0|0:0,0:0:0:0:
324,138,34372,6,0,B|286:97|286:97|202:90,1,130,0|8,0:0|0:0,0:0:0:0:
175,160,34861,2,0,B|158:212|158:212|194:289,1,130,0|8,0:0|0:0,0:0:0:0:
268,277,35350,2,0,B|322:265|322:265|370:196,1,130
324,138,35839,2,0,P|355:108|384:105,1,65,8|8,0:0|0:0,0:0:0:0:
268,277,36328,1,8,0:0:0:0:
175,160,36654,1,8,0:0:0:0:
256,192,36980,1,8,0:0:0:0:
256,192,37143,1,8,0:0:0:0:
243,105,37469,5,0,0:0:0:0:
188,244,37795,1,8,0:0:0:0:
337,224,38122,2,0,P|373:126|337:22,2,195,4|2|2,0:0|0:0|0:0,0:0:0:0:
188,138,39426,2,0,P|152:236|188:340,2,195,0|2|2,0:0|0:0|0:0,0:0:0:0:
256,176,40567,1,0,0:0:0:0:
256,176,40730,6,0,P|280:256|324:304,1,130
340,220,41219,2,0,P|272:244|208:248,1,130,2|0,0:0|0:0,0:0:0:0:
256,176,41709,2,0,P|233:102|190:60,1,130,2|0,0:0|0:0,0:0:0:0:
156,137,42198,2,0,P|178:210|214:247,1,130,2|0,0:0|0:0,0:0:0:0:
256,176,42687,2,0,P|250:132|235:105,1,65,2|0,0:0|0:0,0:0:0:0:
141,74,43013,2,0,P|148:118|157:137,1,65,2|0,0:0|0:0,0:0:0:0:
241,114,43339,6,0,P|320:100|430:152,2,195,4|2|2,0:0|0:0|0:0,0:0:0:0:
239,270,44643,2,0,P|318:285|428:233,1,195,0|2,0:0|0:0,0:0:0:0:
272,152,45459,2,0,L|272:80,2,65,0|2|0,0:0|0:0|0:0,0:0:0:0:
337,192,45948,5,4,0:0:0:0:
272,332,46274,1,8,0:0:0:0:
204,192,46600,1,8,0:0:0:0:
272,152,46763,1,0,0:0:0:0:
337,192,46926,1,8,0:0:0:0:
272,232,47089,5,4,0:0:0:0:
272,76,47415,1,8,0:0:0:0:
272,308,47741,1,8,0:0:0:0:
272,152,48067,2,0,B|192:136|192:136|148:96,1,130,8|8,0:0|0:0,0:0:0:0:
84,76,48556,6,0,P|176:123|202:224,2,195,0|2|2,0:0|0:0|0:0,0:0:0:0:
428,76,49861,2,0,P|335:123|309:224,2,195,0|2|2,0:0|0:0|0:0,0:0:0:0:
428,152,51002,1,0,0:0:0:0:
428,152,51165,6,0,B|472:208|472:208|480:288,1,130,0|0,0:0|0:0,0:0:0:0:
400,268,51654,2,0,P|344:296|300:356,1,130,2|0,0:0|0:0,0:0:0:0:
256,288,52143,2,0,P|200:260|156:200,1,130,2|0,0:0|0:0,0:0:0:0:
224,160,52632,2,0,L|287:145,2,65,2|0|0,0:0|0:0|0:0,0:0:0:0:
168,104,53122,2,0,B|164:72|164:72|156:72|156:72|152:36,1,65,2|4,0:0|0:0,0:0:0:0:
153,48,53611,5,4,0:0:0:0:
153,48,53774,2,0,L|104:168,1,130,0|8,0:0|0:0,0:0:0:0:
84,316,54426,2,0,L|34:196,1,130,8|8,0:0|0:0,0:0:0:0:
104,168,54915,1,0,0:0:0:0:
148,232,55078,2,0,B|156:292|156:292|168:292|168:292|180:364,1,130,8|8,0:0|0:0,0:0:0:0:
274,211,55730,1,8,0:0:0:0:
274,210,55893,2,0,B|266:150|266:150|254:150|254:150|245:94,1,130,8|8,0:0|0:0,0:0:0:0:
245,94,56382,6,0,P|280:116|312:120,1,65,4|0,0:0|0:0,0:0:0:0:
353,181,56709,2,0,P|332:216|328:248,1,65,8|0,0:0|0:0,0:0:0:0:
266,289,57035,2,0,P|232:268|200:264,1,65,8|0,0:0|0:0,0:0:0:0:
158,202,57362,2,0,P|180:168|184:136,1,65,8|8,0:0|0:0,0:0:0:0:
208,263,57850,5,8,0:0:0:0:
327,239,58176,1,8,0:0:0:0:
303,120,58502,1,8,0:0:0:0:
184,144,58828,1,8,0:0:0:0:
304,120,59154,6,8,B|305:87|305:87|314:84|314:84|314:45,1,65,8|8,0:0|0:0,0:0:0:0:
184,144,59643,2,8,B|183:111|183:111|174:108|174:108|174:69,1,65
208,263,60132,1,8,0:0:0:0:
328,240,60459,2,8,B|329:273|329:273|338:276|338:276|338:315,2,65
256,188,60948,2,0,L|256:324,1,130,8|0,0:0|0:0,0:0:0:0:
256,318,61437,6,0,P|190:333|142:295,1,130,4|0,0:0|0:0,0:0:0:0:
208,263,61926,1,8,0:0:0:0:
304,121,62252,1,0,0:0:0:0:
160,32,62578,1,8,0:0:0:0:
80,180,62904,2,0,P|112:113|80:58,1,130,0|8,0:0|0:0,0:0:0:0:
24,116,63393,2,0,P|93:134|149:106,1,130,2|10,0:0|0:0,0:0:0:0:
160,32,63882,2,0,P|208:64|228:92,1,65,0|10,0:0|0:0,0:0:0:0:
143,111,64209,6,0,P|180:196|228:224,1,130,0|8,0:0|0:0,0:0:0:0:
352,308,64861,2,0,P|315:223|267:195,1,130,0|8,0:0|0:0,0:0:0:0:
221,278,65350,2,0,P|216:268|208:216,1,65
60,228,65839,2,0,P|120:276|172:288,1,130,8|0,0:0|0:0,0:0:0:0:
240,352,66328,2,0,P|280:328|296:296,1,65,0|8,0:0|0:0,0:0:0:0:
168,208,66654,6,0,P|168:144|208:88,1,130,4|0,0:0|0:0,0:0:0:0:
204,91,67143,1,8,0:0:0:0:
336,40,67469,2,0,P|336:104|296:160,1,130,0|8,0:0|0:0,0:0:0:0:
205,91,67959,2,0,P|206:82|241:39,2,65
284,112,68448,2,0,P|339:149|399:138,1,130,8|0,0:0|0:0,0:0:0:0:
232,180,68937,2,0,P|182:232|106:224,1,130,10|10,0:0|0:0,0:0:0:0:
130,320,69426,6,0,P|124:248|151:187,1,130,0|8,0:0|0:0,0:0:0:0:
232,180,69915,1,0,0:0:0:0:
204,260,70078,2,0,P|120:244|68:200,1,130,0|8,0:0|0:0,0:0:0:0:
148,164,70567,1,0,0:0:0:0:
232,180,70730,2,0,P|268:168|296:148,1,65
227,96,71056,2,0,L|220:32,1,65,8|0,0:0|0:0,0:0:0:0:
290,154,71382,2,0,L|297:218,1,65,4|8,0:0|0:0,0:0:0:0:
297,218,71872,6,0,B|335:254|335:254|341:299|387:323,1,130,8|0,0:0|0:0,0:0:0:0:
492,344,72361,2,0,B|453:307|453:307|447:262|401:238,1,130,8|0,0:0|0:0,0:0:0:0:
412,160,72850,2,0,P|458:175|484:199,2,65,0|8|0,0:0|0:0|0:0,0:0:0:0:
348,106,73339,2,0,P|313:140|297:218,1,130,0|8,0:0|0:0,0:0:0:0:
412,160,73828,2,0,P|344:105|295:90,1,130,2|10,0:0|0:0,0:0:0:0:
244,36,74317,1,0,0:0:0:0:
244,36,74480,6,0,P|192:80|112:72,1,130,10|0,0:0|0:0,0:0:0:0:
60,124,74969,2,0,B|52:92|52:92|44:92|44:92|36:64,1,65,8|0,0:0|0:0,0:0:0:0:
132,164,75295,2,0,B|140:196|140:196|148:196|148:196|156:224,1,65
100,284,75622,1,8,0:0:0:0:
24,320,75785,2,0,P|34:244|64:175,1,130
132,164,76274,1,8,0:0:0:0:
164,84,76437,2,0,L|176:40,4,32.5,0|8|0|8|0,0:0|0:0|0:0|0:0|0:0,0:0:0:0:
132,164,76926,2,0,P|132:176|140:228,1,65,0|4,0:0|0:0,0:0:0:0:
188,300,77252,6,0,P|196:352|196:392,1,65,0|0,0:0|0:0,0:0:0:0:
276,332,77578,2,0,P|288:240|276:184,1,130,8|0,0:0|0:0,0:0:0:0:
328,136,78067,1,0,0:0:0:0:
292,60,78230,1,8,0:0:0:0:
328,136,78393,2,0,P|388:120|456:120,1,130
480,200,78882,2,0,P|476:232|460:268,1,65,8|0,0:0|0:0,0:0:0:0:
404,80,79209,2,0,P|408:112|424:148,1,65
328,136,79535,2,0,P|280:140|248:128,1,65,8|0,0:0|0:0,0:0:0:0:
232,60,79861,6,8,P|144:39|71:115,2,195
184,128,81002,1,8,0:0:0:0:
160,208,81165,2,0,L|120:200,6,32.5,8|0|0|0|0|0|8,0:0|0:0|0:0|0:0|0:0|0:0|0:0,0:0:0:0:
184,288,81817,2,0,L|224:296,6,32.5,0|0|0|0|8|0|8,0:0|0:0|0:0|0:0|0:0|0:0|0:0,0:0:0:0:
244,348,82469,6,0,P|308:312|332:252,1,130,8|0,0:0|0:0,0:0:0:0:
392,96,82959,2,0,P|328:132|304:192,1,130,8|0,0:0|0:0,0:0:0:0:
396,184,83448,2,0,L|312:172,1,65,4|0,0:0|0:0,0:0:0:0:
232,216,83774,2,0,P|168:180|144:120,1,130,8|0,0:0|0:0,0:0:0:0:
180,56,84263,2,0,P|244:92|268:152,1,130,8|0,0:0|0:0,0:0:0:0:
232,216,84752,2,0,L|232:284,2,65,8|8|4,0:0|0:0|0:0,0:0:0:0:
256,192,85160,12,0,88910,0:0:0:0:
