osu file format v12

[General]
AudioFilename: 1.mp3
AudioLeadIn: 2000
PreviewTime: 59154
Countdown: 0
SampleSet: Soft
StackLeniency: 0.6
Mode: 0
LetterboxInBreaks: 0

[Editor]
DistanceSpacing: 1.2
BeatDivisor: 2
GridSize: 8

[Metadata]
Title:Houkyou no Messiah (Chinese Version)
TitleUnicode:咆筺のメシア (Chinese Version)
Artist:HARUKI
ArtistUnicode:HARUKI
Creator:JauiPlaY
Version:Easy
Source:Robotics;Notes
Tags:no_gu 5pb. nitro+ nitroplus opening
BeatmapID:238711
BeatmapSetID:87381

[Difficulty]
HPDrainRate:3
CircleSize:3
OverallDifficulty:3
ApproachRate:4
SliderMultiplier:0.8
SliderTickRate:1

[Events]
//Background and Video events
0,0,"98868fd235e61d60f65d3459252dac8c.jpg",0,0
Video,-387,"2.avi"
//Break Periods
2,2904,12182
//Storyboard Layer 0 (Background)
//Storyboard Layer 1 (Fail)
//Storyboard Layer 2 (Pass)
//Storyboard Layer 3 (Foreground)
//Storyboard Sound Samples
//Background Colour Transformations
3,100,0,0,0

[TimingPoints]
296,326.086956521739,4,2,1,60,1,0
26382,-100,4,2,1,60,0,1
26464,-100,4,2,1,60,0,0
29317,-100,4,2,2,60,0,0
29480,-100,4,2,1,60,0,0
30622,-100,4,2,2,60,0,0
30785,-100,4,2,1,60,0,0
32578,-100,4,2,2,60,0,0
32741,-100,4,2,1,60,0,0
34535,-100,4,2,2,60,0,0
34698,-100,4,2,1,60,0,0
36002,-100,4,2,1,80,0,0
38122,-100,4,2,1,60,0,0
38448,-100,4,2,2,60,0,0
38611,-100,4,2,1,60,0,0
39752,-100,4,2,2,60,0,0
39915,-100,4,2,1,60,0,0
43665,-100,4,2,2,60,0,0
43828,-100,4,2,1,60,0,0
44969,-100,4,2,2,60,0,0
45132,-100,4,2,1,60,0,0
48882,-100,4,2,2,60,0,0
49045,-100,4,2,1,60,0,0
50187,-100,4,2,2,60,0,0
50350,-100,4,2,1,60,0,0
51491,-100,4,2,2,60,0,0
51654,-100,4,2,1,60,0,0
52795,-100,4,2,2,60,0,0
52959,-100,4,2,1,60,0,0
54100,-100,4,2,2,60,0,0
54263,-100,4,2,1,60,0,0
55404,-100,4,2,2,60,0,0
55567,-100,4,2,1,60,0,0
61437,-100,4,2,1,60,0,1
63230,-100,4,2,2,60,0,1
63393,-100,4,2,1,60,0,1
64535,-100,4,2,2,60,0,1
64698,-100,4,2,1,60,0,1
65839,-100,4,2,2,60,0,1
66002,-100,4,2,1,60,0,1
68448,-100,4,2,2,60,0,1
68611,-100,4,2,1,60,0,1
69752,-100,4,2,2,60,0,1
69915,-100,4,2,1,60,0,1
71056,-100,4,2,2,60,0,1
71219,-100,4,2,1,60,0,1
73665,-100,4,2,2,60,0,1
73828,-100,4,2,1,60,0,1
74969,-100,4,2,2,60,0,1
75132,-100,4,2,1,60,0,1
76274,-100,4,2,2,60,0,1
76437,-100,4,2,1,60,0,1
82795,-100,4,2,2,60,0,1
85078,-100,4,2,1,60,0,0

[Colours]
Combo1 : 190,125,255
Combo2 : 128,255,0
Combo3 : 77,166,255
Combo4 : 245,90,114
Combo5 : 255,255,26

[HitObjects]
256,192,296,12,0,2578,0:0:0:0:
256,192,13502,6,0,L|256:320,2,120,8|8|8,0:0|0:0|0:0,0:0:0:0:
200,116,14806,2,0,P|256:96|312:116,1,120,8|8,0:0|0:0,0:0:0:0:
392,64,15622,1,8,0:0:0:0:
436,148,15948,6,0,B|472:184|472:184|472:260,2,120,4|0|2,0:0|0:0|0:0,0:0:0:0:
384,228,17252,2,0,B|348:264|348:264|348:340,2,120,0|0|2,0:0|0:0|0:0,0:0:0:0:
308,172,18556,6,0,P|252:124|196:172,1,160
236,260,19535,1,2,0:0:0:0:
204,352,19861,2,0,P|151:308|136:252,2,120,0|2|2,0:0|0:0|0:0,0:0:0:0:
236,260,21165,6,0,B|292:288|304:352|304:352|352:352,1,160
400,272,22143,1,2,0:0:0:0:
456,352,22469,2,0,B|492:320|492:320|496:216,2,120,0|0|2,0:0|0:0|0:0,0:0:0:0:
400,272,23774,6,0,P|344:176|281:193,1,160
347,89,24752,1,2,0:0:0:0:
260,48,25078,2,0,L|176:48,3,80,2|2|0|8,0:0|0:0|0:0|0:0,0:0:0:0:
176,144,26382,5,4,0:0:0:0:
92,96,26709,2,0,P|29:180|56:245,1,160,8|8,0:0|0:0,0:0:0:0:
136,236,27687,1,0,0:0:0:0:
220,280,28013,2,0,P|130:334|68:301,1,160,8|8,0:0|0:0,0:0:0:0:
136,236,28991,6,0,B|159:162|243:113|267:37,1,240,0|8,0:0|0:0,0:0:0:0:
352,80,30295,2,0,B|327:156|244:204|220:278,1,240,0|8,0:0|0:0,0:0:0:0:
288,348,31600,6,0,L|384:348,1,80,0|8,0:0|0:0,0:0:0:0:
448,296,32252,2,0,P|488:240|480:160,2,120,0|0|8,0:0|0:0|0:0,0:0:0:0:
396,216,33556,2,0,L|396:128,1,80,0|8,0:0|0:0,0:0:0:0:
340,60,34209,6,0,P|396:40|452:60,2,120,4|0|8,0:0|0:0|0:0,0:0:0:0:
284,140,35513,2,0,P|232:116|208:48,1,120,4|8,0:0|0:0,0:0:0:0:
124,112,36328,2,0,L|28:124,1,80,8|8,0:0|0:0,0:0:0:0:
76,32,36980,2,0,L|76:180,1,120,8|0,0:0|0:0,0:0:0:0:
104,244,37795,1,8,0:0:0:0:
52,324,38122,6,0,P|164:332|280:264,1,240,4|8,0:0|0:0,0:0:0:0:
324,192,39426,2,0,P|212:184|96:252,1,240,0|8,0:0|0:0,0:0:0:0:
44,168,40730,5,0,0:0:0:0:
100,92,41056,2,0,P|152:40|236:60,1,160,8|8,0:0|0:0,0:0:0:0:
308,112,42035,1,0,0:0:0:0:
368,188,42361,2,0,P|446:203|498:151,1,160,8|8,0:0|0:0,0:0:0:0:
416,104,43339,6,0,B|416:176|288:232|288:304,1,240,4|8,0:0|0:0,0:0:0:0:
376,344,44643,2,0,B|376:275|248:219|248:147,1,240,0|8,0:0|0:0,0:0:0:0:
213,58,45948,6,0,P|165:74|133:106,1,80,4|8,0:0|0:0,0:0:0:0:
48,72,46600,2,0,L|48:200,1,120,0|4,0:0|0:0,0:0:0:0:
48,192,47904,1,0,0:0:0:0:
112,264,48230,1,8,0:0:0:0:
64,352,48556,6,0,B|136:376|184:328|184:328|240:328,1,160
304,360,49535,1,8,0:0:0:0:
384,312,49861,2,0,P|456:272|464:184,1,160
392,152,50839,1,8,0:0:0:0:
336,72,51165,6,0,P|410:59|476:102,4,120,0|0|8|0|8,0:0|0:0|0:0|0:0|0:0,0:0:0:0:
296,160,53448,1,0,0:0:0:0:
216,208,53774,6,0,P|98:124|98:7,1,240,0|8,0:0|0:0,0:0:0:0:
184,40,55078,2,0,P|174:126|57:210,1,240,0|8,0:0|0:0,0:0:0:0:
88,304,56382,5,4,0:0:0:0:
168,360,56709,2,0,P|256:352|336:296,1,160,8|8,0:0|0:0,0:0:0:0:
365,234,57687,1,0,0:0:0:0:
450,190,58013,2,0,P|418:131|343:59,1,160,8|8,0:0|0:0,0:0:0:0:
256,72,58991,1,4,0:0:0:0:
256,72,60948,6,0,L|256:208,2,120,8|4|8,0:0|0:0|0:0,0:0:0:0:
346,104,62252,2,0,P|372:147|423:180,1,80,0|8,0:0|0:0,0:0:0:0:
485,138,62904,2,0,B|496:191|461:234|461:234|461:290,2,120,0|0|8,0:0|0:0|0:0,0:0:0:0:
434,55,64209,6,0,P|363:162|367:270,1,240,0|8,0:0|0:0,0:0:0:0:
418,353,65513,2,0,P|489:246|485:138,1,240,0|8,0:0|0:0,0:0:0:0:
403,87,66817,6,0,L|307:62,1,80,0|8,0:0|0:0,0:0:0:0:
263,140,67469,2,0,L|167:165,1,80,0|8,0:0|0:0,0:0:0:0:
109,100,68122,2,0,P|90:165|107:224,2,120,0|0|8,0:0|0:0|0:0,0:0:0:0:
13,111,69426,6,0,P|104:221|125:324,1,240,0|8,0:0|0:0,0:0:0:0:
31,336,70730,2,0,P|132:234|233:204,1,240,0|8,0:0|0:0,0:0:0:0:
256,296,72035,6,0,P|296:336|344:352,1,80,0|8,0:0|0:0,0:0:0:0:
344,256,72687,2,0,P|384:216|432:200,1,80,0|8,0:0|0:0,0:0:0:0:
480,272,73339,2,0,P|500:185|475:133,2,120,0|0|8,0:0|0:0|0:0,0:0:0:0:
416,344,74643,6,0,P|327:212|323:114,1,240,0|8,0:0|0:0,0:0:0:0:
392,72,75948,2,0,P|260:160|162:164,1,240,0|0,0:0|0:0,0:0:0:0:
120,96,77252,6,0,P|64:56|24:48,1,80,4|8,0:0|0:0,0:0:0:0:
16,144,77904,2,0,P|72:184|112:192,1,80,0|8,0:0|0:0,0:0:0:0:
176,208,78556,2,0,P|185:211|241:251,1,80,0|8,0:0|0:0,0:0:0:0:
203,342,79209,2,0,P|193:338|137:298,1,80,0|8,0:0|0:0,0:0:0:0:
176,208,79861,6,0,P|212:130|209:67,2,120,8|8|8,0:0|0:0|0:0,0:0:0:0:
80,232,81165,2,0,P|43:309|46:372,2,120,8|8|8,0:0|0:0|0:0,0:0:0:0:
176,208,82469,6,0,P|288:200|432:248,1,240,0|4,0:0|0:0,0:0:0:0:
448,320,83774,2,0,P|336:328|192:280,1,240,0|0,0:0|0:0,0:0:0:0:
176,208,85078,1,4,0:0:0:0:
256,192,85160,12,0,88910,0:0:0:0:
