osu file format v12

[General]
AudioFilename: Laterality.mp3
AudioLeadIn: 1500
PreviewTime: 50738
Countdown: 0
SampleSet: Normal
StackLeniency: 0.7
Mode: 0
LetterboxInBreaks: 0
WidescreenStoryboard: 0

[Editor]
DistanceSpacing: 0.9
BeatDivisor: 4
GridSize: 4

[Metadata]
Title:Koi Boudou (TV Size)
TitleUnicode:恋暴動 (TV Size)
Artist:HAPPY BIRTHDAY
ArtistUnicode:HAPPY BIRTHDAY
Creator:koreapenguin
Version:Easy
Source:Binbougami ga!
Tags:ending ichiko momiji good luck girl! scanter HeatKai
BeatmapID:226053
BeatmapSetID:70146

[Difficulty]
HPDrainRate:2
CircleSize:3
OverallDifficulty:2
ApproachRate:3
SliderMultiplier:1
SliderTickRate:1

[Events]
//Background and Video events
0,0,"BG.png",0,0
Video,728,"binbougami.avi"
//Break Periods
2,47230,49430
//Storyboard Layer 0 (Background)
//Storyboard Layer 1 (Fail)
//Storyboard Layer 2 (Pass)
//Storyboard Layer 3 (Foreground)
//Storyboard Sound Samples
//Background Colour Transformations
3,100,163,162,255

[TimingPoints]
916,480,4,1,1,70,1,0
8590,480,4,1,1,70,1,0
20125,480,4,1,1,70,1,0
25900,480,4,1,1,70,1,0
43190,480,4,1,1,70,1,0
50870,-100,4,1,1,70,0,1
66205,480,4,1,1,70,1,1
73920,480,4,1,1,70,1,1
81600,-100,4,1,1,70,0,0
82070,480,4,1,1,70,1,0
83510,480,4,1,1,70,1,0

[Colours]
Combo1 : 152,180,252
Combo2 : 232,140,2
Combo3 : 139,119,105
Combo4 : 240,5,5

[HitObjects]
168,276,916,2,0,P|254:315|348:276,1,200,4|2,0:0|0:0,0:0:0:0:
256,120,2836,1,0,0:0:0:0:
168,148,3316,1,2,0:0:0:0:
104,212,3796,1,2,0:0:0:0:
256,308,4756,6,0,P|166:347|79:308,1,200,0|2,0:0|0:0,0:0:0:0:
166,149,6676,1,0,0:0:0:0:
256,168,7156,1,2,0:0:0:0:
316,236,7636,1,2,0:0:0:0:
416,84,8590,6,0,L|344:152,2,100,4|8|2,0:0|0:0|0:0,0:0:0:0:
256,168,10510,1,0,0:0:0:0:
172,132,10990,1,2,0:0:0:0:
88,168,11470,1,2,0:0:0:0:
236,272,12430,6,0,P|193:255|159:215,2,100,0|8|2,0:0|0:0|0:0,0:0:0:0:
392,180,14350,1,0,0:0:0:0:
344,104,14830,1,2,0:0:0:0:
256,80,15310,1,2,0:0:0:0:
144,224,16270,6,0,L|156:336,2,100,4|8|2,0:0|0:0|0:0,0:0:0:0:
256,80,18190,2,0,P|384:152|356:288,1,300,0|4,0:0|3:0,0:0:0:0:
284,328,20125,6,0,P|236:324|184:336,1,100,4|2,0:0|0:0,0:0:0:0:
100,312,21085,1,8,0:0:0:0:
208,168,22045,2,0,P|256:172|308:160,1,100,0|2,0:0|0:0,0:0:0:0:
392,192,23005,1,8,0:0:0:0:
256,312,23965,6,0,L|156:340,1,100,0|2,0:0|0:0,0:0:0:0:
72,316,24925,1,8,0:0:0:0:
92,136,25900,2,0,L|168:216,1,100,0|2,0:0|0:0,0:0:0:0:
248,232,26860,1,8,0:0:0:0:
376,104,27820,6,0,P|352:60|304:40,2,100,0|2|8,0:0|0:0|0:0,0:0:0:0:
376,280,29740,2,0,P|352:324|304:344,2,100,0|2|8,0:0|0:0|0:0,0:0:0:0:
220,192,31660,6,0,L|108:192,2,100,0|2|8,0:0|0:0|0:0,0:0:0:0:
392,144,33580,2,0,P|404:192|392:240,2,100,0|2|8,0:0|0:0|0:0,0:0:0:0:
330,313,35500,6,0,B|212:273|303:113|167:85,1,300,4|2,0:0|0:0,0:0:0:0:
120,164,37420,2,0,B|207:251|310:100|395:210,1,300,0|2,0:0|0:0,0:0:0:0:
392,300,39340,2,0,P|368:344|312:360,1,100,0|4,0:0|0:0,0:0:0:0:
144,160,41260,5,0,0:0:0:0:
212,100,41740,1,2,0:0:0:0:
300,100,42220,1,0,0:0:0:0:
368,160,42700,1,2,0:0:0:0:
364,248,43190,6,0,B|304:248|304:248|252:308|252:308|184:308,1,200,4|0,0:0|0:0,0:0:0:0:
40,168,45110,2,0,B|100:168|100:168|152:228|152:228|220:228,1,200,0|0,0:0|0:0,0:0:0:0:
256,148,46550,1,2,0:0:0:0:
300,228,47030,1,4,0:0:0:0:
208,236,50870,6,0,P|256:248|304:236,1,100,4|8,0:0|0:0,0:0:0:0:
304,148,51830,2,0,P|256:136|208:148,1,100,0|8,0:0|0:0,0:0:0:0:
128,192,52790,2,0,P|120:264|160:336,2,150,2|2|8,0:0|0:0|0:0,0:0:0:0:
184,120,54710,6,0,L|296:108,1,100,0|8,0:0|0:0,0:0:0:0:
304,196,55670,2,0,L|416:184,1,100,0|8,0:0|0:0,0:0:0:0:
440,268,56630,2,0,P|412:332|340:364,2,150,2|2|8,0:0|0:0|0:0,0:0:0:0:
372,212,58550,6,0,P|328:235|301:277,1,100,4|8,0:0|0:0,0:0:0:0:
210,277,59510,2,0,P|183:235|140:212,1,100,0|8,0:0|0:0,0:0:0:0:
72,268,60470,2,0,P|100:332|172:364,2,150,2|2|8,0:0|0:0|0:0,0:0:0:0:
96,180,62390,5,4,0:0:0:0:
256,100,63350,1,0,0:0:0:0:
416,180,64310,2,0,P|348:308|192:312,1,300,4|8,0:0|3:0,0:0:0:0:
140,260,66205,6,0,P|132:212|144:160,1,100,4|8,0:0|0:0,0:0:0:0:
168,76,67165,2,0,P|116:52|60:64,1,100,0|8,0:0|0:0,0:0:0:0:
32,136,68125,2,0,P|20:220|40:300,2,150,2|2|8,0:0|0:0|0:0,0:0:0:0:
116,104,70045,6,0,L|212:72,1,100,0|8,0:0|0:0,0:0:0:0:
301,72,71005,2,0,L|396:104,1,100,0|8,0:0|0:0,0:0:0:0:
360,188,71965,2,0,P|284:208|252:284,2,150,2|2|8,0:0|0:0|0:0,0:0:0:0:
340,276,73920,6,0,P|320:328|280:356,1,100,4|8,0:0|0:0,0:0:0:0:
196,352,74880,2,0,P|153:324|97:328,1,100,0|8,0:0|0:0,0:0:0:0:
28,276,75840,2,0,P|20:208|56:128,2,150,2|2|8,0:0|0:0|0:0,0:0:0:0:
116,260,77760,5,4,0:0:0:0:
256,148,78720,1,0,0:0:0:0:
396,260,79680,2,0,P|359:335|116:248,1,400,4|4,0:0|0:0,0:0:0:0:
256,144,82550,5,2,0:0:0:0:
256,324,83510,2,0,P|156:304|48:308,2,200,2|2|4,0:0|0:0|0:0,0:0:0:0:
436,348,86390,6,0,P|456:280|440:200,2,150,2|2|2,0:0|0:0|0:0,0:0:0:0:
344,348,88310,1,0,3:0:0:0:
