osu file format v14

[General]
AudioFilename: Deemo Friction.mp3
AudioLeadIn: 0
PreviewTime: 38971
Countdown: 1
SampleSet: Soft
StackLeniency: 0.7
Mode: 0
LetterboxInBreaks: 1
WidescreenStoryboard: 1

[Editor]
DistanceSpacing: 1.3
BeatDivisor: 3
GridSize: 8
TimelineZoom: 2.4

[Metadata]
Title:Friction
TitleUnicode:Friction
Artist:HAMO from Mili
ArtistUnicode:HAMO from Mili
Creator:BluOxy
Version:Collapse
Source:Deemo
Tags:Mag Mell
BeatmapID:681027
BeatmapSetID:303927

[Difficulty]
HPDrainRate:7
CircleSize:4
OverallDifficulty:8
ApproachRate:9.2
SliderMultiplier:1.8
SliderTickRate:1

[Events]
//Background and Video events
0,0,"_BackGround.png",0,0
//Break Periods
//Storyboard Layer 0 (Background)
//Storyboard Layer 1 (Fail)
//Storyboard Layer 2 (Pass)
//Storyboard Layer 3 (Foreground)
//Storyboard Sound Samples

[TimingPoints]
2048,461.538461538462,4,2,1,25,1,0
31586,-131.578947368421,4,2,1,25,0,0
32509,-113.636363636364,4,2,1,25,0,0
32971,-100,4,2,1,25,0,0
33432,-89.2857142857143,4,2,1,25,0,0
33894,-100,4,2,1,25,0,0
34355,-113.636363636364,4,2,1,25,0,0
35278,-131.578947368421,4,2,1,25,0,0
36201,-113.636363636364,4,2,1,25,0,0
37124,-100,4,2,1,25,0,0
37586,-89.2857142857143,4,2,1,25,0,0
38048,-106.382978723404,4,2,1,25,0,0
38509,-131.578947368421,4,2,1,25,0,0
38971,-100,4,1,1,25,0,1
39048,-100,4,2,1,55,0,1
46355,-100,4,2,1,25,0,0
47278,-113.636363636364,4,2,1,25,0,0
48201,-131.578947368421,4,2,1,25,0,0
49124,-156.25,4,2,1,25,0,0
50048,-100,4,2,1,25,0,0
50971,-113.636363636364,4,2,1,25,0,0
51894,-131.578947368421,4,2,1,25,0,0
52817,-156.25,4,2,1,25,0,0
53740,-113.636363636364,4,2,1,25,0,0
54663,-131.578947368421,4,2,1,25,0,0
55586,-156.25,4,2,1,25,0,0
56509,-192.307692307692,4,2,1,25,0,0
57432,-131.578947368421,4,2,1,25,0,0
58355,-156.25,4,2,1,25,0,0
59278,-192.307692307692,4,2,1,25,0,0
61124,-100,4,2,1,25,0,0
75894,-100,4,2,1,25,0,0
76817,-131.578947368421,4,2,1,25,0,0
77740,-192.307692307692,4,2,1,25,0,0
78663,-131.578947368421,4,2,1,25,0,0
79586,-100,4,2,1,25,0,0
80509,-131.578947368421,4,2,1,25,0,0
81432,-100,4,2,1,25,0,0
82355,-131.578947368421,4,2,1,25,0,0
83278,-192.307692307692,4,2,1,25,0,0
112817,-192.307692307692,4,2,1,25,0,0
113278,-156.25,4,2,1,25,0,0
113740,-131.578947368421,4,2,1,25,0,0
114201,-156.25,4,2,1,25,0,0
114663,-131.578947368421,4,2,1,25,0,0
115124,-156.25,4,2,1,25,0,0
115586,-192.307692307692,4,2,1,25,0,0
116048,-156.25,4,2,1,25,0,0
116509,-131.578947368421,4,2,1,25,0,0
117432,-113.636363636364,4,2,1,25,0,0
117894,-131.578947368421,4,2,1,25,0,0
118355,-100,4,2,1,25,0,0
118817,-113.636363636364,4,2,1,25,0,0
119278,-131.578947368421,4,2,1,25,0,0
119740,-156.25,4,2,1,25,0,0
120201,-100,4,2,1,25,0,0
123894,-100,4,2,1,25,0,1
138663,-100,4,2,1,25,0,0
153432,-100,4,2,1,25,0,0

[Colours]
Combo1 : 255,142,142
Combo2 : 255,172,132
Combo3 : 192,131,131

[HitObjects]
217,241,2048,6,0,L|97:253,2,120,2|0|0,0:0|0:0|0:0,0:0:0:0:
331,204,2971,2,0,L|450:216,2,120,2|0|0,0:0|0:0|0:0,0:0:0:0:
217,166,3894,6,0,L|97:178,2,120,2|0|0,0:0|0:0|0:0,0:0:0:0:
331,129,4817,2,0,L|450:141,2,120,2|0|0,0:0|0:0|0:0,0:0:0:0:
150,95,5740,6,0,P|122:147|124:206,2,120,2|0|0,0:0|0:0|0:0,0:0:0:0:
280,241,6663,2,0,P|308:188|306:129,2,120,2|0|0,0:0|0:0|0:0,0:0:0:0:
119,305,7586,5,2,0:0:0:0:
237,322,7894,1,0,0:0:0:0:
355,340,8201,1,0,0:0:0:0:
468,120,8509,5,2,0:0:0:0:
350,137,8817,1,0,0:0:0:0:
232,155,9124,1,0,0:0:0:0:
422,243,9432,6,0,L|410:112,1,120,2|0,0:0|0:0,0:0:0:0:
401,3,10048,1,0,0:0:0:0:
178,144,10355,6,0,L|165:267,1,120,2|0,0:0|0:0,0:0:0:0:
151,382,10971,1,0,0:0:0:0:
298,263,11278,5,2,0:0:0:0:
104,176,11586,1,0,0:0:0:0:
303,111,11894,1,0,0:0:0:0:
236,194,12201,5,2,0:0:0:0:
103,31,12509,1,0,0:0:0:0:
35,264,12817,1,0,0:0:0:0:
182,101,13124,6,0,B|93:111|93:111|54:101,1,120,2|0,0:0|0:0,0:0:0:0:
7,81,13586,1,0,0:0:0:0:
121,216,13740,1,0,0:0:0:0:
108,236,14048,6,0,L|231:225,1,120,2|0,0:0|0:0,0:0:0:0:
335,173,14663,1,0,0:0:0:0:
415,330,14971,2,0,L|424:205,1,120,2|0,0:0|0:0,0:0:0:0:
303,65,15432,1,0,0:0:0:0:
408,20,15586,1,0,0:0:0:0:
389,5,15894,6,0,L|398:138,2,120,2|0|0,0:0|0:0|0:0,0:0:0:0:
490,165,16817,5,2,0:0:0:0:
378,207,17124,1,0,0:0:0:0:
265,249,17432,1,0,0:0:0:0:
476,278,17740,5,2,0:0:0:0:
469,149,18048,1,0,0:0:0:0:
462,29,18355,1,0,0:0:0:0:
248,116,18663,6,0,L|243:235,1,120,2|0,0:0|0:0,0:0:0:0:
237,355,19278,1,0,0:0:0:0:
42,302,19586,2,0,L|37:182,1,120,2|0,0:0|0:0,0:0:0:0:
31,64,20201,1,0,0:0:0:0:
174,20,20509,6,0,L|169:139,1,120,2|0,0:0|0:0,0:0:0:0:
163,259,20971,1,0,0:0:0:0:
37,182,21124,1,0,0:0:0:0:
25,202,21432,2,0,L|29:281,1,60,2|0,0:0|0:0,0:0:0:0:
260,341,21740,2,0,L|263:281,1,60
271,160,22048,1,0,0:0:0:0:
250,172,22355,6,0,P|279:173|315:184,1,60,2|0,0:0|0:0,0:0:0:0:
452,151,22663,2,0,P|436:175|409:201,1,60
348,279,22971,1,0,0:0:0:0:
327,290,23278,2,0,P|388:290|447:327,2,120,2|0|0,0:0|0:0|0:0,0:0:0:0:
158,323,24201,5,2,0:0:0:0:
59,215,24509,1,0,0:0:0:0:
15,354,24817,1,0,0:3:0:0:
175,307,25124,5,2,0:0:0:0:
5,283,25432,1,0,0:0:0:0:
199,178,25740,1,0,0:0:0:0:
99,377,26048,6,0,L|96:257,1,120,2|0,0:0|0:0,0:0:0:0:
120,123,26509,1,0,0:0:0:0:
14,158,26663,1,0,0:0:0:0:
25,179,26971,2,0,L|20:97,1,60,2|0,0:0|0:0,0:0:0:0:
226,39,27278,2,0,L|222:98,1,60
120,235,27586,2,0,L|116:175,1,60
312,96,27894,6,0,L|304:220,2,120,2|0|0,0:0|0:0|0:0,0:0:0:0:
215,288,28817,1,2,0:0:0:0:
402,275,29124,1,0,0:0:0:0:
305,347,29432,2,0,L|310:279,1,60
131,124,29740,6,0,L|139:249,1,120,2|0,0:0|0:0,0:0:0:0:
199,361,30201,1,0,0:0:0:0:
43,270,30355,1,0,0:0:0:0:
33,291,30663,5,2,0:0:0:0:
243,246,30971,1,0,0:0:0:0:
105,369,31278,1,0,0:0:0:0:
36,138,31586,6,0,L|92:141,1,45.5999994433594,2|0,0:0|0:0,0:0:0:0:
161,199,31894,1,0,0:0:0:0:
174,180,32048,2,0,P|182:134|171:89,1,91.1999988867188,2|0,0:0|0:0,0:0:0:0:
268,56,32509,6,0,L|323:58,1,52.8000016113282,2|0,0:0|0:0,0:0:0:0:
421,44,32817,1,0,0:0:0:0:
292,186,32971,6,0,L|355:170,1,60,2|0,0:0|0:0,0:0:0:0:
465,72,33278,1,0,0:0:0:0:
420,297,33432,5,2,0:0:0:0:
384,74,33586,1,0,0:0:0:0:
492,204,33740,1,0,0:0:0:0:
254,159,33894,5,2,0:0:0:0:
459,116,34048,1,0,0:0:0:0:
294,250,34201,1,0,0:0:0:0:
344,64,34355,6,0,L|354:173,1,105.600003222656,2|0,0:0|0:0,0:0:0:0:
221,187,34817,2,0,L|223:76,1,105.600003222656,2|0,0:0|0:0,0:0:0:0:
43,161,35278,6,0,P|85:160|127:186,1,91.1999988867188,2|0,0:0|0:0,0:0:0:0:
150,223,35740,1,2,0:0:0:0:
155,268,35894,1,0,0:0:0:0:
142,312,36048,1,0,0:0:0:0:
109,350,36201,6,0,L|182:342,1,52.8000016113282,2|0,0:0|0:0,0:0:0:0:
285,331,36509,1,0,0:0:0:0:
394,242,36663,6,0,L|321:234,1,52.8000016113282,2|0,0:0|0:0,0:0:0:0:
218,223,36971,1,0,0:0:0:0:
477,294,37124,5,2,0:0:0:0:
457,145,37278,1,0,0:0:0:0:
384,340,37432,1,0,0:0:0:0:
228,118,37586,6,0,L|365:105,1,134.400001640625,2|0,0:0|0:0,0:0:0:0:
139,76,38048,6,0,L|4:61,1,112.799998278809,2|0,0:0|0:0,0:0:0:0:
262,283,38509,6,0,L|256:191,1,91.1999988867188,2|0,0:0|0:0,0:0:0:0:
172,156,38971,5,12,0:0:0:0:
352,180,39124,1,0,0:0:0:0:
178,239,39278,1,0,0:0:0:0:
307,114,39432,5,8,0:0:0:0:
247,287,39586,1,0,0:0:0:0:
231,102,39740,1,0,0:0:0:0:
322,257,39894,5,8,0:0:0:0:
221,93,40048,1,0,0:0:0:0:
254,304,40201,1,0,0:0:0:0:
160,159,40355,5,8,0:0:0:0:
362,173,40509,1,0,0:0:0:0:
171,249,40663,1,0,0:0:0:0:
313,95,40817,5,8,0:0:0:0:
166,259,40971,1,0,0:0:0:0:
372,168,41124,1,0,0:0:0:0:
148,161,41278,5,8,0:0:0:0:
332,261,41432,1,0,0:0:0:0:
212,84,41586,1,0,0:0:0:0:
261,321,41740,5,8,0:0:0:0:
203,76,41894,1,0,0:0:0:0:
342,265,42048,1,0,0:0:0:0:
136,164,42201,5,8,0:0:0:0:
383,163,42355,1,0,0:0:0:0:
160,270,42509,1,0,0:0:0:0:
320,78,42663,5,8,0:0:0:0:
154,280,42817,1,0,0:0:0:0:
393,158,42971,1,0,0:0:0:0:
124,168,43124,5,8,0:0:0:0:
353,270,43278,1,0,0:0:0:0:
194,68,43432,1,0,0:0:0:0:
269,338,43586,5,8,0:0:0:0:
184,60,43740,1,0,0:0:0:0:
363,275,43894,1,0,0:0:0:0:
112,171,44048,5,8,0:0:0:0:
404,153,44201,1,0,0:0:0:0:
150,291,44355,1,0,0:0:0:0:
327,59,44509,5,8,0:0:0:0:
144,301,44663,1,0,0:0:0:0:
415,149,44817,1,0,0:0:0:0:
100,174,44971,5,8,0:0:0:0:
374,281,45124,1,0,0:0:0:0:
175,51,45278,1,0,0:0:0:0:
277,355,45432,5,8,0:0:0:0:
165,43,45586,1,0,0:0:0:0:
384,286,45740,1,0,0:0:0:0:
86,179,45894,5,8,0:0:0:0:
426,145,46048,1,0,0:0:0:0:
138,311,46201,1,0,0:0:0:0:
335,35,46355,5,10,0:0:0:0:
341,94,46509,1,0,0:0:0:0:
345,153,46663,1,0,0:0:0:0:
351,212,46817,1,8,0:0:0:0:
135,322,47278,5,8,0:0:0:0:
139,269,47432,1,0,0:0:0:0:
143,216,47586,1,0,0:0:0:0:
148,163,47740,1,8,0:0:0:0:
458,135,48201,5,8,0:0:0:0:
462,180,48355,1,0,0:0:0:0:
465,225,48509,1,0,0:0:0:0:
468,270,48663,1,8,0:0:0:0:
50,190,49124,5,8,0:0:0:0:
54,151,49278,1,0,0:0:0:0:
58,112,49432,1,0,0:0:0:0:
136,17,49586,1,8,0:0:0:0:
140,56,49740,1,0,0:0:0:0:
144,95,49894,1,0,0:0:0:0:
401,61,50048,6,0,L|342:58,1,60,8|0,0:0|0:0,0:0:0:0:
218,44,50355,1,0,0:0:0:0:
329,240,50509,1,8,0:0:0:0:
282,204,50663,1,0,0:0:0:0:
235,168,50817,1,0,0:0:0:0:
167,318,50971,6,0,L|154:246,1,52.8000016113282,8|0,0:0|0:0,0:0:0:0:
137,143,51278,1,0,0:0:0:0:
0,257,51432,1,8,0:0:0:0:
16,207,51586,1,0,0:0:0:0:
37,159,51740,1,0,0:0:0:0:
112,50,51894,6,0,L|121:105,1,45.5999994433594,8|0,0:0|0:0,0:0:0:0:
136,221,52201,1,0,0:0:0:0:
235,168,52355,1,8,0:0:0:0:
272,197,52509,1,0,0:0:0:0:
309,225,52663,1,0,0:0:0:0:
342,58,52817,5,8,0:0:0:0:
375,176,52971,1,0,0:0:0:0:
348,20,53124,1,0,0:0:0:0:
270,95,53278,5,8,0:0:0:0:
420,64,53432,1,0,0:0:0:0:
230,87,53586,1,0,0:0:0:0:
487,104,53740,5,0,0:0:0:0:
492,157,53894,1,0,0:0:0:0:
497,210,54048,1,0,0:0:0:0:
502,263,54201,1,0,0:0:0:0:
253,358,54663,5,0,0:0:0:0:
258,305,54816,1,0,0:0:0:0:
263,252,54970,1,0,0:0:0:0:
268,199,55124,1,0,0:0:0:0:
373,112,55586,5,0,0:0:0:0:
377,151,55740,1,0,0:0:0:0:
381,190,55894,1,0,0:0:0:0:
237,274,56048,1,0,0:0:0:0:
241,235,56202,1,0,0:0:0:0:
245,196,56356,1,0,0:0:0:0:
133,125,56509,6,0,L|96:129,2,31.1999998095703
275,51,56971,2,0,L|312:55,2,31.1999998095703
168,6,57432,6,0,L|173:70,1,45.5999994433594
187,190,57740,1,0,0:0:0:0:
341,141,57894,1,0,0:0:0:0:
297,133,58048,1,0,0:0:0:0:
253,125,58201,1,0,0:0:0:0:
297,245,58355,6,0,L|304:206,1,38.4
334,57,58663,1,0,0:0:0:0:
112,199,58817,1,0,0:0:0:0:
150,195,58971,1,0,0:0:0:0:
187,190,59124,1,0,0:0:0:0:
168,315,59278,6,0,L|164:276,1,31.1999998095703
140,113,59586,1,0,0:0:0:0:
359,256,59740,1,0,0:0:0:0:
329,251,59894,1,0,0:0:0:0:
299,246,60047,1,0,0:0:0:0:
349,336,60201,5,0,0:0:0:0:
380,332,60355,1,0,0:0:0:0:
411,328,60509,1,0,0:0:0:0:
442,324,60663,2,0,L|512:315,1,62.3999996191406
456,219,61124,5,0,0:0:0:0:
508,111,61432,2,0,P|426:113|340:59,1,180
304,19,62048,5,0,0:0:0:0:
284,137,62355,1,0,0:0:0:0:
183,73,62663,2,0,L|259:70,1,60
402,85,62971,5,0,0:0:0:0:
148,198,63278,2,0,P|230:196|316:250,1,180
344,297,63894,1,0,0:0:0:0:
284,137,64201,1,0,0:0:0:0:
452,76,64509,2,0,L|441:144,1,60
500,251,64817,5,0,0:0:0:0:
416,171,65124,1,0,0:0:0:0:
344,297,65432,2,0,L|427:313,1,60
500,251,65740,2,0,P|379:280|300:215,1,180
299,210,66355,1,0,0:0:0:0:
216,335,66663,5,0,0:0:0:0:
15,294,66971,1,0,0:0:0:0:
173,248,67278,1,0,0:0:0:0:
57,377,67586,6,0,L|64:194,1,180
13,109,68201,1,0,0:0:0:0:
202,160,68509,5,0,0:0:0:0:
124,67,68817,2,0,P|178:41|245:45,1,120
289,72,69278,1,0,0:0:0:0:
92,208,69432,2,0,P|76:182|71:151,1,60
187,188,69740,2,0,P|217:188|246:198,1,60
155,284,70048,2,0,P|136:312|116:330,1,60
13,256,70355,5,0,0:0:0:0:
245,158,70663,2,0,P|152:157|79:106,1,180
152,270,71278,2,0,B|194:255|194:255|328:273,1,180
463,335,71894,2,0,L|404:328,1,60
228,334,72201,6,0,P|208:274|221:215,1,120
289,121,72817,1,0,0:0:0:0:
60,61,73124,2,0,P|118:72|164:111,1,120
218,219,73740,1,0,0:0:0:0:
386,56,74048,5,0,0:0:0:0:
170,114,74355,1,0,0:0:0:0:
430,164,74663,1,0,0:0:0:0:
277,322,74971,2,0,L|288:178,2,120
172,233,75894,6,0,L|114:215,2,60
387,275,76355,2,0,L|452:281,2,60
201,285,76817,6,0,L|128:286,2,45.5999994433594
345,315,77278,2,0,L|406:332,2,45.5999994433594
269,371,77740,6,0,L|269:314,1,31.1999998095703
286,202,78048,1,0,0:0:0:0:
161,317,78201,2,0,L|167:265,1,31.1999998095703
216,130,78509,1,0,0:0:0:0:
74,206,78663,6,0,L|90:110,1,91.1999988867188
216,130,79124,1,0,0:0:0:0:
43,86,79278,1,0,0:0:0:0:
300,97,79432,1,0,0:0:0:0:
171,259,79586,6,0,L|168:199,1,60
175,53,79894,1,0,0:0:0:0:
257,226,80048,2,0,L|264:152,1,60
294,16,80355,1,0,0:0:0:0:
359,239,80509,6,0,L|375:184,1,45.5999994433594
415,48,80817,1,0,0:0:0:0:
440,299,80971,2,0,L|461:246,1,45.5999994433594
512,133,81278,1,0,0:0:0:0:
327,325,81432,6,0,P|266:318|210:340,1,120
469,384,81894,2,0,L|464:316,1,60
479,147,82201,1,0,0:0:0:0:
362,207,82355,6,0,L|354:307,1,91.1999988867188
255,149,82817,2,0,L|244:46,1,91.1999988867188
178,207,83278,5,0,0:0:0:0:
108,144,84201,1,0,0:0:0:0:
27,191,85124,1,0,0:0:0:0:
47,283,86048,1,0,0:0:0:0:
140,293,86971,5,0,0:0:0:0:
27,191,87663,1,0,0:0:0:0:
171,144,88355,1,0,0:0:0:0:
91,235,88817,6,0,B|137:206|182:229|182:229|236:216|247:175|247:175|292:174|304:234|253:212,1,280.799998286133
140,293,90663,5,0,0:0:0:0:
218,372,91586,2,0,P|276:347|357:359,1,140.399999143066
441,381,92509,6,0,B|424:346|436:313|436:313|450:278|431:245|431:245|416:228|396:244|404:260|428:268,1,187.199998857422
495,162,94355,6,0,P|424:173|356:143,1,140.399999143066
284,43,95740,1,0,0:0:0:0:
168,62,96201,6,0,P|258:65|330:138,1,187.199998857422
173,200,98048,6,0,P|168:161|244:206,1,187.199998857422
418,215,99894,6,0,P|383:284|339:220,1,187.199998857422
182,283,101740,5,0,0:0:0:0:
307,292,102432,1,0,0:0:0:0:
105,314,103124,1,0,0:0:0:0:
241,357,103586,6,0,B|261:317|249:267|249:267|242:218|266:176|266:176|212:185|221:125|265:141,1,280.799998286133
327,241,105432,5,0,0:0:0:0:
486,186,106355,2,0,P|395:184|345:144,1,140.399999143066
299,83,107278,6,0,B|272:85|254:94|254:94|253:57|214:40|177:67|180:111|220:118,1,187.199998857422
147,7,109124,6,0,P|117:63|117:108,1,93.5999994287109
58,167,109817,2,0,P|102:181|198:159,1,140.399999143066
30,261,110971,6,0,P|118:261|172:303,1,140.399999143066
225,354,111894,2,0,B|231:332|252:317|252:317|289:346|344:340,1,140.399999143066
429,312,112817,6,0,L|434:271,2,31.1999998095703
362,100,113278,6,0,L|367:144,2,38.4
264,357,113740,6,0,L|271:292,1,45.5999994433594
278,198,114048,1,0,0:0:0:0:
121,295,114201,6,0,L|115:256,1,38.4
85,105,114509,1,0,0:0:0:0:
12,190,114663,6,0,P|41:201|61:205,1,45.5999994433594
200,180,114971,1,0,0:0:0:0:
85,105,115124,6,0,P|91:135|99:151,1,38.4
221,258,115432,1,0,0:0:0:0:
185,76,115586,6,0,P|177:97|173:121,1,31.1999998095703,0|0,2:0|2:0,2:0:0:0:
146,239,115894,1,0,0:0:0:0:
262,95,116048,5,0,0:0:0:0:
124,163,116201,1,0,0:0:0:0:
355,189,116355,1,0,0:0:0:0:
256,332,116509,6,0,L|244:240,1,91.1999988867188
369,263,116971,2,0,L|381:168,1,91.1999988867188
485,286,117432,6,0,L|506:237,2,52.8000016113282
354,347,117894,6,0,L|342:255,1,91.1999988867188
203,238,118355,6,0,P|249:244|284:235,1,60
389,176,118663,1,0,0:0:0:0:
226,106,118817,6,0,P|230:132|240:156,1,52.8000016113282
342,256,119125,1,0,0:0:0:0:
336,84,119278,6,0,P|326:106|321:127,1,45.5999994433594
298,333,119586,1,0,0:0:0:0:
440,259,119740,6,0,P|406:274|361:270,1,76.8
238,230,120201,6,0,L|251:298,2,60
433,88,120663,2,0,L|444:29,2,60
338,171,121124,6,0,L|399:174,1,60
503,181,121432,1,0,0:0:0:0:
331,23,121586,2,0,L|270:26,1,60
166,33,121894,1,0,0:0:0:0:
247,271,122048,6,0,L|308:268,1,60
412,261,122356,1,0,0:0:0:0:
246,114,122509,2,0,L|185:111,1,60
81,104,122817,1,0,0:0:0:0:
368,107,122971,5,0,0:0:0:0:
211,31,123124,1,0,0:0:0:0:
279,199,123278,1,0,0:0:0:0:
412,104,123432,5,0,0:0:0:0:
180,147,123586,1,0,0:0:0:0:
459,190,123740,1,0,0:0:0:0:
97,325,123894,5,0,0:0:0:0:
94,284,124009,1,0,0:0:0:0:
92,239,124124,1,0,0:0:0:0:
402,58,124355,1,0,0:0:0:0:
405,99,124470,1,0,0:0:0:0:
407,144,124585,1,0,0:0:0:0:
0,188,124817,5,0,0:0:0:0:
23,150,124932,1,0,0:0:0:0:
49,113,125048,1,0,0:0:0:0:
499,195,125278,1,0,0:0:0:0:
476,233,125393,1,0,0:0:0:0:
450,270,125509,1,0,0:0:0:0:
0,32,125740,5,0,0:0:0:0:
42,18,125855,1,0,0:0:0:0:
85,3,125971,1,0,0:0:0:0:
512,352,126201,1,0,0:0:0:0:
470,366,126316,1,0,0:0:0:0:
427,381,126432,1,0,0:0:0:0:
140,157,126663,5,0,0:0:0:0:
364,222,126817,1,0,0:0:0:0:
137,259,126971,1,0,0:0:0:0:
323,126,127124,1,0,0:0:0:0:
213,331,127278,1,0,0:0:0:0:
227,95,127432,1,0,0:0:0:0:
309,315,127586,5,0,0:0:0:0:
365,257,127701,1,0,0:0:0:0:
446,249,127817,1,0,0:0:0:0:
506,301,127932,1,0,0:0:0:0:
509,382,128048,5,0,0:0:0:0:
455,327,128163,1,0,0:0:0:0:
446,249,128278,1,0,0:0:0:0:
481,181,128394,1,0,0:0:0:0:
473,105,128509,5,0,0:0:0:0:
423,53,128624,1,0,0:0:0:0:
350,48,128740,1,0,0:0:0:0:
292,91,128855,1,0,0:0:0:0:
272,160,128971,5,0,0:0:0:0:
286,225,129086,1,0,0:0:0:0:
268,289,129201,1,0,0:0:0:0:
220,336,129317,1,0,0:0:0:0:
154,349,129432,5,0,0:0:0:0:
95,325,129548,1,0,0:0:0:0:
65,269,129663,1,0,0:0:0:0:
80,208,129778,1,0,0:0:0:0:
131,171,129894,5,0,0:0:0:0:
148,115,130009,1,0,0:0:0:0:
122,62,130124,1,0,0:0:0:0:
67,40,130240,1,0,0:0:0:0:
9,52,130355,5,0,0:0:0:0:
364,222,130509,1,0,0:0:0:0:
137,259,130663,1,0,0:0:0:0:
323,126,130816,1,0,0:0:0:0:
213,331,130970,1,0,0:0:0:0:
227,95,131124,1,0,0:0:0:0:
503,332,131278,5,0,0:0:0:0:
458,339,131394,1,0,0:0:0:0:
413,346,131509,1,0,0:0:0:0:
9,52,131740,1,0,0:0:0:0:
54,45,131856,1,0,0:0:0:0:
99,38,131971,1,0,0:0:0:0:
106,380,132201,5,0,0:0:0:0:
99,335,132316,1,0,0:0:0:0:
92,290,132432,1,0,0:0:0:0:
458,128,132663,1,0,0:0:0:0:
451,173,132779,1,0,0:0:0:0:
444,218,132894,1,0,0:0:0:0:
15,272,133124,5,0,0:0:0:0:
8,227,133239,1,0,0:0:0:0:
1,182,133355,1,0,0:0:0:0:
377,66,133586,1,0,0:0:0:0:
370,111,133702,1,0,0:0:0:0:
363,156,133817,2,0,L|353:216,1,45
419,273,134048,5,0,0:0:0:0:
158,72,134202,1,0,0:0:0:0:
317,363,134356,1,0,0:0:0:0:
294,38,134510,1,0,0:0:0:0:
173,333,134663,1,0,0:0:0:0:
415,122,134817,1,0,0:0:0:0:
102,213,134971,5,0,0:0:0:0:
178,188,135086,1,0,0:0:0:0:
241,237,135201,1,0,0:0:0:0:
234,318,135317,1,0,0:0:0:0:
163,357,135432,5,0,0:0:0:0:
91,329,135548,1,0,0:0:0:0:
67,256,135663,1,0,0:0:0:0:
102,188,135778,1,0,0:0:0:0:
33,153,135894,5,0,0:0:0:0:
103,166,136009,1,0,0:0:0:0:
173,154,136124,1,0,0:0:0:0:
234,115,136240,1,0,0:0:0:0:
267,51,136355,5,0,0:0:0:0:
325,16,136471,1,0,0:0:0:0:
391,25,136586,1,0,0:0:0:0:
434,76,136701,1,0,0:0:0:0:
436,143,136817,5,0,0:0:0:0:
405,198,136932,1,0,0:0:0:0:
408,261,137048,1,0,0:0:0:0:
438,315,137163,1,0,0:0:0:0:
500,320,137278,5,0,0:0:0:0:
447,294,137394,1,0,0:0:0:0:
388,299,137509,1,0,0:0:0:0:
338,328,137624,1,0,0:0:0:0:
310,380,137740,5,0,0:0:0:0:
254,201,137894,1,0,0:0:0:0:
512,277,138048,1,0,0:0:0:0:
230,316,138201,5,0,0:0:0:0:
355,159,138355,1,0,0:0:0:0:
89,107,138509,1,0,0:0:0:0:
152,245,138663,6,0,L|162:174,1,60
202,66,138971,2,0,P|106:65|35:14,1,180
291,25,139586,2,0,L|301:96,1,60
275,224,139894,2,0,P|349:175|438:176,1,180
383,342,140509,6,0,L|393:271,1,60
426,96,140817,1,0,0:0:0:0:
504,263,141278,1,0,0:0:0:0:
504,263,141355,1,0,0:0:0:0:
504,263,141432,1,0,0:0:0:0:
252,275,141894,2,0,L|261:376,1,90
146,246,142355,6,0,L|157:164,1,60
197,61,142663,2,0,P|98:60|25:8,1,180
289,19,143278,2,0,L|300:97,1,60
272,224,143586,2,0,P|348:174|440:175,1,180
383,345,144201,6,0,L|394:263,1,60
428,92,144509,1,0,0:0:0:0:
508,264,144970,1,0,0:0:0:0:
508,264,145047,1,0,0:0:0:0:
508,264,145124,1,0,0:0:0:0:
249,276,145586,2,0,L|258:380,1,90
144,246,146048,6,0,L|158:166,1,60
196,60,146356,2,0,P|96:59|22:6,1,180
289,17,146971,2,0,L|300:96,1,60
273,224,147279,2,0,P|350:173|442:174,1,180
385,347,147894,6,0,L|399:263,1,60
430,91,148202,1,0,0:0:0:0:
511,265,148663,1,0,0:0:0:0:
511,265,148740,1,0,0:0:0:0:
511,265,148817,1,0,0:0:0:0:
249,278,149279,2,0,L|258:383,1,90
144,246,149740,6,0,L|157:165,1,60
196,60,150048,2,0,P|96:59|22:6,1,180
289,17,150663,2,0,L|300:99,1,60
273,224,150971,2,0,P|350:173|442:174,1,180
385,347,151586,6,0,L|396:266,1,60
430,91,151894,1,0,0:0:0:0:
511,265,152355,1,0,0:0:0:0:
511,265,152432,1,0,0:0:0:0:
511,265,152509,1,0,0:0:0:0:
248,288,152971,2,0,L|257:393,1,90
144,246,153432,5,0,0:0:0:0:
374,203,153663,1,0,0:0:0:0:
215,143,153894,1,0,0:0:0:0:
256,32,154124,2,0,L|256:80,1,45
255,213,154355,5,0,0:0:0:0:
