osu file format v14

[General]
AudioFilename: HALLEY LABS R&D - 2014-CURRENT - selected research - 04 2014-05-18 - hot shit.mp3
AudioLeadIn: 0
PreviewTime: 355
Countdown: 0
SampleSet: Soft
StackLeniency: 0.3
Mode: 0
LetterboxInBreaks: 1
WidescreenStoryboard: 0

[Editor]
DistanceSpacing: 0.6
BeatDivisor: 4
GridSize: 4
TimelineZoom: 3.199999

[Metadata]
Title:2014-05-18 - hot shit
TitleUnicode:2014-05-18 - hot shit
Artist:HALLEY LABS R&D
ArtistUnicode:HALLEY LABS R&D
Creator:Canderos
Version:Textra
Source:
Tags:experimental breakcore renard selected research
BeatmapID:1475525
BeatmapSetID:696613

[Difficulty]
HPDrainRate:5
CircleSize:5
OverallDifficulty:8.5
ApproachRate:9.5
SliderMultiplier:1.9
SliderTickRate:1

[Events]
//Background and Video events
0,0,"halley_labs__tribute__by_jackburned-dbf4549.jpg",0,0
//Break Periods
//Storyboard Layer 0 (Background)
//Storyboard Layer 1 (Fail)
//Storyboard Layer 2 (Pass)
//Storyboard Layer 3 (Foreground)
//Storyboard Sound Samples

[TimingPoints]
392,352.941176470588,4,2,0,65,1,0
5333,-100,4,2,0,75,0,0
6039,-100,4,2,0,65,0,0
10980,-100,4,2,0,75,0,0
11333,-300,4,2,0,75,0,0
11686,-100,4,2,0,65,0,0
16627,-100,4,2,0,75,0,0
17333,-100,4,2,0,65,0,0
22274,-100,4,2,0,75,0,0
22627,-300,4,2,0,75,0,0
22980,-100,4,2,0,65,0,0
27039,-100,4,2,0,75,0,0
28627,-100,4,2,0,65,0,0
32862,-100,4,2,0,75,0,0
34274,-100,4,2,0,65,0,1
38509,-100,4,2,0,75,0,1
39921,-100,4,2,0,65,0,1
44156,-100,4,2,0,75,0,1
45568,-100,4,2,0,5,0,0

[Colours]
Combo1 : 198,181,81
Combo2 : 81,57,174
Combo3 : 139,57,174
Combo4 : 57,125,174
Combo5 : 174,57,151

[HitObjects]
211,361,392,5,0,0:0:0:0:
168,304,480,2,0,L|165:237,1,47.5,2|0,0:0|0:0,0:0:0:0:
157,126,656,5,0,0:0:0:0:
219,166,744,2,0,P|242:169|286:150,1,47.5,2|0,0:0|0:0,0:0:0:0:
319,156,921,2,0,P|294:151|250:170,1,47.5,2|0,0:0|0:0,0:0:0:0:
294,275,1097,5,0,0:0:0:0:
368,250,1186,2,0,L|364:317,1,47.5,2|0,0:0|0:0,0:0:0:0:
482,335,1362,5,0,0:0:0:0:
445,275,1451,2,0,L|449:208,1,47.5,2|0,0:0|0:0,0:0:0:0:
452,155,1627,2,0,L|456:88,1,47.5,2|0,0:0|0:0,0:0:0:0:
495,17,1803,22,0,B|450:36|450:36|359:31,1,95,2|0,0:0|0:0,0:0:0:0:
314,22,2068,5,0,0:0:0:0:
285,17,2156,1,0,0:0:0:0:
258,115,2333,5,0,0:0:0:0:
233,101,2421,1,0,0:0:0:0:
173,183,2598,5,0,0:0:0:0:
154,161,2686,1,0,0:0:0:0:
69,217,2862,21,0,0:0:0:0:
59,190,2950,1,0,0:0:0:0:
59,218,3039,1,0,0:0:0:0:
59,247,3127,1,0,0:0:0:0:
62,327,3215,6,0,P|109:346|167:313,1,95,2|0,0:0|0:0,0:0:0:0:
219,252,3480,5,0,0:0:0:0:
247,247,3568,1,0,0:0:0:0:
347,175,3744,5,0,0:0:0:0:
319,170,3832,1,0,0:0:0:0:
219,98,4009,21,0,0:0:0:0:
247,93,4097,1,0,0:0:0:0:
275,89,4186,1,0,0:0:0:0:
355,67,4274,6,0,L|355:7,1,47.5
376,2,4450,2,0,L|375:73,1,47.5
375,180,4627,5,8,0:0:0:0:
418,251,4715,2,0,P|423:281|407:315,1,47.5,8|0,0:0|0:0,0:0:0:0:
318,370,4891,5,8,0:0:0:0:
402,360,4980,2,0,L|477:352,1,47.5,8|0,0:0|0:0,0:0:0:0:
503,355,5156,2,0,L|455:360,1,47.5,2|0,0:0|0:0,0:0:0:0:
350,270,5333,5,8,0:0:0:0:
132,362,5509,1,8,0:0:0:0:
161,127,5686,1,12,0:0:0:0:
176,274,6039,5,0,0:0:0:0:
217,334,6127,2,0,P|223:358|218:381,1,47.5,2|0,0:0|0:0,0:0:0:0:
103,296,6303,5,0,0:0:0:0:
82,225,6391,2,0,L|83:169,1,47.5,2|0,0:0|0:0,0:0:0:0:
80,120,6568,2,0,L|79:167,1,47.5,2|0,0:0|0:0,0:0:0:0:
203,201,6744,5,0,0:0:0:0:
235,135,6833,2,0,B|235:106|235:106|212:69,1,47.5,2|0,0:0|0:0,0:0:0:0:
124,29,7009,5,0,0:0:0:0:
194,13,7097,2,0,L|264:12,1,47.5,2|0,0:0|0:0,0:0:0:0:
315,9,7274,2,0,L|385:8,1,47.5,2|0,0:0|0:0,0:0:0:0:
446,53,7450,22,0,B|443:157,1,95,2|0,0:0|0:0,0:0:0:0:
436,231,7715,5,0,0:0:0:0:
434,259,7803,1,0,0:0:0:0:
349,381,7980,5,0,0:0:0:0:
347,353,8068,1,0,0:0:0:0:
262,231,8245,5,0,0:0:0:0:
260,259,8333,1,0,0:0:0:0:
175,381,8510,21,0,0:0:0:0:
173,353,8598,1,0,0:0:0:0:
144,355,8686,1,0,0:0:0:0:
115,355,8774,1,0,0:0:0:0:
22,360,8862,6,0,B|9:310|9:310|21:221,1,95,2|0,0:0|0:0,0:0:0:0:
91,212,9127,5,0,0:0:0:0:
116,203,9215,1,0,0:0:0:0:
238,142,9391,5,0,0:0:0:0:
213,133,9480,1,0,0:0:0:0:
91,92,9656,21,0,0:0:0:0:
116,83,9744,1,0,0:0:0:0:
142,73,9833,1,0,0:0:0:0:
61,77,9921,6,0,L|-8:80,1,47.5
0,66,10097,2,0,L|47:63,1,47.5,0|0,0:0|0:0,0:0:0:0:
168,63,10274,5,8,0:0:0:0:
240,22,10362,2,0,L|308:19,1,47.5,8|0,0:0|0:0,0:0:0:0:
418,18,10539,5,8,0:0:0:0:
455,93,10627,2,0,P|458:126|447:151,1,47.5,8|0,0:0|0:0,0:0:0:0:
447,193,10803,2,0,P|444:160|455:135,1,47.5,2|0,0:0|0:0,0:0:0:0:
504,256,10980,6,0,L|433:261,1,47.5,8|0,0:0|0:0,0:0:0:0:
412,318,11156,2,0,L|341:323,1,47.5,8|0,0:0|0:0,0:0:0:0:
320,380,11333,2,0,L|249:385,1,47.5,12|0,0:0|0:0,0:0:0:0:
253,249,11686,5,0,0:0:0:0:
211,303,11774,2,0,B|207:331|207:331|216:362,1,47.5,2|0,0:0|0:0,0:0:0:0:
315,276,11950,5,0,0:0:0:0:
310,203,12039,2,0,L|307:135,1,47.5,2|0,0:0|0:0,0:0:0:0:
308,98,12215,2,0,L|310:145,1,47.5,2|0,0:0|0:0,0:0:0:0:
194,115,12391,5,0,0:0:0:0:
124,140,12480,2,0,P|120:112|125:84,1,47.5,2|0,0:0|0:0,0:0:0:0:
9,12,12656,5,0,0:0:0:0:
44,77,12744,2,0,P|50:101|36:136,1,47.5,2|0,0:0|0:0,0:0:0:0:
2,182,12921,2,0,P|-4:206|10:241,1,47.5,2|0,0:0|0:0,0:0:0:0:
106,291,13097,22,0,P|52:278|3:307,1,95,2|0,0:0|0:0,0:0:0:0:
67,349,13362,5,0,0:0:0:0:
67,349,13450,1,0,0:0:0:0:
164,232,13627,5,0,0:0:0:0:
164,232,13715,1,0,0:0:0:0:
215,375,13891,5,0,0:0:0:0:
215,375,13979,1,0,0:0:0:0:
312,258,14156,21,0,0:0:0:0:
311,229,14244,1,0,0:0:0:0:
288,160,14333,5,0,0:0:0:0:
287,131,14421,1,0,0:0:0:0:
264,62,14509,6,0,L|386:61,1,95,2|0,0:0|0:0,0:0:0:0:
442,60,14774,5,0,0:0:0:0:
442,60,14862,1,0,0:0:0:0:
393,197,15039,21,0,0:0:0:0:
393,197,15127,1,0,0:0:0:0:
442,334,15303,5,0,0:0:0:0:
442,334,15391,2,0,L|449:273,1,47.5,0|0,0:0|0:0,0:0:0:0:
458,208,15568,6,0,L|505:203,1,47.5
512,219,15744,2,0,L|465:224,1,47.5
363,317,15921,5,8,0:0:0:0:
301,361,16009,2,0,P|289:333|296:295,1,47.5,8|0,0:0|0:0,0:0:0:0:
305,187,16186,21,8,0:0:0:0:
225,164,16274,2,0,L|174:168,1,47.5,8|0,0:0|0:0,0:0:0:0:
123,178,16450,2,0,L|170:174,1,47.5,2|0,0:0|0:0,0:0:0:0:
284,106,16627,53,8,0:0:0:0:
97,288,16803,1,8,0:0:0:0:
32,35,16980,1,12,0:0:0:0:
167,235,17333,5,0,0:0:0:0:
123,178,17421,2,0,P|117:150|130:123,1,47.5,2|0,0:0|0:0,0:0:0:0:
189,72,17597,5,0,0:0:0:0:
132,26,17686,2,0,L|62:29,1,47.5,2|0,0:0|0:0,0:0:0:0:
32,35,17862,2,0,L|79:32,1,47.5,2|0,0:0|0:0,0:0:0:0:
201,0,18039,5,0,0:0:0:0:
258,47,18127,2,0,L|258:110,1,47.5,2|0,0:0|0:0,0:0:0:0:
292,216,18303,5,0,0:0:0:0:
335,161,18391,2,0,L|336:90,1,47.5,2|0,0:0|0:0,0:0:0:0:
337,48,18568,2,0,L|338:-23,1,47.5,2|0,0:0|0:0,0:0:0:0:
445,32,18744,22,0,B|462:58|462:58|461:138,1,95,2|0,0:0|0:0,0:0:0:0:
457,208,19009,5,0,0:0:0:0:
457,208,19097,1,0,0:0:0:0:
292,216,19274,5,0,0:0:0:0:
292,216,19362,1,0,0:0:0:0:
127,224,19539,5,0,0:0:0:0:
127,224,19627,1,0,0:0:0:0:
61,371,19803,21,0,0:0:0:0:
88,366,19891,1,0,0:0:0:0:
117,297,19980,5,0,0:0:0:0:
90,292,20068,1,0,0:0:0:0:
20,276,20156,2,0,P|3:231|27:176,1,95,2|0,0:0|0:0,0:0:0:0:
54,128,20421,5,0,0:0:0:0:
54,128,20509,1,0,0:0:0:0:
143,13,20686,5,0,0:0:0:0:
143,13,20774,1,0,0:0:0:0:
198,147,20951,21,0,0:0:0:0:
198,147,21039,2,0,L|257:152,1,47.5,0|0,0:0|0:0,0:0:0:0:
347,183,21215,6,0,L|344:107,1,47.5
357,121,21391,2,0,L|359:168,1,47.5,0|0,0:0|0:0,0:0:0:0:
400,293,21568,5,8,0:0:0:0:
449,226,21656,2,0,B|455:201|455:201|447:165,1,47.5,8|0,0:0|0:0,0:0:0:0:
404,57,21833,5,8,0:0:0:0:
327,28,21921,2,0,P|295:22|268:31,1,47.5,8|0,0:0|0:0,0:0:0:0:
230,30,22097,2,0,P|262:36|289:27,1,47.5,2|0,0:0|0:0,0:0:0:0:
193,99,22274,6,0,L|200:179,1,47.5,8|0,0:0|0:0,0:0:0:0:
130,177,22450,2,0,L|137:257,1,47.5,8|0,0:0|0:0,0:0:0:0:
67,255,22627,2,0,L|74:335,1,47.5,12|0,0:0|0:0,0:0:0:0:
69,310,22980,6,0,B|42:308|42:308|9:325,1,47.5,2|0,0:0|0:0,0:0:0:0:
130,367,23156,2,0,B|157:369|157:369|190:352,1,47.5,2|0,0:0|0:0,0:0:0:0:
134,224,23333,1,10,0:0:0:0:
50,116,23509,5,0,0:0:0:0:
57,87,23597,1,0,0:0:0:0:
119,29,23686,5,0,0:0:0:0:
120,59,23774,1,0,0:0:0:0:
122,87,23862,1,0,0:0:0:0:
141,296,24039,5,10,0:0:0:0:
328,201,24215,21,0,0:0:0:0:
299,204,24303,1,0,0:0:0:0:
227,210,24391,6,0,L|245:302,1,47.5,2|0,0:0|0:0,0:0:0:0:
243,88,24568,2,0,L|228:180,1,47.5,2|0,0:0|0:0,0:0:0:0:
276,19,24744,1,10,0:0:0:0:
440,26,24921,5,0,0:0:0:0:
469,29,25009,1,0,0:0:0:0:
512,101,25097,5,0,0:0:0:0:
483,104,25185,1,0,0:0:0:0:
409,113,25274,22,0,L|402:179,1,47.5,14|0,0:0|0:0,0:0:0:0:
389,246,25450,5,8,0:0:0:0:
418,249,25538,1,0,0:0:0:0:
492,258,25627,38,0,L|496:295,2,23.75,14|0|0,0:0|0:0|0:0,0:0:0:0:
486,250,25803,38,0,L|494:309,1,47.5,2|0,0:0|0:0,0:0:0:0:
379,336,25980,2,0,L|373:394,1,47.5,2|0,0:0|0:0,0:0:0:0:
390,248,26156,1,10,0:0:0:0:
312,142,26333,5,0,0:0:0:0:
299,117,26421,1,0,0:0:0:0:
242,76,26509,21,0,0:0:0:0:
271,71,26597,1,0,0:0:0:0:
300,66,26686,1,0,0:0:0:0:
494,32,26862,5,10,0:0:0:0:
356,191,27039,5,0,0:0:0:0:
333,207,27127,1,0,0:0:0:0:
276,252,27215,6,0,P|269:280|278:309,1,47.5,10|0,0:0|0:0,0:0:0:0:
277,307,27391,6,0,L|276:343,2,23.75,14|0|0,0:0|0:0|0:0,0:0:0:0:
199,155,27568,54,0,P|206:183|197:212,1,47.5,10|0,0:0|0:0,0:0:0:0:
198,210,27744,6,0,L|199:246,2,23.75,14|0|0,0:0|0:0|0:0,0:0:0:0:
200,322,27921,5,8,0:0:0:0:
172,326,28009,1,0,0:0:0:0:
104,331,28097,6,0,L|101:283,1,47.5,14|0,0:0|0:0,0:0:0:0:
2,200,28274,5,8,0:0:0:0:
30,204,28362,1,0,0:0:0:0:
98,209,28450,22,0,L|100:180,2,23.75,14|0|0,0:0|0:0|0:0,0:0:0:0:
103,217,28627,6,0,P|107:194|85:141,1,47.5,2|0,0:0|0:0,0:0:0:0:
9,67,28803,2,0,P|26:81|83:89,1,47.5,2|0,0:0|0:0,0:0:0:0:
186,61,28980,1,10,0:0:0:0:
312,10,29156,5,0,0:0:0:0:
337,25,29244,1,0,0:0:0:0:
390,69,29333,5,0,0:0:0:0:
362,67,29421,1,0,0:0:0:0:
334,66,29509,1,0,0:0:0:0:
114,63,29686,5,10,0:0:0:0:
250,175,29862,21,0,0:0:0:0:
270,194,29950,1,0,0:0:0:0:
318,241,30039,6,0,P|324:269|309:299,1,47.5,2|0,0:0|0:0,0:0:0:0:
442,214,30215,2,0,P|414:205|396:177,1,47.5,2|0,0:0|0:0,0:0:0:0:
403,334,30391,1,10,0:0:0:0:
252,369,30568,5,0,0:0:0:0:
246,340,30656,1,0,0:0:0:0:
188,292,30744,5,0,0:0:0:0:
182,321,30832,1,0,0:0:0:0:
124,369,30921,22,0,L|57:372,1,47.5,14|0,0:0|0:0,0:0:0:0:
103,289,31097,5,8,0:0:0:0:
97,260,31185,1,0,0:0:0:0:
39,212,31274,38,0,L|3:210,2,23.75,14|0|0,0:0|0:0|0:0,0:0:0:0:
48,203,31450,6,0,B|25:200|25:200|-3:205,1,47.5,2|0,0:0|0:0,0:0:0:0:
91,135,31627,2,0,B|114:138|114:138|142:133,1,47.5,2|0,0:0|0:0,0:0:0:0:
48,67,31803,1,10,0:0:0:0:
140,210,31980,5,0,0:0:0:0:
152,233,32068,1,0,0:0:0:0:
188,292,32156,5,0,0:0:0:0:
188,263,32244,1,0,0:0:0:0:
189,234,32333,1,0,0:0:0:0:
193,27,32509,5,10,0:0:0:0:
402,38,32686,21,0,0:0:0:0:
427,51,32774,1,0,0:0:0:0:
476,88,32862,6,0,P|445:93|411:81,1,47.5,10|0,0:0|0:0,0:0:0:0:
422,86,33039,38,0,L|423:125,2,23.75,14|0|0,0:0|0:0|0:0,0:0:0:0:
432,188,33215,54,0,P|463:193|497:181,1,47.5,10|0,0:0|0:0,0:0:0:0:
486,186,33392,6,0,L|485:225,2,23.75,14|0|0,0:0|0:0|0:0,0:0:0:0:
478,291,33568,5,8,0:0:0:0:
450,284,33656,1,0,0:0:0:0:
379,263,33744,6,0,L|381:353,1,47.5,14|0,0:0|0:0,0:0:0:0:
209,362,33921,5,8,0:0:0:0:
237,355,34009,1,0,0:0:0:0:
308,334,34097,22,0,L|307:377,2,23.75,14|0|0,0:0|0:0|0:0,0:0:0:0:
312,323,34274,6,0,B|317:349|317:349|312:369,1,47.5,2|0,0:0|0:0,0:0:0:0:
236,203,34450,5,0,0:0:0:0:
208,210,34539,1,0,0:0:0:0:
140,237,34627,6,0,B|135:263|135:263|139:283,1,47.5,10|0,0:0|0:0,0:0:0:0:
163,132,34803,5,0,0:0:0:0:
168,104,34891,1,0,0:0:0:0:
190,39,34980,21,0,0:0:0:0:
198,66,35068,1,0,0:0:0:0:
206,93,35156,22,0,P|225:98|254:86,1,47.5,2|0,0:0|0:0,0:0:0:0:
375,1,35333,2,0,P|356:-4|327:8,1,47.5,10|0,0:0|0:0,0:0:0:0:
391,113,35509,5,0,0:0:0:0:
417,122,35597,1,0,0:0:0:0:
479,152,35686,22,0,B|485:178|485:178|470:238,1,47.5,2|0,0:0|0:0,0:0:0:0:
375,261,35862,2,0,B|369:235|369:235|384:175,1,47.5,2|0,0:0|0:0,0:0:0:0:
365,104,36039,2,0,L|297:103,1,47.5,10|0,0:0|0:0,0:0:0:0:
235,174,36215,5,0,0:0:0:0:
236,203,36303,1,0,0:0:0:0:
167,242,36391,21,0,0:0:0:0:
166,213,36479,1,0,0:0:0:0:
99,174,36568,6,0,P|93:191|96:210,2,23.75,14|0|0,0:0|0:0|0:0,0:0:0:0:
15,234,36744,5,8,0:0:0:0:
16,263,36832,1,0,0:0:0:0:
83,302,36921,54,0,P|89:286|86:269,2,23.75,14|0|0,0:0|0:0|0:0,0:0:0:0:
87,311,37097,6,0,P|97:289|97:265,1,47.5,2|0,0:0|0:0,0:0:0:0:
257,312,37274,5,0,0:0:0:0:
228,316,37362,1,0,0:0:0:0:
154,329,37450,6,0,P|144:351|144:375,1,47.5,10|0,0:0|0:0,0:0:0:0:
205,221,37627,5,0,0:0:0:0:
203,192,37715,1,0,0:0:0:0:
169,142,37803,37,0,0:0:0:0:
197,145,37891,1,0,0:0:0:0:
225,148,37980,6,0,L|300:156,1,47.5,2|0,0:0|0:0,0:0:0:0:
374,214,38156,2,0,L|299:222,1,47.5,10|0,0:0|0:0,0:0:0:0:
353,316,38333,5,0,0:0:0:0:
381,311,38421,1,0,0:0:0:0:
451,295,38509,38,0,L|454:229,1,47.5,10|0,0:0|0:0,0:0:0:0:
458,140,38686,38,0,L|460:104,2,23.75,14|0|0,0:0|0:0|0:0,0:0:0:0:
319,64,38862,54,0,L|321:131,1,47.5,10|0,0:0|0:0,0:0:0:0:
326,219,39039,6,0,L|328:255,2,23.75,14|0|0,0:0|0:0|0:0,0:0:0:0:
505,138,39215,54,0,L|438:140,1,47.5,10|0,0:0|0:0,0:0:0:0:
350,145,39392,6,0,L|314:147,2,23.75,14|0|0,0:0|0:0|0:0,0:0:0:0:
278,217,39568,54,0,L|345:219,1,47.5,10|0,0:0|0:0,0:0:0:0:
433,224,39745,6,0,L|469:226,2,23.75,14|0|0,0:0|0:0|0:0,0:0:0:0:
510,326,39921,6,0,L|505:399,1,47.5,2|0,0:0|0:0,0:0:0:0:
381,311,40097,5,0,0:0:0:0:
353,316,40185,1,0,0:0:0:0:
284,336,40274,6,0,L|287:383,1,47.5,10|0,0:0|0:0,0:0:0:0:
231,216,40450,5,0,0:0:0:0:
203,221,40539,1,0,0:0:0:0:
137,238,40627,37,0,0:0:0:0:
165,244,40715,1,0,0:0:0:0:
192,249,40803,6,0,P|195:273|189:296,1,47.5,2|0,0:0|0:0,0:0:0:0:
154,159,40980,2,0,P|151:139|162:104,1,47.5,10|0,0:0|0:0,0:0:0:0:
264,85,41156,5,0,0:0:0:0:
236,90,41244,1,0,0:0:0:0:
166,104,41333,22,0,L|101:96,1,47.5,2|0,0:0|0:0,0:0:0:0:
0,187,41509,2,0,L|65:179,1,47.5,2|0,0:0|0:0,0:0:0:0:
52,261,41686,2,0,B|60:287|60:287|53:316,1,47.5,10|0,0:0|0:0,0:0:0:0:
145,351,41862,21,0,0:0:0:0:
172,345,41950,1,0,0:0:0:0:
243,324,42039,5,0,0:0:0:0:
270,318,42127,1,0,0:0:0:0:
341,297,42215,6,0,L|341:330,2,23.75,14|0|0,0:0|0:0|0:0,0:0:0:0:
440,218,42391,5,8,0:0:0:0:
413,212,42479,1,0,0:0:0:0:
342,191,42568,54,0,L|342:224,2,23.75,14|0|0,0:0|0:0|0:0,0:0:0:0:
336,181,42744,6,0,L|338:228,1,47.5,2|0,0:0|0:0,0:0:0:0:
371,92,42921,5,0,0:0:0:0:
395,78,43009,1,0,0:0:0:0:
451,37,43097,6,0,L|448:84,1,47.5,10|0,0:0|0:0,0:0:0:0:
300,116,43274,5,0,0:0:0:0:
293,88,43362,1,0,0:0:0:0:
265,25,43450,21,0,0:0:0:0:
260,52,43539,1,0,0:0:0:0:
255,80,43627,22,0,B|227:82|227:82|195:68,1,47.5,2|0,0:0|0:0,0:0:0:0:
65,0,43803,2,0,B|92:-2|92:-2|124:11,1,47.5,10|0,0:0|0:0,0:0:0:0:
78,118,43980,5,0,0:0:0:0:
76,146,44068,1,0,0:0:0:0:
71,220,44156,22,0,L|122:217,1,47.5,10|0,0:0|0:0,0:0:0:0:
239,202,44333,54,0,P|242:222|238:230,2,23.75,14|0|0,0:0|0:0|0:0,0:0:0:0:
376,310,44509,54,0,L|325:307,1,47.5,10|0,0:0|0:0,0:0:0:0:
208,292,44686,6,0,P|205:312|209:320,2,23.75,14|0|0,0:0|0:0|0:0,0:0:0:0:
205,279,44862,6,0,P|198:308|206:339,1,47.5,10|0,0:0|0:0,0:0:0:0:
310,231,45039,2,0,P|317:202|309:171,1,47.5,14|0,0:0|0:0,0:0:0:0:
287,53,45215,53,10,0:0:0:0:
264,116,45303,1,10,0:0:0:0:
331,105,45391,1,10,0:0:0:0:
