osu file format v5

[General]
AudioFilename: Eureka_7_-_Tip_Taps_Tip.mp3
AudioLeadIn: 0
PreviewTime: -1
Countdown: 0
SampleSet: Normal
StackLeniency: 0.7
Mode: 0
LetterboxInBreaks: 1
EditorBookmarks: 12830,45330,108832,173333

[Metadata]
Title:Tip Taps Tip
Artist:HALCALI
Creator:vytalibus
Version:Taps
Source:
Tags:

[Difficulty]
HPDrainRate:5
CircleSize:5
OverallDifficulty:6
SliderMultiplier:1.2
SliderTickRate:1

[Events]
//Background and Video events
0,0,"aw.PNG"
//Break Periods
2,28062,44307
2,92531,107632
2,157028,172128
//Storyboard Layer 0 (Background)
//Storyboard Layer 1 (Failing)
//Storyboard Layer 2 (Passing)
//Storyboard Layer 3 (Foreground)
//Storyboard Sound Samples
//Background Colour Transformations
3,100,163,162,255

[TimingPoints]
4870,499.843409240022,4,1,0,100,1

[Colours]
Combo1 : 0,100,251
Combo2 : 6,255,249
Combo3 : 243,243,243

[HitObjects]
320,192,12867,2,0,B|371:143|432:128,2,120
256,192,14117,1,4
256,192,14367,1,4
192,192,14616,2,0,B|141:143|80:128,3,120
67,185,16366,1,6
75,243,16616,1,4
121,279,16866,6,0,B|185:311|217:231,2,120
137,222,18115,1,4
137,222,18365,1,4
192,192,18615,2,0,B|320:192,1,120
368,192,19365,2,0,B|368:128,1,60
256,128,20115,5,4
195,130,20365,1,4
138,129,20615,1,4
79,127,20864,2,4,B|79:191,1,60
80,240,21364,2,4,B|88:300|88:300|96:240,1,120
272,192,22614,2,2,B|359:277|359:277|444:192|444:192|352:112,1,360
295,113,24363,1,4
295,112,24613,1,0
240,112,24863,6,6,B|96:224,4,180
256,192,45357,5,0
256,304,45857,2,0,B|128:304,1,120
128,240,46606,2,0,B|128:112,4,120
128,240,48856,1,4
128,128,49356,6,0,B|256:128,2,120
128,192,50605,1,0
187,293,51105,1,0
298,331,51605,1,0
402,277,52105,1,0
454,249,52355,1,4
404,216,52605,1,0
353,247,52854,6,4,B|192:64,1,240
112,144,54354,1,0
122,202,54604,2,2,B|179:241|237:202,1,120
265,153,55354,2,0,B|296:128|325:155,2,60
205,153,56103,1,0
205,153,56353,1,4
205,153,56603,1,0
256,192,56853,12,4,60352
256,192,60852,2,0,B|240:256|160:288,2,120
288,144,62102,1,4
288,144,62351,1,4
323,191,62601,2,0,B|363:157|353:101|290:78,1,120
260,195,63601,2,0,B|211:169|223:106|256:96,1,120
252,97,64351,1,4
252,97,64601,1,0
199,124,64851,6,0,B|96:189|96:189|137:303,1,240
136,300,66100,1,4
136,300,66350,1,4
181,262,66600,2,0,B|279:180,1,120
332,180,67350,2,0,B|332:241,1,60
224,176,68100,5,4
224,176,68350,1,4
224,176,68600,1,0
223,234,68849,1,2
223,234,69099,1,2
223,234,69349,2,2,B|224:112,1,120
223,114,70099,1,4
223,114,70349,1,4
281,114,70599,2,2,B|292:196|176:228|98:156|130:36|206:22|257:46|272:80,1,360
271,78,72348,1,4
271,78,72598,1,0
256,192,72848,12,4,76847
128,64,77347,2,0,B|256:64,1,120
480,320,79346,2,0,B|480:192,1,120
160,336,81346,2,0,B|32:336,1,120
480,32,84095,2,0,B|416:80,1,60
384,112,84595,2,4,B|320:160,1,60
224,192,85344,6,2,B|96:192,1,120
416,32,87344,2,2,B|288:32,1,120
112,336,89343,2,2,B|112:208,1,120
256,192,92092,5,4
256,192,92342,1,4
256,192,108837,6,0,B|256:128,1,60
256,80,109337,1,0
320,80,109587,2,0,B|320:32,4,30
320,192,110586,1,0
320,256,110836,2,0,B|288:256,4,30
384,256,111586,2,0,B|416:256,4,30
384,192,112336,1,0
384,128,112586,1,0
384,64,112836,5,4
336,96,113086,2,0,B|288:144,1,60
336,176,113585,2,0,B|256:192,1,60
240,144,114085,2,0,B|208:208,2,60
288,176,114835,2,0,B|288:112,1,60
224,112,115335,2,0,B|176:160,1,60
176,96,115835,2,0,B|112:64,2,60
160,144,116585,1,0
160,144,116834,5,4
160,208,117084,2,0,B|128:208,2,30
176,240,117459,2,0,B|208:240,2,30
160,272,117834,2,0,B|128:272,2,30
256,192,118584,2,0,B|256:160,2,30
288,208,118959,2,0,B|288:240,2,30
320,192,119334,2,0,B|320:160,2,30
352,208,119709,2,0,B|352:240,2,30
384,192,120083,1,0
352,144,120333,1,0
291,145,120583,6,0,B|227:145,1,60
256,192,121333,12,4,124832
224,64,125332,2,0,B|128:144,2,120
288,64,126581,2,0,B|384:144,2,120
256,176,128081,2,0,B|256:112,1,60
256,116,128581,1,0
256,116,128831,1,4
224,224,129331,2,0,B|128:144,2,120
288,224,130580,2,0,B|384:144,2,120
256,336,132080,2,0,B|256:272,1,60
256,272,132579,1,0
256,272,132829,6,4,B|256:16,1,240
144,48,134329,1,0
208,48,134579,2,2,B|208:192,1,120
144,176,135329,2,0,B|144:240,2,60
144,112,136078,2,0,B|144:48,2,60
208,112,136828,2,2,B|256:80|384:80|432:112|432:112|336:160|304:320,2,480
160,224,141327,5,0
272,224,141827,1,0
330,224,142077,1,4
330,224,142326,1,4
384,224,142576,2,0,B|384:96,3,120
384,48,144326,2,4,B|320:48,2,60
384,160,145325,1,0
384,272,145825,1,0
325,272,146075,1,4
325,272,146325,1,4
272,272,146575,2,0,B|176:176,1,120
150,140,147325,2,0,B|215:140,1,60
327,141,148075,6,4,B|328:72,2,60
272,144,148824,2,2,B|272:208,1,60
272,256,149324,2,2,B|144:256,1,120
152,256,150074,1,4
152,256,150324,1,4
152,256,150574,2,0,B|152:132,2,120
272,256,152073,2,4,B|272:192,2,60
256,192,152823,12,4,156822
84,32,173317,1,0
201,32,173817,1,0
318,32,174316,1,0
435,32,174816,1,0
433,150,175316,1,0
431,268,175816,1,0
312,266,176316,1,0
193,266,176816,1,0
74,266,177315,2,0,B|74:82,1,180
74,86,178315,1,0
192,83,178815,2,0,B|192:173,1,60
310,147,179565,2,0,B|310:80,1,60
432,336,181814,5,0
315,336,182314,1,0
198,336,182814,1,0
81,336,183314,1,0
83,218,183813,1,0
85,100,184313,1,0
204,102,184813,1,0
323,102,185313,1,0
441,106,185813,1,0
442,224,186313,1,0
323,224,186813,2,0,B|194:224,3,120
192,112,188812,6,0,B|64:112,1,120
64,224,189812,2,0,B|112:156|160:224,1,120
272,224,190811,2,0,B|400:224,1,120
400,112,191811,2,0,B|352:44|304:112,1,120
192,112,192811,1,0
192,224,193310,2,0,B|320:224,2,120
192,112,194810,2,0,B|256:112,1,60
256,224,195560,2,0,B|192:224,1,60
256,192,196809,12,4,205307
320,192,207306,2,0,B|371:143|432:128,2,120
256,192,208556,1,4
256,192,208806,1,4
192,192,209056,2,0,B|141:143|80:128,3,120
67,185,210805,1,6
75,243,211055,1,4
121,279,211305,6,0,B|185:311|217:231,2,120
137,222,212554,1,4
137,222,212804,1,4
192,192,213054,2,0,B|320:192,1,120
368,192,213804,2,0,B|368:128,1,60
256,128,214554,5,4
197,128,214804,1,4
138,129,215054,1,4
79,127,215304,2,0,B|79:191,1,60
80,240,215803,2,4,B|88:300|88:300|96:240,1,120
272,192,217053,2,2,B|359:277|359:277|444:192|444:192|352:112,1,360
295,113,218802,1,4
295,112,219052,1,0
240,112,219302,6,6,B|96:224,4,180
298,113,222551,1,0
298,113,222801,1,4
298,113,223051,1,0
298,113,223301,6,0,B|298:237,2,120
352,112,224551,1,4
352,176,224801,1,4
352,240,225051,2,0,B|224:240,2,120
352,176,226300,2,4,B|288:176,4,60
352,64,227800,2,0,B|224:64,1,120
176,64,228549,1,4
176,64,228799,1,4
112,64,229049,2,0,B|112:192,1,120
112,240,229799,2,0,B|176:240,1,60
288,240,230549,6,0,B|288:176,2,60
352,240,231299,2,4,B|352:176,2,60
240,240,232298,1,4
240,176,232548,2,0,B|240:112,1,60
240,64,233048,2,0,B|288:-3|336:64,3,120
336,128,234797,2,4,B|336:192,1,60
256,192,235297,12,4,239296
