osu file format v7

[General]
AudioFilename: Long Kiss Goodbye.mp3
AudioLeadIn: 0
PreviewTime: 47987
Countdown: 0
SampleSet: Soft
StackLeniency: 0.7
Mode: 0
LetterboxInBreaks: 0
SkinPreference:Default

[Editor]
Bookmarks: 18112,33612,48112,65612,89622,97622,105622,113622,129622,145622,153622,176110
DistanceSpacing: 1
BeatDivisor: 2
GridSize: 8

[Metadata]
Title:Long Kiss Goodbye
Artist:HALCALI
Creator:Fuuko
Version:Easy
Source:Naruto Shippuden
Tags:Pop-rap Halca Yucali Anime Ending Beuchi-chan Hikato

[Difficulty]
HPDrainRate:3
CircleSize:3
OverallDifficulty:3
SliderMultiplier:1
SliderTickRate:1

[Events]
//Background and Video events
0,0,"Background.jpg"
//Break Periods
2,81812,88182
2,161810,174420
//Storyboard Layer 0 (Background)
//Storyboard Layer 1 (Fail)
//Storyboard Layer 2 (Pass)
//Storyboard Layer 3 (Foreground)
//Storyboard Sound Samples
//Background Colour Transformations
3,100,163,162,255

[TimingPoints]
1612,500,4,2,1,40,1,0
47862,-100,4,2,1,60,0,0
49606,-100,4,2,1,56,0,1
65611,-100,4,2,1,60,0,0
65612,-100,4,2,1,55,0,1
81612,-100,4,2,1,60,0,0
81622,500,4,2,1,50,1,0
113622,-100,4,2,1,50,0,1
129622,-100,4,2,1,50,0,0
129623,-100,4,2,1,55,0,1
145622,-100,4,2,1,55,0,0
151872,-100,4,2,1,30,0,0
152372,-100,4,2,1,55,0,0
161610,500,4,2,1,60,1,0
177360,-100,4,2,1,40,0,0
185360,-100,4,2,1,50,0,0
193610,-100,4,2,1,60,0,1
209608,-100,4,2,1,70,0,0
209609,-100,4,2,1,70,0,1
209610,-100,4,2,1,70,0,0

[Colours]
Combo1 : 255,147,147
Combo2 : 255,168,255

[HitObjects]
448,208,17612,1,4
496,120,18112,2,0,B|312:96|368:272|368:272,1,250,8|0
216,328,20112,2,0,B|160:384|96:304|96:304,1,100,8|0
176,248,21112,1,8
176,152,21612,5,0
176,56,22112,2,0,B|89:54|24:131|24:131,2,150,8|0|2
272,24,24112,1,8
368,48,24612,1,2
104,312,26112,6,0,B|243:142|208:312|208:312,1,100,8|2
208,336,27112,1,8
272,256,27612,2,0,B|336:168|336:168,2,100,2|8|2
328,336,29112,1,8
256,192,29612,12,0,33112
16,248,33612,6,0,B|8:408|176:336|176:336,1,200,4|0
104,264,35112,1,8
152,176,35612,2,0,B|208:72|208:72,1,100,2|8
312,88,36612,2,0,B|368:192|368:192,1,100,2|8
336,280,37612,6,0,B|320:312|304:336|184:344|160:304|168:272|168:272,1,200,2|2
256,232,39112,1,8
176,104,39612,6,0,B|192:72|208:48|328:48|352:80|344:112|344:112,1,200,2|2
256,152,41112,1,8
216,240,41612,6,0,B|176:296|200:400|56:344|56:344,1,200,2|0
80,248,43112,1,8
296,240,43862,2,0,B|336:296|312:400|456:344|456:344,1,200,0|0
432,248,45362,1,2
256,192,45862,12,8,47612
208,192,48112,6,0,B|136:112|136:112,2,100,4|0|0
272,272,49612,2,0,B|332:257|360:208|352:168|352:168,1,100,4|8
352,112,50612,2,0,B|412:102|431:150|446:187,2,100,2|8|2
304,192,52112,6,0,B|376:272|376:272,2,100,8|2|8
240,112,53612,2,0,B|180:127|152:176|160:216|160:216,1,100,2|8
160,272,54612,2,0,B|99:281|80:233|65:196,2,100,2|8|2
256,272,56112,6,0,B|392:272|392:272,2,100,8|2|8
168,320,57612,1,4
88,264,58112,1,8
184,224,58612,2,0,B|248:224|272:152,2,100,2|8|2
256,192,60112,12,0,63612
256,240,64112,6,0,B|176:312|176:312,2,100,4|0|0
336,176,65612,2,0,B|321:116|272:88|232:96|232:96,1,100,4|8
176,96,66612,2,0,B|166:35|214:16|251:1,2,100,2|8|2
256,144,68112,6,0,B|336:72|336:72,2,100,8|2|8
176,208,69612,2,0,B|191:268|240:296|280:288|280:288,1,100,2|8
336,288,70612,2,0,B|345:348|297:367|260:382,2,100,2|8|2
336,192,72112,6,0,B|336:56|336:56,2,100,4|0|8
296,288,73612,1,4
200,248,74112,1,8
224,152,74612,1,0
320,136,75112,2,0,B|320:72|248:48,3,100,8|0|8|0
256,192,77112,12,4,81612
176,192,89622,6,0,B|104:296,1,100,4|0
208,320,90622,1,8
304,320,91122,1,0
392,274,91622,2,0,B|335:191,1,100,0|0
282,106,92622,2,0,B|202:106,2,50,8|0|0
344,184,93622,6,0,B|264:264|160:184,1,200,0|8
256,120,95122,1,0
256,24,95622,1,0
256,120,96122,1,0
256,216,96622,2,8,B|256:280,2,50,8|0|8
176,160,97622,5,4
136,256,98122,1,0
184,344,98622,1,8
256,280,99122,2,0,B|256:200,1,50,0|0
328,344,100122,1,0
376,256,100622,1,8
336,160,101122,1,0
429,146,101622,6,0,B|405:76|347:58|291:63|246:92|236:150|258:204,1,300
256,296,103622,1,0
160,296,104122,2,0,B|176:368|232:392|288:392|336:368|352:312|336:256,1,300,0|4
376,168,106122,5,0
328,80,106622,1,8
256,144,107122,1,0
184,80,107622,1,0
136,168,108122,1,0
208,240,108622,2,0,B|264:272|336:224,1,100,8|0
384,184,109622,6,0,B|328:88,1,100,0|8
256,40,110622,2,0,B|256:160,1,100,0|8
178,97,111622,2,0,B|128:184,1,100,0|4
128,280,112622,5,2
208,344,113122,1,2
256,256,113622,2,0,B|256:136,2,100,4|8|2
304,344,115122,1,8
384,280,115622,1,2
368,176,116122,6,0,B|488:224,2,100,8|2|8
306,95,117622,1,2
210,95,118122,1,8
144,176,118622,2,0,B|24:224,2,100,2|8|2
256,192,120122,5,8
256,192,120622,1,2
256,192,121122,1,8
360,144,121622,6,0,B|336:88|304:112|304:48,1,100,4|8
207,63,122622,2,0,B|208:112|176:88|152:144,1,100,2|8
256,152,123622,1,2
208,240,124122,2,0,B|256:280|336:224,2,100,8|2|8
256,192,125622,12,0,127622
383,200,128122,5,4
384,104,128622,1,2
304,40,129122,1,0
256,128,129622,2,0,B|256:248,2,100,4|8|2
208,40,131122,1,8
128,104,131622,1,2
144,208,132122,6,0,B|24:160,2,100,8|2|8
206,289,133622,1,2
302,289,134122,1,8
368,208,134622,2,0,B|488:160,2,100,2|8|2
256,192,136122,5,8
256,192,136622,1,2
256,192,137122,1,8
208,280,137622,2,0,B|256:320|336:264,2,100,4|8|0
256,192,139122,2,0,B|256:64,3,100,8|2|8|0
336,32,141122,2,0,B|336:176,2,100,8|0|8
256,192,142622,12,4,145622
256,88,146622,5,2
352,120,147122,1,0
304,208,147622,2,0,B|352:248|432:192,2,100,2|2|0
216,168,149122,1,0
256,192,149622,12,8,152122
64,296,152622,6,0,C|112:272|144:208,1,100,2|0
160,136,153622,2,0,C|208:160|240:224,1,100,4|8
256,296,154622,2,0,C|304:272|336:208,1,100,2|8
352,136,155622,2,0,C|400:160|432:224,3,100,2|8|0|8
256,192,157622,12,4,161610
136,112,175860,5,8
136,112,176110,1,8
232,112,176610,2,0,B|272:104|296:144|376:112,1,100,8|0
416,168,177610,6,0,B|456:224|400:280,1,100,4|8
336,320,178610,2,0,B|280:240|368:208,1,100,2|8
328,128,179610,1,2
304,32,180110,1,8
208,32,180610,1,2
184,128,181110,1,8
96,168,181610,2,0,B|56:224|112:280,1,100,2|8
176,320,182610,2,0,B|232:240|144:208,2,100,2|8|8
104,248,184110,5,2
120,152,184610,1,0
184,72,185110,1,2
256,144,185610,6,0,B|256:272,4,100,4|8|2|8|2
328,72,188110,5,10
392,152,188610,1,2
408,248,189110,1,10
336,320,189610,2,0,B|280:320|248:256,1,100,2|8
176,320,190610,2,0,B|232:320|264:256,1,100,2|8
256,269,191610,1,0
192,192,192110,5,4
256,120,192610,1,2
328,192,193110,2,8,B|368:192,4,25,8|8|8|8|4
300,288,194110,2,0,B|244:328|196:272,1,100,8|2
256,192,195110,2,0,B|256:104,2,50,8|0|2
312,280,196110,6,0,B|388:323,2,50,8|0|2
200,280,197110,2,0,B|123:323,2,50,8|0|2
256,192,198110,1,8
304,104,198610,2,0,B|240:72|176:120,2,100,2|8|2
320,192,200110,5,4
256,264,200610,1,2
184,192,201110,2,8,B|144:192,4,25,8|8|8|8|4
212,96,202110,2,0,B|264:64|316:112,1,100,8|0
352,192,203110,6,0,B|392:264,2,50,8|0|0
256,240,204110,2,0,B|256:128,1,100,8|0
160,192,205110,2,0,B|120:264,2,50,8|0|2
256,144,206110,1,8
256,192,206610,12,4,209610
