osu file format v5

[General]
AudioFilename: tss.mp3
AudioLeadIn: 0
PreviewTime: 110731
Countdown: 1
SampleSet: Normal
EditorBookmarks: 33536,57563,110765,138225,193170

[Metadata]
Title:the starry sky
Artist:HAL
Creator:Echo49
Version:Normal

[Difficulty]
HPDrainRate:3
CircleSize:3
OverallDifficulty:3
SliderMultiplier:1.8
SliderTickRate:2

[Events]
//Background and Video events
1,-976,"tss.avi"
//Break Periods
//Storyboard Layer 0 (Background)
//Storyboard Layer 1 (Failing)
//Storyboard Layer 2 (Passing)
//Storyboard Layer 3 (Foreground)
//Storyboard Sound Samples
//Background Colour Transformations
3,100,163,162,255

[TimingPoints]
2644,429.061784897025,4,1,0,100
75155,429.061784897025,4,2,0,100
76441,429.061784897025,4,1,0,100
151955,429.061784897025,4,2,0,100
154984,429.061784897025,4,1,0,100

[HitObjects]
128,96,33536,5,0
256,136,33965,1,0
384,96,34394,1,0
256,136,34823,1,0
112,192,35252,5,0
256,192,35681,1,0
400,192,36110,1,0
256,192,36539,1,0
128,288,36968,5,0
256,248,37397,1,0
384,288,37826,1,0
256,248,38255,1,0
112,192,38684,5,0
256,192,39113,1,0
400,192,39542,1,0
256,192,39971,1,0
384,96,40401,5,0
256,136,40830,1,0
128,96,41259,1,0
256,136,41688,1,0
400,192,42117,5,0
256,192,42546,1,0
112,192,42975,1,0
256,192,43404,1,0
384,288,43833,5,0
256,248,44262,1,0
128,288,44691,1,0
256,248,45120,1,0
400,192,45549,5,0
256,192,45978,1,0
112,192,46407,1,0
256,192,46836,1,0
184,96,47266,6,4,B|72:112|41:194|41:194|71:274|184:288,1,360
256,192,48553,1,0
328,288,48982,2,4,B|440:272|471:190|471:190|441:110|328:96,1,360
256,192,50269,1,0
184,288,50698,6,4,B|72:272|41:190|41:190|71:110|184:96,1,360
256,192,51985,1,0
328,96,52414,2,4,B|440:112|471:194|471:194|441:274|328:288,1,360
256,192,53701,1,0
256,80,54131,6,0,B|180:86|128:136,2,135
256,192,54989,2,0,B|332:198|384:248,2,135
256,304,55847,2,0,B|180:298|128:248,2,135
256,192,56705,2,0,B|332:186|384:136,2,135
256,192,57563,12,4,60138
256,88,60996,2,0,B|72:88,2,180
256,192,62283,1,0
256,296,62712,2,0,B|440:296,2,180
144,296,63999,1,0
144,192,64428,2,0,B|144:8,2,180
256,192,65715,1,0
368,192,66144,2,0,B|368:376,2,180
368,88,67431,1,0
256,88,67861,5,0
152,192,68290,1,0
256,296,68719,1,0
360,192,69148,1,0
360,88,69577,1,0
152,88,70006,1,0
152,296,70435,1,0
360,296,70864,1,0
448,184,71293,6,0,B|297:29|112:104,1,360
64,192,72581,1,0
64,296,73010,2,0,B|432:296,1,360
256,192,74726,5,4
256,192,75584,6,0,B|224:192,4,22.5
256,192,76013,6,2,B|288:192,4,22.5
256,192,76441,6,0,B|192:88,1,90
136,72,76870,2,0,B|80:168,1,90
136,216,77299,2,0,B|80:296,1,90
144,344,77728,2,0,B|232:312,1,90
304,288,78157,2,0,B|400:344,1,90
456,296,78586,2,0,B|416:200,1,90
352,176,79015,2,0,B|256:152,1,90
312,80,79444,2,0,B|424:72,1,90
456,136,79873,6,0,B|432:240,1,90
368,264,80302,1,0
328,344,80517,2,0,B|240:288,1,90
176,328,80946,1,0
128,256,81160,1,0
184,192,81375,2,0,B|88:160,1,90
64,96,81804,1,0
136,48,82018,2,0,B|224:72,1,90
264,144,82447,2,0,B|352:96,1,90
392,168,82876,2,0,B|344:264,1,90
288,304,83305,5,0
144,328,83735,1,0
120,248,83949,1,0
240,160,84378,1,0
392,176,84807,1,0
400,88,85022,1,0
240,72,85451,1,0
88,112,85880,1,0
72,200,86094,1,0
160,184,86309,1,0
160,272,86523,1,0
248,288,86738,6,0,B|352:288,3,90
376,216,87596,2,0,B|387:173|432:144,3,90
360,112,88454,2,0,B|280:56,1,90
208,48,88883,2,0,B|17:205|232:352,1,360
64,336,90170,5,0
64,256,90385,2,0,B|60:150|144:80,1,180
184,312,91029,5,0
184,232,91244,2,0,B|180:126|264:56,1,180
312,280,91887,5,0
312,200,92102,2,0,B|308:94|392:24,1,180
440,80,92745,2,0,B|464:200|416:288,1,180
256,192,93603,5,0
128,280,94032,1,0
128,104,94461,1,0
256,192,94890,1,0
256,288,95319,5,0
256,288,95534,1,0
256,288,95748,1,0
256,96,96177,1,0
256,96,96392,1,0
256,96,96606,1,0
448,336,97035,5,0
448,256,97250,2,0,B|452:150|368:80,1,180
328,312,97894,5,0
328,232,98109,2,0,B|332:126|248:56,1,180
200,280,98752,5,0
200,200,98967,2,0,B|204:94|120:24,1,180
72,80,99610,2,0,B|48:200|96:288,1,180
256,192,100468,5,0
384,280,100897,1,0
384,104,101326,1,0
256,192,101755,1,0
256,288,102184,5,0
256,288,102399,1,0
256,288,102613,1,0
256,96,103042,1,0
256,96,103257,1,0
256,96,103471,1,0
72,72,103900,5,0
72,192,104330,1,0
72,272,104544,2,0,B|145:350|352:336,1,270
440,312,105617,5,0
440,192,106047,1,0
440,112,106261,2,0,B|367:34|160:48,1,270
256,192,107333,12,4,110765
88,64,111624,5,0
168,64,111838,2,0,B|224:64,1,45
296,64,112160,1,0
440,72,112482,5,0
440,152,112696,1,0
440,232,112911,1,0
320,312,113340,5,0
320,232,113554,1,0
320,152,113769,1,0
192,72,114198,5,0
192,152,114412,1,0
192,232,114627,1,0
72,312,115056,5,0
72,232,115270,1,0
72,152,115485,1,0
176,64,115914,6,0,B|296:64,1,90
344,64,116343,1,0
344,152,116558,2,0,B|344:256,1,90
344,320,116987,1,0
256,320,117201,2,0,B|256:208,1,90
256,152,117630,1,0
176,192,117845,5,2
176,192,118059,1,2
424,320,118489,5,0
344,320,118703,2,0,B|288:320,1,45
216,320,119025,1,0
72,312,119347,5,0
72,232,119561,1,0
72,152,119776,1,0
192,72,120205,5,0
192,152,120419,1,0
192,232,120634,1,0
320,312,121063,5,0
320,232,121277,1,0
320,152,121492,1,0
440,72,121921,5,0
440,152,122135,1,0
440,232,122350,1,0
336,320,122779,6,0,B|216:320,1,90
168,320,123208,1,0
168,232,123423,2,0,B|168:128,1,90
168,64,123852,1,0
256,64,124066,2,0,B|256:176,1,90
256,232,124495,1,0
336,192,124710,5,2
336,192,124924,1,2
80,288,125354,5,0
152,272,125569,1,0
152,272,125676,1,0
224,256,125890,1,0
344,56,126427,5,4
168,112,126856,1,0
344,168,127285,1,4
168,224,127714,1,0
344,280,128143,1,4
168,336,128572,1,4
256,304,128787,5,0
256,232,129001,1,0
256,232,129108,1,0
256,160,129323,1,0
168,56,129859,5,4
344,112,130288,1,0
168,168,130717,1,4
344,224,131146,1,0
168,280,131575,1,4
344,336,132004,1,0
416,280,132219,6,0,B|472:208|472:144,1,135
408,112,132755,2,0,B|360:136|336:192,1,90
256,320,133506,1,0
96,280,133935,6,0,B|40:208|40:144,1,135
104,112,134471,2,0,B|152:136|176:192,1,90
256,320,135222,1,0
256,192,135651,12,4,138225
64,72,139942,5,0
184,136,140371,1,0
328,136,140800,1,0
448,72,141229,1,0
496,192,141658,5,0
344,192,142087,1,0
168,192,142516,1,0
16,192,142945,1,0
64,312,143374,5,0
184,248,143803,1,0
328,248,144232,1,0
448,312,144661,1,0
496,192,145090,5,0
344,192,145519,1,0
168,192,145948,1,0
16,192,146377,1,0
64,72,146807,5,0
184,136,147236,1,0
328,136,147665,1,0
448,72,148094,1,0
496,192,148523,5,0
344,192,148952,1,0
168,192,149381,1,0
16,192,149810,1,0
128,256,150239,5,0
256,304,150668,1,0
392,256,151097,1,0
256,192,151526,1,0
256,72,151955,6,0,B|256:48,32,22.5
144,272,155413,5,0
368,272,157129,5,0
144,112,158845,5,0
368,112,160561,5,0
144,272,162278,5,0
368,272,163994,5,0
192,192,165710,5,0
320,192,166139,1,0
192,88,166568,6,4,B|257:120|327:87,2,135
48,48,167426,6,0,B|40:200|136:304,1,270
160,208,168284,2,2,B|225:176|295:209,2,135
216,280,169143,5,0
336,280,169572,1,0
384,176,170001,5,0
416,104,170215,1,2
416,104,170322,1,2
344,72,170537,1,0
216,128,170859,5,4
96,72,171288,1,0
56,192,171717,1,0
176,232,172146,1,0
128,296,172361,2,4,B|136:349|231:366|288:312,1,180
312,248,173004,1,2
224,128,173433,5,0
264,64,173648,2,0,B|284:49|312:56,1,45
368,96,173969,1,0
464,48,174291,6,0,B|472:200|376:304,1,270
352,208,175149,2,2,B|287:176|217:209,2,135
296,280,176008,5,0
176,280,176437,1,0
128,176,176866,5,0
96,104,177080,1,2
96,104,177187,1,2
168,72,177402,1,0
296,128,177724,5,4
416,72,178153,1,0
456,192,178582,1,0
336,232,179011,1,0
384,296,179226,2,4,B|376:349|281:366|224:312,1,180
200,248,179869,1,2
288,128,180298,5,0
248,64,180513,2,0,B|228:49|200:56,1,45
144,96,180834,1,0
72,192,181156,6,4,B|116:190|168:216,1,90
224,240,181585,1,0
336,336,182014,5,4
408,344,182229,1,0
480,312,182443,1,0
440,192,182873,6,4,B|396:190|344:216,1,90
288,240,183302,1,0
176,336,183731,5,4
104,344,183945,1,0
32,312,184160,1,0
136,200,184589,6,0,B|136:104,2,90
376,200,185447,2,0,B|376:96,2,90
256,80,186305,2,2,B|256:264,1,180
80,312,187163,5,0
160,312,187378,1,2
160,312,187485,1,2
240,312,187699,1,0
320,312,187914,2,4,B|368:312,1,45
432,72,188879,5,0
352,72,189094,1,2
352,72,189201,1,2
272,72,189416,1,0
192,72,189630,2,4,B|144:72,1,45
256,192,190381,12,4,193170
