osu file format v5

[General]
AudioFilename: tss.mp3
AudioLeadIn: 0
PreviewTime: 110731
Countdown: 1
SampleSet: Normal
EditorBookmarks: 16349,57539,108812,135200,190348

[Metadata]
Title:the starry sky
Artist:HAL
Creator:Echo49
Version:Echo

[Difficulty]
HPDrainRate:5
CircleSize:4
OverallDifficulty:5
SliderMultiplier:1.8
SliderTickRate:2

[Events]
//Background and Video events
1,-976,"tss.avi"
//Break Periods
//Storyboard Layer 0 (Background)
//Storyboard Layer 1 (Failing)
//Storyboard Layer 2 (Passing)
//Storyboard Layer 3 (Foreground)
//Storyboard Sound Samples
//Background Colour Transformations
3,100,163,162,255

[TimingPoints]
2644,429.061784897025,4,1,0,100
75155,429.061784897025,4,2,0,100
76441,429.061784897025,4,1,0,100
151847,429.061784897025,4,2,0,100
154984,429.061784897025,4,1,0,100

[HitObjects]
144,112,16373,5,0
368,112,19806,5,0
144,272,23238,5,0
368,272,26671,5,0
256,192,30103,5,4
192,192,32678,2,4,B|344:192,2,135
192,192,33536,5,2
176,72,33965,2,4,B|232:53|320:88,1,135
400,72,34501,1,2
400,72,34609,2,4,B|443:116|440:168,2,90
328,96,35252,2,2,B|240:120|176:176|152:216,1,180
128,264,36003,2,4,B|63:255|32:192,2,90
216,280,36647,2,2,B|248:288|264:304,2,45
216,280,36968,5,2
376,312,37398,2,4,B|446:241|424:168,1,135
368,144,37934,1,2
368,144,38041,2,4,B|376:88|432:48,2,90
304,176,38685,2,2,B|200:216|104:216,1,180
72,144,39436,2,4,B|48:96|48:48,2,90
168,136,40079,2,2,B|200:125|240:128,2,45
168,136,40401,5,2
248,200,40830,2,4,B|199:247|104:248,1,135
72,304,41366,1,2
72,304,41474,2,4,B|111:322|160:328,2,90
104,240,42117,2,2,B|208:256|296:296,1,180
368,296,42868,2,4,B|415:305|464:336,2,90
328,216,43512,2,2,B|304:208|272:208,2,45
328,216,43833,5,2
392,136,44262,2,4,B|346:84|272:56,1,135
216,120,44799,1,2
216,120,44906,2,4,B|146:128|96:104,2,90
192,192,45550,2,2,B|296:200|384:240,1,180
320,320,46301,2,4,B|376:328|424:312,2,90
240,328,46944,2,2,B|208:328|176:336,2,45
240,328,47266,5,2
152,256,47695,1,2
72,304,48017,2,4,B|38:262|48:200,3,90
45,220,48768,1,2
48,144,48982,1,0
120,104,49197,1,2
192,144,49411,1,0
192,224,49626,1,4
192,224,49733,2,2,B|158:274|160:328,2,90
288,264,50377,2,4,B|294:233|272:200,2,45
272,328,50698,5,2
360,256,51127,1,2
440,304,51449,2,4,B|474:262|464:200,3,90
467,220,52200,1,2
464,144,52415,1,0
392,104,52629,1,2
320,144,52844,1,0
320,224,53058,1,4
320,224,53166,2,2,B|354:274|352:328,2,90
224,264,53809,2,4,B|218:233|240:200,2,45
160,312,54131,5,2
64,272,54560,2,4,B|44:208|53:156|80:112,1,135
128,96,55096,1,2
128,96,55204,2,4,B|175:115|200:160,2,90
224,56,55847,2,2,B|320:56|416:128,1,180
344,200,56598,2,4,B|296:192|240:216,2,90
432,240,57242,2,2,B|441:267|432:296,2,45
256,192,57563,12,4,60138
256,152,60996,5,4
176,168,61425,1,0
96,184,61854,2,2,B|96:96|144:56,2,135
136,248,62712,1,4
48,304,63356,5,2
48,304,63570,2,2,B|127:365|240:312,1,180
256,232,64428,5,4
336,216,64857,1,0
416,200,65287,2,2,B|416:288|368:328,2,135
376,136,66145,1,4
464,80,66788,5,2
464,80,67003,2,2,B|385:19|272:72,1,180
376,312,67861,5,4
296,328,68290,1,0
216,320,68719,2,2,B|120:296|72:232|56:120,1,270
104,72,69577,1,4
200,224,70221,5,2
200,224,70435,2,2,B|124:144|216:64,1,180
296,72,71079,5,4
368,56,71294,2,0,B|452:7|497:89|416:136,1,180
360,168,71937,1,4
288,152,72152,2,0,B|204:103|159:185|240:232,1,180
304,256,72795,1,4
376,240,73010,2,0,B|460:191|505:273|424:320,1,180
360,336,73653,1,4
360,336,73760,1,2
360,336,73868,1,4
256,192,74726,5,4
256,192,75584,6,0,B|272:192,3,22.5
256,192,76013,6,0,B|240:192,3,22.5
64,56,76442,5,0
96,120,76657,1,4
160,88,76871,2,0,B|200:77|256:88,3,90
320,112,77729,1,0
352,176,77944,1,4
416,144,78158,1,0
408,264,78802,5,2
408,264,79015,2,2,B|498:287|456:376,2,135
344,312,79875,5,0
288,264,80089,1,4
304,192,80304,2,0,B|272:147|208:144,3,90
160,168,81162,1,0
120,232,81376,1,4
48,208,81591,1,0
104,88,82234,5,2
104,88,82447,2,2,B|234:124|43:292|208:320,1,270
248,304,83307,5,0
296,248,83522,1,4
248,192,83736,2,0,B|192:190|152:144,3,90
192,96,84594,1,0
248,48,84809,1,4
312,80,85023,1,0
456,48,85667,5,2
456,48,85880,2,2,B|480:120|471:190|432:224,1,180
368,232,86525,5,0
408,288,86740,2,4,B|368:304|304:304,1,90
248,288,87169,1,2
192,336,87383,5,0
144,280,87598,2,4,B|90:233|88:168,1,90
112,136,88027,1,2
160,73,88241,5,0
232,48,88456,2,4,B|327:55|363:124|304:184,1,180
256,192,89099,1,0
256,192,89207,1,2
256,192,89314,1,4
192,56,90172,5,0
192,56,90387,5,4
192,56,90494,1,0
192,56,90708,5,4
192,56,90816,1,0
256,136,91030,5,0
256,136,91245,5,4
256,136,91352,1,0
256,136,91567,5,4
256,136,91674,1,0
320,216,91888,5,0
320,216,92103,5,4
320,216,92210,1,0
320,216,92425,5,4
320,216,92532,1,0
344,296,92746,5,2
256,320,92961,1,2
168,296,93176,1,2
88,104,93605,5,0
200,104,94034,1,0
312,104,94463,1,0
424,104,94892,1,0
392,208,95321,2,4,B|354:272|248:328,1,180
255,323,95964,2,4,B|158:272|120:208,1,180
119,207,96608,1,2
328,104,97037,5,0
272,160,97252,1,0
216,112,97466,1,2
160,168,97681,1,0
104,224,97895,1,0
160,280,98110,1,2
216,232,98324,1,0
272,288,98539,1,0
344,328,98753,6,4,B|384:272|384:192,1,135
384,80,99397,1,0
304,72,99611,2,4,B|230:55|160:112,1,135
184,224,100255,1,2
256,192,100470,5,0
312,104,100899,1,0
200,104,101328,1,0
256,192,101757,1,0
120,208,102186,2,4,B|158:272|264:328,1,180
257,323,102829,2,4,B|354:272|392:208,1,180
393,207,103473,1,2
392,128,103688,5,0
392,128,103795,1,0
392,128,103902,1,4
288,88,104331,1,0
288,88,104546,2,6,B|216:88|119:144|92:208|96:256,1,270
96,320,105402,5,0
96,320,105509,1,0
96,320,105616,1,4
224,296,106045,1,0
224,296,106260,2,6,B|296:296|393:240|420:176|416:128,1,270
256,192,107335,6,6,B|320:168|271:94|217:84|154:142|142:219|146:278|242:319|363:312|392:170|356:115|328:78|232:64,1,540
256,192,108836,12,4,110767
96,80,111624,5,0
56,144,111839,1,0
56,144,111946,2,2,B|114:155|152:224,2,90
56,256,112911,2,0,B|116:304|232:312,3,180
224,311,114627,1,0
248,200,115057,5,4
288,136,115272,1,0
288,136,115379,2,2,B|230:125|192:56,2,90
384,64,116344,1,0
432,120,116558,2,4,B|448:216|424:296|392:320,1,180
328,320,117416,2,0,B|183:328|88:200,1,270
96,112,118489,5,0
160,72,118704,1,2
160,72,118811,1,2
232,96,119026,1,4
256,168,119240,5,2
256,168,119347,1,2
168,192,119776,1,0
96,248,120205,2,0,B|100:326|136:352|240:328,1,180
248,256,121064,5,2
248,256,121493,1,2
416,272,121921,5,0
352,312,122136,1,2
352,312,122243,1,2
280,288,122458,1,4
256,216,122672,5,2
256,216,122779,1,2
344,192,123208,1,0
416,136,123637,2,0,B|412:58|376:32|272:56,1,180
264,128,124496,5,2
264,128,124925,1,2
432,288,125355,5,0
360,272,125570,1,2
360,272,125677,1,2
288,256,125891,1,0
168,56,126428,5,4
344,112,126857,1,0
168,168,127286,1,4
344,224,127715,1,0
168,280,128144,1,4
344,336,128573,1,4
256,304,128788,5,0
256,232,129002,1,2
256,232,129109,1,2
256,160,129324,1,0
344,56,129860,5,4
168,112,130289,1,0
344,168,130718,1,4
168,224,131147,1,0
344,280,131576,1,4
168,336,132005,1,0
104,288,132220,6,4,B|84:193|96:136,1,135
144,104,132756,1,2
216,120,132971,1,2
408,288,133935,6,4,B|428:193|416:136,1,135
368,104,134471,1,2
296,120,134686,1,2
256,192,135224,12,6,138227
64,128,139943,5,4
72,160,140158,1,0
88,192,140372,1,0
120,216,140587,1,4
152,232,140801,1,0
192,232,141016,5,0
200,200,141231,1,4
216,168,141445,1,0
248,144,141660,1,0
280,128,141874,1,4
312,128,142089,5,0
320,160,142304,1,0
336,192,142518,1,4
368,216,142733,1,0
400,232,142947,1,0
440,232,143161,5,2
448,128,143376,5,4
440,160,143591,1,0
424,192,143805,1,0
392,216,144020,1,4
360,232,144234,1,0
320,232,144449,5,0
312,200,144664,1,4
296,168,144878,1,0
264,144,145093,1,0
232,128,145307,1,4
200,128,145522,5,0
192,160,145737,1,0
176,192,145951,1,4
144,216,146166,1,0
112,232,146380,1,0
72,232,146594,5,2
64,128,146808,5,4
72,160,147023,1,0
88,192,147237,1,0
120,216,147452,1,4
152,232,147666,1,0
192,232,147881,5,0
200,200,148096,1,4
216,168,148310,1,0
248,144,148525,1,0
280,128,148739,1,4
312,128,148954,5,0
320,160,149169,1,0
336,192,149383,1,4
368,216,149598,1,0
400,232,149812,1,0
440,232,150026,5,2
400,136,150241,5,4
384,104,150455,1,0
360,72,150670,1,0
328,56,150884,1,4
296,48,151099,1,0
256,48,151313,5,0
224,56,151528,1,4
192,80,151742,1,0
256,144,151957,6,0,B|256:168,32,22.5
144,272,155413,5,0
368,272,157129,5,0
144,112,158845,5,0
368,112,160561,5,0
144,272,162278,5,0
368,272,163994,5,0
192,192,165710,5,0
320,192,166139,1,0
192,88,166568,6,4,B|257:120|327:87,2,135
48,48,167426,6,0,B|40:200|136:304,1,270
160,208,168284,2,2,B|225:176|295:209,2,135
216,264,169143,5,0
256,328,169357,1,4
320,280,169572,1,0
392,248,169786,1,4
352,184,170001,5,0
384,112,170215,1,2
384,112,170322,1,2
312,80,170537,1,0
216,128,170859,5,4
144,96,171073,2,0,B|151:62|128:48,2,45
88,152,171502,2,0,B|47:158|24:128,2,45
152,200,171931,1,0
200,264,172146,1,0
128,296,172361,2,4,B|136:349|231:366|288:312,1,180
352,208,173004,5,2
352,208,173219,1,2
224,128,173433,5,0
264,64,173648,2,0,B|284:49|312:56,1,45
368,96,173969,1,0
464,48,174291,6,0,B|472:200|376:304,1,270
352,208,175149,2,2,B|287:176|217:209,2,135
296,264,176008,5,0
256,328,176222,1,4
192,280,176437,1,0
120,248,176651,1,4
160,184,176866,5,0
128,112,177080,1,2
128,112,177187,1,2
200,80,177402,1,0
296,128,177724,5,4
368,96,177938,2,0,B|361:62|384:48,2,45
424,152,178367,2,0,B|465:158|488:128,2,45
360,200,178796,1,0
312,264,179011,1,0
384,296,179225,2,4,B|376:349|281:366|224:312,1,180
160,208,179869,5,2
160,208,180084,1,2
288,128,180298,5,0
248,64,180513,2,0,B|228:49|200:56,1,45
144,96,180834,1,0
72,192,181156,6,4,B|116:190|168:216,1,90
224,240,181585,1,0
280,288,181800,1,0
336,336,182014,5,4
408,344,182229,1,0
480,312,182443,1,0
425,261,182658,5,2
425,261,182765,1,2
440,192,182873,6,4,B|396:190|344:216,1,90
288,240,183302,1,0
232,288,183516,1,0
176,336,183731,5,4
104,344,183945,1,0
32,312,184160,1,0
87,261,184374,5,2
87,261,184481,1,2
136,200,184589,6,0,B|136:144,4,45
376,200,185232,2,0,B|376:144,4,45
256,80,185876,2,2,B|256:264,1,180
80,312,187163,5,0
160,312,187378,1,2
160,312,187485,1,2
240,312,187699,1,0
320,312,187914,2,4,B|368:312,1,45
432,72,188879,5,0
352,72,189094,1,2
352,72,189201,1,2
272,72,189416,1,0
192,72,189630,2,4,B|144:72,1,45
256,192,190381,12,4,193170
