osu file format v14

[General]
AudioFilename: Koe.mp3
AudioLeadIn: 0
PreviewTime: 161624
Countdown: 0
SampleSet: Soft
StackLeniency: 0.7
Mode: 0
LetterboxInBreaks: 0
WidescreenStoryboard: 0

[Editor]
DistanceSpacing: 0.8
BeatDivisor: 4
GridSize: 4
TimelineZoom: 1.9

[Metadata]
Title:Koe
TitleUnicode:声
Artist:HAG
ArtistUnicode:H△G
Creator:C O N N E R
Version:Pawlyk's Hard
Source:
Tags:ハグ hagu vocaloid cover album j-pop japanese jpop pop mili [_lost_] xHappy- P_KunG NextGenBold Pawlyk here conner c_o_n_n_e_r wenect unranked mapper
BeatmapID:2017464
BeatmapSetID:798510

[Difficulty]
HPDrainRate:5
CircleSize:3.8
OverallDifficulty:7
ApproachRate:8
SliderMultiplier:1.76
SliderTickRate:1

[Events]
//Background and Video events
0,0,"BG.jpg",0,0
//Break Periods
2,162506,172465
//Storyboard Layer 0 (Background)
//Storyboard Layer 1 (Fail)
//Storyboard Layer 2 (Pass)
//Storyboard Layer 3 (Foreground)
//Storyboard Sound Samples

[TimingPoints]
1397,340.909090909091,4,2,0,30,1,0
1397,-166.666666666667,4,2,0,30,0,0
2249,-100,4,2,2,30,0,0
2590,-166.666666666667,4,2,0,30,0,0
3698,-166.666666666667,4,2,0,5,0,0
3783,-166.666666666667,4,2,0,30,0,0
4465,-166.666666666667,4,2,2,30,0,0
4635,-166.666666666667,4,2,0,30,0,0
5317,-333.333333333333,4,2,0,30,0,0
5402,-333.333333333333,4,2,0,30,0,0
6851,-166.666666666667,4,2,1,50,0,0
7533,-142.857142857143,4,2,1,50,0,0
8044,-142.857142857143,4,2,1,30,0,0
8215,-111.111111111111,4,2,1,60,0,0
8470,-111.111111111111,4,2,1,5,0,0
8556,-111.111111111111,4,2,1,60,0,0
10345,-111.111111111111,4,2,1,5,0,0
10431,-111.111111111111,4,2,1,60,0,0
10857,-111.111111111111,4,2,1,5,0,0
10942,-111.111111111111,4,2,1,60,0,0
13925,-111.111111111111,4,2,1,5,0,0
14010,-111.111111111111,4,2,1,60,0,0
17249,-111.111111111111,4,2,1,60,0,0
17419,-111.111111111111,4,3,1,50,0,0
17590,-111.111111111111,4,3,1,50,0,0
17760,-125,4,2,1,50,0,0
19124,-100,4,2,1,60,0,0
21510,-100,4,2,1,55,0,0
21766,-100,4,2,0,5,0,0
21851,-133.333333333333,4,2,1,50,0,0
27306,-133.333333333333,4,2,1,30,0,0
27391,-133.333333333333,4,2,1,50,0,0
31397,-133.333333333333,4,2,1,55,0,0
31908,-133.333333333333,4,2,0,55,0,0
32078,-133.333333333333,4,2,1,55,0,0
32249,-133.333333333333,4,3,1,55,0,0
32419,-133.333333333333,4,2,0,55,0,0
32590,-133.333333333333,4,3,1,55,0,0
32760,-133.333333333333,4,2,1,50,0,0
36851,-133.333333333333,4,2,2,50,0,0
36936,-133.333333333333,4,2,1,50,0,0
38044,-133.333333333333,4,3,1,50,0,0
38215,-133.333333333333,4,2,1,50,0,0
39919,-133.333333333333,4,2,1,60,0,0
40260,-133.333333333333,4,2,1,65,0,0
40601,-133.333333333333,4,2,1,70,0,0
40857,-133.333333333333,4,2,1,5,0,0
40942,-125,4,2,1,60,0,0
42987,-142.857142857143,4,2,1,60,0,0
43669,-125,4,2,1,60,0,0
49124,-125,4,2,1,50,0,0
49209,-125,4,2,1,60,0,0
53215,-125,4,2,0,60,0,0
53385,-125,4,2,1,60,0,0
54237,-125,4,3,1,60,0,0
54493,-125,4,2,1,60,0,0
54578,-125,4,2,1,50,0,0
57561,-125,4,2,1,5,0,0
57647,-125,4,2,1,50,0,0
60033,-125,4,2,1,55,0,0
61226,-125,4,2,1,35,0,0
61397,-125,4,2,1,55,0,0
62760,-125,4,2,1,40,0,0
65317,-125,4,2,1,20,0,0
65487,-125,4,2,1,40,0,0
65999,-125,4,3,1,40,0,0
66169,-125,4,2,1,40,0,0
66340,-125,4,2,0,40,0,0
66510,-125,4,2,1,50,0,0
66766,-125,4,2,0,50,0,0
66851,-153.846153846154,4,2,0,50,0,0
66936,-153.846153846154,4,2,1,5,0,0
67448,-153.846153846154,4,2,1,5,0,0
67533,-142.857142857143,4,2,0,40,0,0
67618,-142.857142857143,4,2,1,40,0,0
67789,-142.857142857143,4,2,1,5,0,0
67874,-142.857142857143,4,2,0,50,0,0
67959,-142.857142857143,4,2,1,50,0,0
68129,-142.857142857143,4,2,1,5,0,0
68215,-111.111111111111,4,2,1,70,0,1
68470,-111.111111111111,4,2,1,5,0,1
68556,-111.111111111111,4,2,1,70,0,1
71198,-111.111111111111,4,2,1,5,0,1
71283,-111.111111111111,4,2,1,70,0,1
78953,-111.111111111111,4,2,1,50,0,1
79124,-111.111111111111,4,2,1,70,0,0
79209,-111.111111111111,4,2,1,70,0,1
79379,-111.111111111111,4,2,1,5,0,1
79465,-111.111111111111,4,2,1,70,0,1
81681,-111.111111111111,4,2,1,40,0,1
81851,-99.9999999999999,4,2,1,70,0,1
83044,-99.9999999999999,4,2,0,70,0,1
83215,-111.111111111111,4,2,1,70,0,1
84578,-142.857142857143,4,2,1,55,0,1
85260,-142.857142857143,4,2,0,40,0,1
85431,-142.857142857143,4,2,1,40,0,1
85772,-142.857142857143,4,2,1,40,0,1
85942,-142.857142857143,4,2,0,70,0,0
86965,-142.857142857143,4,2,1,70,0,0
87306,-111.111111111111,4,2,1,70,0,1
90033,-111.111111111111,4,2,1,60,0,0
90289,-111.111111111111,4,2,1,5,0,0
90374,-111.111111111111,4,2,1,60,0,0
92164,-111.111111111111,4,2,1,5,0,0
92249,-111.111111111111,4,2,1,60,0,0
94891,-111.111111111111,4,2,1,5,0,0
94976,-111.111111111111,4,2,1,60,0,0
95487,-166.666666666666,4,2,2,40,0,0
104948,-166.666666666666,4,2,2,5,0,0
105033,-125,4,2,1,40,0,0
105800,-125,4,2,1,5,0,0
105885,-125,4,2,1,40,0,0
106397,-125,4,2,1,45,0,0
108272,-125,4,2,0,40,0,0
108442,-125,4,2,1,40,0,0
110487,-125,4,2,1,60,0,0
113044,-125,4,2,1,30,0,0
113215,-125,4,2,1,60,0,0
114578,-125,4,2,1,40,0,0
117135,-125,4,2,1,20,0,0
117306,-125,4,2,1,40,0,0
117817,-125,4,2,1,20,0,0
117987,-125,4,2,1,40,0,0
118584,-125,4,2,1,5,0,0
118669,-125,4,2,1,40,0,0
119692,-125,4,2,1,60,0,0
119948,-125,4,2,1,5,0,0
120033,-111.111111111111,4,2,1,70,0,1
120289,-111.111111111111,4,2,1,5,0,1
120374,-111.111111111111,4,2,1,70,0,1
123016,-111.111111111111,4,2,1,5,0,1
123101,-111.111111111111,4,2,1,70,0,1
130772,-111.111111111111,4,2,1,50,0,1
130942,-111.111111111111,4,2,1,70,0,0
131027,-111.111111111111,4,2,1,70,0,1
131198,-111.111111111111,4,2,1,5,0,1
131283,-111.111111111111,4,2,1,70,0,1
133499,-111.111111111111,4,2,0,70,0,1
133669,-99.9999999999999,4,2,1,70,0,1
134436,-99.9999999999999,4,2,1,5,0,1
134522,-99.9999999999999,4,2,1,70,0,1
135033,-111.111111111111,4,2,1,70,0,1
136397,-142.857142857143,4,2,1,70,0,1
137078,-142.857142857143,4,2,0,70,0,1
137249,-142.857142857143,4,2,1,70,0,1
137590,-142.857142857143,4,2,1,70,0,1
137760,-100,4,2,0,70,0,0
138783,-100,4,2,1,70,0,1
139039,-100,4,2,1,5,0,1
139124,-100,4,2,1,70,0,0
142362,-111.111111111111,4,2,1,70,0,0
144578,-100,4,2,1,70,0,0
147561,-100,4,2,1,5,0,0
147647,-100,4,2,1,40,0,0
147987,-100,4,2,1,50,0,0
148328,-100,4,2,1,60,0,0
148669,-100,4,2,1,70,0,0
149522,-125,4,2,1,70,0,0
150033,-111.111111111111,4,2,1,70,0,0
154039,-111.111111111111,4,2,1,5,0,0
154124,-111.111111111111,4,2,1,70,0,0
155487,-125,4,2,1,55,0,0
160942,-125,4,2,1,30,0,0
162306,-125,4,2,3,20,0,0
173215,-142.857142857143,4,2,1,30,0,0
175175,-142.857142857143,4,2,1,5,0,0
175260,-142.857142857143,4,2,1,30,0,0
175516,-142.857142857143,4,3,1,30,0,0
175942,-142.857142857143,4,2,1,30,0,0
178584,-142.857142857143,4,2,1,5,0,0
178669,-142.857142857143,4,2,1,30,0,0
181397,-117.647058823529,4,2,1,60,0,0
181652,-117.647058823529,4,2,1,5,0,0
181737,-117.647058823529,4,2,1,30,0,0
182078,-117.647058823529,4,2,1,40,0,0
182419,-117.647058823529,4,2,1,50,0,0
182760,-117.647058823529,4,2,1,60,0,0
183101,-117.647058823529,4,2,1,70,0,0
183357,-117.647058823529,4,2,1,5,0,0
183442,-117.647058823529,4,2,1,70,0,0
184124,-105.263157894737,4,2,1,70,0,1
184379,-105.263157894737,4,2,1,5,0,1
184465,-105.263157894737,4,2,1,70,0,1
187107,-105.263157894737,4,2,1,5,0,1
187192,-105.263157894737,4,2,1,70,0,1
194862,-105.263157894737,4,2,1,50,0,1
195033,-105.263157894737,4,2,1,70,0,0
195118,-105.263157894737,4,2,1,70,0,1
195289,-105.263157894737,4,2,1,5,0,1
195374,-105.263157894737,4,2,1,70,0,1
197590,-105.263157894737,4,2,1,30,0,1
197760,-95.2380952380954,4,2,1,70,0,1
199124,-105.263157894737,4,2,1,70,0,1
200487,-133.333333333333,4,2,1,55,0,1
201169,-133.333333333333,4,2,0,40,0,1
201340,-133.333333333333,4,2,1,40,0,1
201681,-133.333333333333,4,2,1,40,0,1
201851,-105.263157894737,4,2,0,70,0,0
202874,-105.263157894737,4,2,1,70,0,0
203044,-111.111111111111,4,2,1,70,0,0
203215,-111.111111111111,4,2,1,70,0,1
205942,-111.111111111111,4,2,1,60,0,0
206198,-111.111111111111,4,2,1,5,0,0
206283,-111.111111111111,4,2,1,60,0,0
208073,-111.111111111111,4,2,1,5,0,0
208158,-111.111111111111,4,2,1,60,0,0
211397,-111.111111111111,4,2,1,60,0,0
211652,-111.111111111111,4,2,1,5,0,0
211737,-111.111111111111,4,2,1,60,0,0
214976,-111.111111111111,4,2,1,60,0,0
215147,-111.111111111111,4,3,1,50,0,0
215317,-111.111111111111,4,3,1,50,0,0
215487,-111.111111111111,4,2,1,50,0,0
216851,-100,4,2,1,60,0,0
219493,-100,4,2,1,5,0,0
219578,-100,4,2,0,30,0,0
220772,-100,4,2,1,30,0,0
220942,-100,4,2,1,60,0,0
221283,-100,4,3,1,60,0,0
221453,-100,4,2,1,60,0,0
221624,-100,4,2,0,60,0,0
221794,-100,4,2,1,60,0,0
225033,-100,4,2,1,15,0,0

[Colours]
Combo1 : 218,202,249
Combo2 : 255,128,128
Combo3 : 0,128,255
Combo4 : 128,64,64

[HitObjects]
185,213,1397,6,0,P|216:206|256:213,2,52.7999983886719,2|0|2,0:0|0:0|0:0,0:0:0:0:
143,273,1908,2,0,P|115:234|128:167,1,105.599996777344,2|2,0:0|0:0,0:0:0:0:
195,124,2590,6,0,B|261:134|261:134|320:122,1,105.599996777344,2|0,0:0|0:0,0:0:0:0:
369,102,3101,2,0,P|429:119|430:217,1,158.399995166016,2|0,0:0|0:0,0:0:0:0:
439,284,3783,1,2,0:0:0:0:
439,284,3953,1,2,0:0:0:0:
372,240,4124,6,0,B|313:222|313:261|252:232,1,105.599996777344,2|2,0:0|0:0,0:0:0:0:
203,192,4635,2,0,P|189:255|215:304,1,105.599996777344,2|2,0:0|0:0,0:0:0:0:
291,171,5317,6,0,P|212:104|124:157,1,211.199993554688,2|0,0:0|0:0,0:0:0:0:
203,192,6851,5,8,0:0:0:0:
165,265,7022,2,0,L|59:261,1,105.599996777344,0|0,1:2|1:2,0:0:0:0:
152,351,7533,2,0,L|235:353,1,61.5999981201172,8|8,0:0|0:0,0:0:0:0:
238,354,7789,1,8,0:0:0:0:
238,354,7874,2,0,L|252:275,1,61.5999981201172,0|8,1:2|0:0,0:0:0:0:
258,270,8129,1,8,0:0:0:0:
258,270,8215,6,0,P|310:248|380:267,1,118.799996374512,6|0,1:2|0:0,0:0:0:0:
364,240,8556,2,0,P|356:199|369:159,1,79.1999975830079,10|0,0:0|0:0,0:0:0:0:
442,208,8897,1,2,1:2:0:0:
442,208,9067,2,0,L|541:211,1,79.1999975830079,0|10,1:2|0:0,0:0:0:0:
437,119,9408,6,0,P|366:81|293:127,1,158.399995166016,2|2,1:2|0:0,0:0:0:0:
206,112,9919,1,8,0:0:0:0:
144,39,10090,2,0,L|64:40,1,79.1999975830079,2|0,1:2|0:0,0:0:0:0:
2,112,10431,1,2,1:2:0:0:
77,169,10601,2,0,B|100:194|100:194|99:289,1,118.799996374512,8|0,0:0|0:0,0:0:0:0:
99,310,10942,6,0,P|140:321|188:305,1,79.1999975830079,4|0,1:2|0:0,0:0:0:0:
240,243,11283,2,0,L|324:241,1,79.1999975830079,8|2,0:0|0:0,0:0:0:0:
390,304,11624,1,2,0:0:0:0:
390,304,11794,1,0,1:2:0:0:
427,216,11965,2,0,L|412:116,1,79.1999975830079,8|2,0:0|0:0,0:0:0:0:
319,136,12306,6,0,L|308:220,2,79.1999975830079,2|2|10,1:2|1:2|0:0,0:0:0:0:
362,51,12817,2,0,B|283:21|283:85|203:40,1,158.399995166016,2|2,1:2|1:2,0:0:0:0:
149,113,13328,2,0,P|158:152|147:188,1,79.1999975830079,10|8,0:0|0:0,0:0:0:0:
116,199,13584,1,8,0:0:0:0:
116,199,13669,6,0,L|19:204,1,79.1999975830079,4|0,1:2|0:0,0:0:0:0:
7,293,14010,2,0,B|89:286,1,79.1999975830079,10|0,0:0|0:0,0:0:0:0:
175,254,14351,1,2,1:2:0:0:
139,340,14522,2,0,P|172:348|219:338,1,79.1999975830079,0|10,0:0|0:0,0:0:0:0:
295,286,14862,6,0,B|365:262|365:328|462:276,1,158.399995166016,0|0,0:0|0:0,0:0:0:0:
396,202,15374,2,0,P|385:159|394:116,1,79.1999975830079,10|0,0:0|0:0,0:0:0:0:
343,42,15715,1,2,1:2:0:0:
290,120,15885,2,0,L|240:120,2,39.5999987915039,8|8|0,0:0|0:0|1:2,0:0:0:0:
152,115,16226,1,8,0:0:0:0:
152,115,16311,1,8,0:0:0:0:
152,115,16397,6,0,L|148:216,2,79.1999975830079,6|2|10,1:2|1:2|0:0,0:0:0:0:
222,23,16908,2,0,P|143:5|56:44,1,158.399995166016,6|8,1:2|0:0,0:0:0:0:
15,116,17419,2,0,L|22:194,1,79.1999975830079,8|4,0:0|0:0,0:0:0:0:
3,284,17760,6,0,P|37:215|183:231,1,211.2,6|2,1:2|1:2,0:0:0:0:
209,285,18442,1,8,0:0:0:0:
209,285,18612,2,0,L|206:379,2,70.4,8|2|8,0:0|1:2|0:0,0:0:0:0:
280,205,19124,6,0,P|314:201|365:231,1,88,14|0,0:0|0:0,0:0:0:0:
443,291,19465,1,2,1:2:0:0:
373,369,19635,2,0,P|339:373|288:343,1,88,10|0,0:0|0:0,0:0:0:0:
209,285,19976,1,2,1:2:0:0:
103,287,20147,2,0,L|112:388,1,88,10|0,0:0|0:0,0:0:0:0:
209,285,20487,6,0,L|199:178,2,88,2|10|0,1:2|0:0|0:0,0:0:0:0:
304,332,20999,1,2,1:2:0:0:
304,332,21084,1,2,0:0:0:0:
304,332,21169,2,0,P|335:302|396:297,1,88,10|10,0:0|0:0,0:0:0:0:
313,207,21510,2,0,P|289:145|316:79,1,132,6|0,1:2|0:0,0:0:0:0:
318,71,21851,6,0,B|249:81|249:81|170:64,1,132.000005035401,6|2,1:2|1:2,0:0:0:0:
136,221,22533,2,0,L|160:141,1,66.0000025177003,2|0,1:2|0:0,0:0:0:0:
63,157,22874,2,0,L|39:229,1,66.0000025177003,2|0,1:2|0:0,0:0:0:0:
35,307,23215,6,0,P|75:299|121:311,1,66.0000025177003,2|0,1:2|0:0,0:0:0:0:
181,332,23556,2,0,P|220:338|254:332,1,66.0000025177003,2|0,1:2|0:0,0:0:0:0:
299,266,23897,2,0,P|301:232|289:200,2,66.0000025177003,2|0|2,1:2|0:0|1:2,0:0:0:0:
327,347,24408,1,2,0:0:0:0:
382,282,24578,6,0,L|511:257,1,132.000005035401,2|0,1:2|1:2,0:0:0:0:
467,110,25260,2,0,L|320:138,1,132.000005035401,2|2,1:2|1:2,0:0:0:0:
251,145,25772,1,0,0:0:0:0:
251,145,25942,6,0,P|236:77|270:22,2,132.000005035401,2|0|2,1:2|1:2|1:2,0:0:0:0:
337,134,26794,1,2,0:0:0:0:
297,210,26965,2,0,P|265:224|208:213,1,66.0000025177003,2|2,1:2|0:0,0:0:0:0:
154,177,27306,6,0,L|160:106,1,66.0000025177003,6|0,1:2|0:0,0:0:0:0:
67,173,27647,2,0,L|82:247,1,66.0000025177003,2|0,1:2|0:0,0:0:0:0:
148,299,27987,2,0,L|233:290,1,66.0000025177003,2|0,1:2|0:0,0:0:0:0:
145,384,28328,2,0,L|55:377,1,66.0000025177003,2|0,1:2|0:0,0:0:0:0:
36,289,28669,6,0,P|26:249|41:207,1,66.0000025177003,2|0,1:2|0:0,0:0:0:0:
150,234,29010,2,0,P|155:266|148:298,1,66.0000025177003,2|0,1:2|0:0,0:0:0:0:
79,378,29351,2,0,L|12:378,2,66.0000025177003,2|0|2,1:2|0:0|1:2,0:0:0:0:
147,298,29862,1,0,0:0:0:0:
224,376,30033,6,0,L|370:372,1,132.000005035401,2|2,1:2|1:2,0:0:0:0:
246,238,30715,2,0,L|399:233,1,132.000005035401,2|2,1:2|1:2,0:0:0:0:
433,167,31226,1,0,0:0:0:0:
433,167,31397,6,0,L|518:164,2,66.0000025177003,2|0|0,1:2|0:0|1:2,0:0:0:0:
381,98,31908,1,2,1:2:0:0:
311,147,32078,2,0,L|230:149,1,66.0000025177003,0|8,1:2|0:0,0:0:0:0:
188,84,32419,2,0,P|149:76|97:93,1,66.0000025177003,4|0,3:0|0:0,0:0:0:0:
94,95,32675,1,8,0:0:0:0:
94,95,32760,6,0,L|87:175,1,66.0000025177003,6|0,1:2|0:0,0:0:0:0:
0,196,33101,2,0,L|6:127,1,66.0000025177003,2|0,1:2|0:0,0:0:0:0:
88,160,33442,1,2,1:2:0:0:
132,240,33612,2,0,P|203:259|270:229,1,132.000005035401,2|0,0:0|0:0,0:0:0:0:
333,201,34124,6,0,B|399:184|399:234|476:190,1,132.000005035401,2|0,1:2|1:2,0:0:0:0:
419,122,34635,1,0,0:0:0:0:
419,122,34806,2,0,P|409:86|416:53,1,66.0000025177003,2|0,1:2|0:0,0:0:0:0:
334,26,35147,2,0,L|254:37,1,66.0000025177003,2|0,1:2|0:0,0:0:0:0:
238,121,35487,6,0,P|195:127|147:115,1,66.0000025177003,2|0,1:2|0:0,0:0:0:0:
91,97,35828,2,0,P|72:129|75:170,1,66.0000025177003,2|0,1:2|0:0,0:0:0:0:
91,240,36169,1,2,1:2:0:0:
91,240,36340,2,0,B|78:277|54:292|54:292|45:327|67:367,1,132.000005035401,2|0,0:0|0:0,0:0:0:0:
144,334,36851,6,0,P|181:329|222:339,2,66.0000025177003,2|0|0,0:0|0:0|1:2,0:0:0:0:
285,286,37362,2,0,L|295:364,1,66.0000025177003,0|8,0:0|0:0,0:0:0:0:
301,379,37618,1,8,0:0:0:0:
301,379,37703,2,0,L|382:377,1,66.0000025177003,8|0,0:0|1:2,0:0:0:0:
418,308,38044,1,4,0:0:0:0:
488,364,38215,6,0,P|507:298|469:236,1,132.000005035401,6|0,1:2|0:0,0:0:0:0:
401,208,38726,1,0,1:2:0:0:
401,208,38897,2,0,L|401:126,1,66.0000025177003,10|8,0:0|0:0,0:0:0:0:
479,244,39237,1,2,1:2:0:0:
402,283,39408,6,0,P|337:300|273:276,1,132.000005035401,6|0,1:2|1:2,0:0:0:0:
232,198,39919,1,8,0:0:0:0:
232,198,40090,1,8,0:0:0:0:
169,266,40260,2,0,L|169:352,1,66.0000025177003,8|8,0:0|0:0,0:0:0:0:
105,197,40601,1,12,0:0:0:0:
41,264,40772,1,0,0:0:0:0:
44,144,40942,6,0,P|92:117|172:153,1,140.8,14|2,0:0|1:2,0:0:0:0:
239,191,41453,2,0,P|277:196|323:178,2,70.4,10|0|0,0:0|0:0|1:2,0:0:0:0:
376,138,41965,1,10,0:0:0:0:
376,138,42135,6,0,P|378:70|333:7,1,140.8,2|0,1:2|1:2,0:0:0:0:
252,45,42647,2,0,P|215:51|173:37,1,70.4,10|10,0:0|0:0,0:0:0:0:
168,39,42902,1,10,0:0:0:0:
168,39,42987,6,0,B|137:24|121:1|121:1|144:76|117:134,1,184.799994360352,6|8,1:2|0:0,0:0:0:0:
72,217,43669,6,0,L|172:207,1,70.4,6|0,0:0|0:0,0:0:0:0:
192,302,44010,2,0,L|121:299,1,70.4,8|0,0:0|0:0,0:0:0:0:
26,273,44351,2,0,P|21:307|30:341,1,70.4,2|0,1:2|0:0,0:0:0:0:
121,299,44692,1,10,0:0:0:0:
175,381,44862,1,0,0:0:0:0:
175,381,45033,6,0,L|261:377,1,70.4,2|0,1:2|0:0,0:0:0:0:
270,235,45374,2,0,P|242:266|239:306,1,70.4,10|0,0:0|0:0,0:0:0:0:
341,376,45715,2,0,L|321:295,1,70.4,2|0,1:2|0:0,0:0:0:0:
348,218,46056,1,10,0:0:0:0:
348,218,46226,1,2,0:0:0:0:
429,260,46397,6,0,B|454:268|477:253|477:253|456:212|472:139,1,140.8,2|8,1:2|0:0,0:0:0:0:
492,76,46908,2,0,P|478:24|377:28,1,140.8,0|0,0:0|0:0,0:0:0:0:
320,52,47419,2,0,L|245:49,1,70.4,10|0,0:0|0:0,0:0:0:0:
216,134,47760,6,0,L|305:139,1,70.4,2|0,1:2|0:0,0:0:0:0:
394,196,48101,2,0,L|371:104,1,70.4,10|0,0:0|0:0,0:0:0:0:
270,70,48442,2,0,L|287:141,1,70.4,2|0,1:2|0:0,0:0:0:0:
303,228,48783,1,10,0:0:0:0:
221,187,48953,1,10,0:0:0:0:
203,284,49124,6,0,L|62:289,1,140.8,6|10,1:2|0:0,0:0:0:0:
48,379,49635,1,0,0:0:0:0:
48,379,49806,2,0,L|140:375,1,70.4,2|0,1:2|0:0,0:0:0:0:
62,288,50147,2,0,P|51:253|59:214,1,70.4,10|0,0:0|0:0,0:0:0:0:
120,148,50487,6,0,L|215:144,1,70.4,2|0,1:2|0:0,0:0:0:0:
275,109,50828,2,0,P|282:70|273:37,1,70.4,10|0,0:0|0:0,0:0:0:0:
190,145,51169,2,0,P|179:190|190:221,1,70.4,2|0,1:2|0:0,0:0:0:0:
275,227,51510,1,10,0:0:0:0:
224,303,51681,1,2,0:0:0:0:
224,303,51851,6,0,L|83:308,1,140.8,2|8,1:2|0:0,0:0:0:0:
47,223,52362,2,0,P|57:145|22:78,1,140.8,0|0,0:0|0:0,0:0:0:0:
106,35,52874,1,10,0:0:0:0:
106,35,53044,1,0,0:0:0:0:
152,114,53215,6,0,L|224:110,2,70.4,2|0|8,1:2|0:0|0:0,0:0:0:0:
32,89,53726,1,8,3:0:0:0:
32,89,53811,1,8,3:0:0:0:
32,89,53897,1,0,1:2:0:0:
35,194,54067,2,0,L|0:194,2,35.2,8|0|4,0:0|0:0|0:0,0:0:0:0:
125,116,54408,1,4,0:0:0:0:
172,218,54578,6,0,L|269:222,1,70.4,6|0,1:2|0:0,0:0:0:0:
278,136,54919,2,0,L|348:133,1,70.4,10|0,0:0|0:0,0:0:0:0:
424,200,55260,1,2,1:2:0:0:
424,200,55431,2,0,P|446:118|412:58,1,140.8,2|0,0:0|0:0,0:0:0:0:
338,37,55942,2,0,B|280:25|254:83|179:32,1,140.8,2|8,1:2|0:0,0:0:0:0:
270,135,56453,1,0,0:0:0:0:
270,135,56624,2,0,P|229:140|176:124,1,70.4,2|0,1:2|0:0,0:0:0:0:
120,90,56965,2,0,L|48:92,1,70.4,10|0,0:0|0:0,0:0:0:0:
6,172,57306,6,0,P|-6:228|18:284,1,105.6,2|0,1:2|0:0,0:0:0:0:
32,289,57647,2,0,L|124:279,1,70.4,10|0,0:0|0:0,0:0:0:0:
219,260,57987,1,2,1:2:0:0:
164,357,58158,2,0,P|230:371|305:328,1,140.8,2|0,0:0|0:0,0:0:0:0:
387,305,58669,6,0,L|399:387,1,70.4,6|0,1:2|0:0,0:0:0:0:
437,220,59010,1,10,0:0:0:0:
305,248,59181,2,0,P|279:183|302:98,1,140.8,6|2,1:2|1:2,0:0:0:0:
382,99,59692,2,0,L|453:99,1,70.4,10|2,0:0|1:2,0:0:0:0:
487,98,59948,1,2,0:0:0:0:
487,98,60033,6,0,P|494:64|484:30,1,70.4,6|0,1:2|0:0,0:0:0:0:
382,99,60374,2,0,P|373:132|379:167,1,70.4,10|0,0:0|0:0,0:0:0:0:
463,203,60715,1,2,1:2:0:0:
463,203,60885,1,0,0:0:0:0:
387,255,61056,2,0,L|294:253,1,70.4,8|10,0:0|0:0,0:0:0:0:
288,257,61311,1,10,0:0:0:0:
288,257,61397,6,0,P|267:294|270:338,1,70.4,2|0,1:2|0:0,0:0:0:0:
180,353,61737,2,0,L|83:352,1,70.4,10|0,0:0|0:0,0:0:0:0:
21,316,62078,2,0,P|12:350|22:390,2,70.4,2|0|8,1:2|0:0|0:0,0:0:0:0:
109,352,62590,1,0,0:0:0:0:
138,265,62760,6,0,L|146:119,1,140.8,6|0,1:2|0:0,0:0:0:0:
246,135,63272,1,2,1:2:0:0:
246,135,63442,2,0,P|310:149|389:131,1,140.8,10|2,0:0|1:2,0:0:0:0:
470,97,63953,1,10,0:0:0:0:
470,97,64124,6,0,P|478:139|463:178,2,70.4,2|0|8,1:2|0:0|0:0,0:0:0:0:
403,33,64635,1,2,0:0:0:0:
335,95,64806,2,0,L|233:93,1,70.4,10|0,0:0|1:2,0:0:0:0:
170,63,65147,2,0,P|165:114|183:149,1,70.4,10|10,0:0|0:0,0:0:0:0:
187,162,65402,1,10,0:0:0:0:
187,162,65487,6,0,L|273:166,2,70.4,6|0|8,1:2|0:0|0:0,0:0:0:0:
85,121,65999,1,0,0:0:0:0:
85,121,66084,1,0,0:0:0:0:
85,121,66169,2,0,L|77:219,1,70.4,2|2,1:2|0:0,0:0:0:0:
187,162,66510,1,2,0:0:0:0:
150,248,66681,1,0,0:0:0:0:
150,248,66851,6,0,B|230:286|234:202|328:253,1,171.599992144776,2|0,0:0|0:0,0:0:0:0:
391,315,67533,2,0,P|411:280|405:215,1,92.3999971801759,2|0,0:0|0:0,0:0:0:0:
402,208,67874,2,0,P|384:158|402:105,1,92.3999971801759,2|0,0:0|0:0,0:0:0:0:
412,96,68215,6,0,B|370:105|370:105|312:96,1,79.1999975830079,6|0,1:2|0:0,0:0:0:0:
268,5,68556,1,10,0:0:0:0:
268,5,68726,2,0,L|357:14,1,79.1999975830079,2|0,1:2|0:0,0:0:0:0:
334,99,69067,1,2,1:2:0:0:
243,158,69237,2,0,P|226:117|236:50,1,79.1999975830079,10|0,0:0|0:0,0:0:0:0:
287,240,69578,6,0,B|196:278|213:210|108:242,1,158.399995166016,2|8,1:2|0:0,0:0:0:0:
115,352,70090,1,2,1:2:0:0:
115,352,70260,2,0,P|142:362|200:355,1,79.1999975830079,2|0,0:0|1:2,0:0:0:0:
28,300,70601,2,0,P|13:345|28:397,1,79.1999975830079,10|0,0:0|0:0,0:0:0:0:
133,235,70942,6,0,P|152:150|120:79,1,158.399995166016,2|10,1:2|0:0,0:0:0:0:
192,7,71453,2,0,L|306:-2,1,79.1999975830079,2|0,1:2|0:0,0:0:0:0:
319,91,71794,1,0,1:2:0:0:
319,91,71965,2,0,P|378:105|454:73,1,118.799996374512,10|0,0:0|0:0,0:0:0:0:
461,76,72306,6,0,L|467:170,2,79.1999975830079,2|0|10,1:2|0:0|0:0,0:0:0:0:
511,238,72817,1,2,1:2:0:0:
511,238,72987,2,0,P|466:250|414:229,1,79.1999975830079,2|0,0:0|1:2,0:0:0:0:
351,182,73328,2,0,P|309:172|256:184,1,79.1999975830079,10|2,0:0|0:0,0:0:0:0:
250,188,73584,1,0,0:0:0:0:
250,188,73669,6,0,P|207:202|155:175,1,79.1999975830079,6|0,1:2|0:0,0:0:0:0:
75,67,74010,2,0,P|108:97|111:155,1,79.1999975830079,10|0,0:0|0:0,0:0:0:0:
56,275,74351,2,0,P|65:232|114:199,1,79.1999975830079,2|0,0:0|1:2,0:0:0:0:
208,129,74692,1,10,0:0:0:0:
208,129,74862,1,0,0:0:0:0:
230,276,75033,6,0,L|118:275,1,79.1999975830079,2|0,1:2|1:2,0:0:0:0:
23,214,75374,2,0,L|139:215,1,79.1999975830079,10|0,0:0|0:0,0:0:0:0:
158,350,75715,2,0,P|144:308|160:259,1,79.1999975830079,2|0,0:0|1:2,0:0:0:0:
280,212,76056,2,0,P|309:274|286:335,1,118.799996374512,10|2,0:0|0:0,0:0:0:0:
295,352,76397,6,0,B|347:354|381:329|381:329|409:359|461:347,1,158.399995166016,2|8,1:2|0:0,0:0:0:0:
433,195,76908,1,2,0:0:0:0:
433,195,77078,2,0,P|424:233|436:273,1,79.1999975830079,2|0,0:0|1:2,0:0:0:0:
488,121,77419,2,0,L|323:101,1,158.399995166016,8|2,0:0|1:2,0:0:0:0:
256,174,77931,5,2,1:2:0:0:
216,80,78101,2,0,L|229:-16,2,79.1999975830079,10|2|0,0:0|0:0|1:2,0:0:0:0:
149,166,78612,1,0,1:2:0:0:
105,72,78783,2,0,P|60:63|9:83,1,79.1999975830079,8|10,0:0|0:0,0:0:0:0:
2,89,79039,1,10,0:0:0:0:
2,89,79124,6,0,L|12:173,1,79.1999975830079,6|0,1:2|0:0,0:0:0:0:
71,251,79465,1,10,0:0:0:0:
152,189,79635,2,0,L|251:178,1,79.1999975830079,2|0,1:2|0:0,0:0:0:0:
328,128,79976,1,2,1:2:0:0:
328,128,80147,2,0,P|343:175|331:226,1,79.1999975830079,10|0,0:0|0:0,0:0:0:0:
230,180,80487,6,0,P|221:99|274:31,1,158.399995166016,2|10,1:2|0:0,0:0:0:0:
328,128,80999,1,0,0:0:0:0:
400,54,81169,2,0,L|490:51,2,79.1999975830079,2|0|10,1:2|1:2|0:0,0:0:0:0:
344,210,81681,1,10,0:0:0:0:
344,210,81766,1,10,0:0:0:0:
344,210,81851,6,0,P|324:165|332:117,1,88,6|0,1:2|0:0,0:0:0:0:
430,152,82192,1,8,0:0:0:0:
496,236,82362,2,0,P|383:246|338:200,1,176,2|2,1:2|1:2,0:0:0:0:
241,253,82874,2,0,B|241:308|241:308|257:329|257:329|258:405,1,132,8|2,0:0|0:0,0:0:0:0:
230,378,83215,6,0,P|181:367|124:384,2,79.1999975830079,2|0|10,1:2|0:0|0:0,0:0:0:0:
335,305,83726,1,0,0:0:0:0:
335,305,83897,2,0,L|338:407,1,79.1999975830079,2|0,1:2|1:2,0:0:0:0:
241,253,84237,2,0,P|228:206|241:158,1,79.1999975830079,10|8,0:0|0:0,0:0:0:0:
245,159,84493,1,8,0:0:0:0:
245,159,84578,6,0,B|287:134|344:166|344:166|311:97|366:26|466:30|515:97|492:196|418:202,1,431.199986840821,6|2,1:2|1:2,0:0:0:0:
407,134,85942,1,0,1:0:0:0:
128,195,86965,1,8,0:0:0:0:
128,195,87135,6,0,L|83:198,2,30.7999990600586,8|8|6,0:0|0:0|1:2,0:0:0:0:
163,275,87476,2,0,L|253:267,1,79.1999975830079,0|10,0:0|0:0,0:0:0:0:
343,247,87817,2,0,P|316:318|360:393,1,158.399995166016,2|2,1:2|1:2,0:0:0:0:
458,382,88328,6,0,P|485:311|441:236,1,158.399995166016,10|2,0:0|1:2,0:0:0:0:
391,185,88840,1,0,0:0:0:0:
434,109,89010,2,0,L|527:98,1,79.1999975830079,2|0,1:2|0:0,0:0:0:0:
391,185,89351,2,0,L|290:175,1,79.1999975830079,2|10,1:2|0:0,0:0:0:0:
280,176,89607,1,10,0:0:0:0:
280,176,89692,2,0,P|265:211|272:265,1,79.1999975830079,2|10,1:2|0:0,0:0:0:0:
273,282,89948,1,10,0:0:0:0:
273,282,90033,6,0,L|140:280,1,118.799996374512,6|0,1:2|0:0,0:0:0:0:
122,277,90374,2,0,P|106:229|127:173,1,79.1999975830079,10|2,0:0|0:0,0:0:0:0:
156,118,90715,1,2,1:2:0:0:
229,177,90885,2,0,L|321:177,1,79.1999975830079,0|10,1:2|0:0,0:0:0:0:
226,59,91226,6,0,P|157:26|81:63,1,158.399995166016,2|2,0:0|0:0,0:0:0:0:
156,118,91737,1,8,0:0:0:0:
79,174,91908,2,0,L|-8:172,1,79.1999975830079,2|0,1:2|0:0,0:0:0:0:
19,265,92249,1,2,1:2:0:0:
113,267,92419,2,0,B|140:264|156:247|156:247|237:271,1,118.799996374512,8|0,0:0|0:0,0:0:0:0:
254,276,92760,6,0,P|296:286|346:267,1,79.1999975830079,2|0,1:2|0:0,0:0:0:0:
417,239,93101,2,0,L|426:324,1,79.1999975830079,10|2,0:0|0:0,0:0:0:0:
461,156,93442,1,2,0:0:0:0:
349,176,93612,2,0,P|338:139|355:80,1,79.1999975830079,0|10,1:2|0:0,0:0:0:0:
378,10,93953,6,0,P|330:10|279:34,1,79.1999975830079,2|0,0:0|0:0,0:0:0:0:
234,100,94294,1,2,0:0:0:0:
146,45,94465,1,10,0:0:0:0:
146,45,94635,2,0,P|91:8|10:46,2,158.399995166016,6|8|2,1:2|0:0|0:0,0:0:0:0:
234,100,95487,5,6,0:0:0:0:
336,304,96169,2,0,P|325:252|334:200,1,105.599996777344,2|0,0:0|0:0,0:0:0:0:
404,153,96681,1,0,0:0:0:0:
404,153,96851,2,0,P|415:205|405:256,1,105.599996777344,2|0,0:0|0:0,0:0:0:0:
336,304,97362,1,0,0:0:0:0:
336,304,97533,2,0,L|258:304,1,52.7999983886719,2|0,0:0|0:0,0:0:0:0:
199,289,97874,2,0,L|185:365,1,52.7999983886719,0|0,0:0|0:0,0:0:0:0:
256,214,98215,6,0,B|156:158|157:258|54:195,1,211.199993554688,2|0,0:0|0:0,0:0:0:0:
116,136,99237,1,0,0:0:0:0:
71,4,99578,1,2,0:0:0:0:
0,61,99919,1,2,0:0:0:0:
33,140,100260,1,2,0:0:0:0:
148,50,100601,1,2,0:0:0:0:
212,183,100942,6,0,L|320:181,1,105.599996777344,2|0,0:0|0:0,0:0:0:0:
293,262,101453,1,0,0:0:0:0:
293,262,101624,2,0,L|409:261,1,105.599996777344,0|2,0:0|0:0,0:0:0:0:
403,85,102306,6,0,P|390:138|416:186,1,105.599996777344,2|0,0:0|0:0,0:0:0:0:
478,129,102817,1,0,0:0:0:0:
478,129,102987,2,0,P|490:65|463:24,1,105.599996777344,0|0,0:0|0:0,0:0:0:0:
330,69,103669,6,0,B|277:83|276:49|211:66|211:66|246:117|233:162|193:151|185:210|217:258,1,316.799990332032,2|4,0:0|0:0,0:0:0:0:
275,305,104862,1,0,0:0:0:0:
275,305,105033,6,0,L|355:303,2,70.4,14|2|2,0:0|0:0|1:2,0:0:0:0:
315,222,105544,2,0,B|373:222|373:222|402:239|402:239|464:239,1,140.8,10|2,0:0|1:2,0:0:0:0:
503,162,106056,2,0,P|510:126|492:82,1,70.4,10|2,0:0|0:0,0:0:0:0:
479,90,106311,1,2,0:0:0:0:
479,90,106397,6,0,P|437:98|387:87,1,70.4,6|0,1:2|0:0,0:0:0:0:
327,55,106737,2,0,P|289:50|243:60,1,70.4,2|0,1:2|0:0,0:0:0:0:
210,133,107078,1,2,1:2:0:0:
210,133,107249,2,0,P|136:140|105:81,1,140.8,2|2,0:0|0:0,0:0:0:0:
17,61,107760,6,0,L|21:217,1,140.8,2|2,1:2|1:2,0:0:0:0:
81,271,108272,1,2,0:0:0:0:
131,194,108442,2,0,P|166:188|206:194,1,70.4,2|2,1:2|0:0,0:0:0:0:
246,271,108783,2,0,P|281:272|314:263,1,70.4,2|2,1:2|0:0,0:0:0:0:
401,232,109124,6,0,P|430:282|413:346,1,105.6,2|0,1:2|0:0,0:0:0:0:
408,351,109465,2,0,P|370:344|326:355,1,70.4,2|0,1:2|0:0,0:0:0:0:
256,309,109806,1,2,1:2:0:0:
169,354,109976,2,0,L|164:180,1,140.8,2|2,0:0|0:0,0:0:0:0:
82,252,110487,6,0,P|48:258|6:248,1,70.4,6|0,1:2|0:0,0:0:0:0:
51,137,110828,1,10,0:0:0:0:
164,213,110999,2,0,P|187:139|159:55,1,140.8,2|2,1:2|1:2,0:0:0:0:
240,16,111510,2,0,L|342:17,1,70.4,10|10,0:0|0:0,0:0:0:0:
338,21,111766,1,2,0:0:0:0:
338,21,111851,6,0,P|332:62|354:113,1,70.4,6|0,1:2|0:0,0:0:0:0:
443,126,112192,2,0,P|450:91|444:57,1,70.4,10|0,0:0|0:0,0:0:0:0:
339,89,112533,1,2,1:2:0:0:
339,89,112703,1,0,0:0:0:0:
304,194,112874,2,0,L|400:194,1,70.4,8|10,0:0|0:0,0:0:0:0:
400,203,113129,1,10,0:0:0:0:
400,203,113215,6,0,P|410:255|400:295,1,70.4,2|0,1:2|0:0,0:0:0:0:
325,312,113556,2,0,L|226:313,1,70.4,10|0,0:0|0:0,0:0:0:0:
170,276,113897,2,0,P|162:310|167:345,2,70.4,2|0|10,1:2|0:0|0:0,0:0:0:0:
246,225,114408,1,0,0:0:0:0:
166,344,114578,6,0,L|2:344,1,140.8,6|2,1:2|0:0,0:0:0:0:
58,257,115090,1,0,1:2:0:0:
58,257,115260,2,0,B|104:257|104:257|79:192|96:141,1,140.8,10|2,0:0|1:2,0:0:0:0:
100,72,115772,1,10,0:0:0:0:
185,102,115942,6,0,P|190:62|169:11,2,70.4,2|0|8,1:2|0:0|0:0,0:0:0:0:
90,164,116453,1,0,0:0:0:0:
166,215,116624,2,0,L|247:210,1,70.4,2|0,1:2|0:0,0:0:0:0:
321,244,116965,2,0,P|331:277|324:315,1,70.4,10|10,0:0|0:0,0:0:0:0:
321,343,117220,1,10,0:0:0:0:
321,343,117306,6,0,L|413:337,2,70.4,6|0|2,1:2|0:0|0:0,0:0:0:0:
232,374,117817,1,10,0:0:0:0:
232,374,117902,1,10,0:0:0:0:
232,374,117987,2,0,L|230:284,1,70.4,2|8,1:2|0:0,0:0:0:0:
228,211,118328,1,2,1:2:0:0:
228,211,118499,1,0,0:0:0:0:
150,262,118669,5,10,0:0:0:0:
146,163,118840,1,2,1:2:0:0:
84,311,119181,5,2,1:2:0:0:
87,108,119522,5,2,1:2:0:0:
87,108,119607,1,2,1:2:0:0:
87,108,119692,2,0,P|132:83|201:103,1,105.6,8|0,0:0|0:0,0:0:0:0:
206,96,120033,6,0,P|249:101|300:77,1,79.1999975830079,6|0,1:2|0:0,0:0:0:0:
224,200,120374,1,10,0:0:0:0:
224,200,120544,2,0,B|126:176,1,79.1999975830079,2|0,1:2|0:0,0:0:0:0:
191,286,120885,1,2,1:2:0:0:
309,238,121056,2,0,P|318:196|307:157,1,79.1999975830079,10|0,0:0|0:0,0:0:0:0:
279,327,121397,6,0,B|358:360|358:286|445:344,1,158.399995166016,2|10,1:2|0:0,0:0:0:0:
408,230,121908,1,2,1:2:0:0:
408,230,122078,2,0,P|396:184|412:143,1,79.1999975830079,2|0,0:0|1:2,0:0:0:0:
507,186,122419,2,0,P|519:231|494:292,1,79.1999975830079,10|2,0:0|0:0,0:0:0:0:
411,373,122760,6,0,P|380:305|420:218,1,158.399995166016,2|10,1:2|0:0,0:0:0:0:
411,373,123272,2,0,L|316:369,1,79.1999975830079,2|0,1:2|0:0,0:0:0:0:
267,287,123612,1,2,1:2:0:0:
267,287,123783,2,0,P|207:272|123:301,1,118.799996374512,10|0,0:0|0:0,0:0:0:0:
114,305,124124,6,0,L|116:400,2,79.1999975830079,2|0|10,1:2|0:0|0:0,0:0:0:0:
58,217,124635,1,2,1:2:0:0:
58,217,124806,2,0,P|106:201|152:208,1,79.1999975830079,2|0,0:0|1:2,0:0:0:0:
233,229,125147,2,0,P|278:230|311:219,1,79.1999975830079,8|2,0:0|1:2,0:0:0:0:
347,216,125402,1,0,0:0:0:0:
347,216,125487,6,0,P|375:238|389:288,1,79.1999975830079,6|0,1:2|0:0,0:0:0:0:
283,157,125828,2,0,P|269:120|277:82,1,79.1999975830079,10|0,0:0|0:0,0:0:0:0:
257,237,126169,2,0,P|227:263|189:269,1,79.1999975830079,2|0,0:0|1:2,0:0:0:0:
123,149,126510,1,10,0:0:0:0:
123,149,126681,1,0,0:0:0:0:
188,268,126851,6,0,L|188:358,1,79.1999975830079,2|0,1:2|1:2,0:0:0:0:
53,292,127192,2,0,L|54:198,1,79.1999975830079,10|0,0:0|0:0,0:0:0:0:
92,368,127533,2,0,P|52:380|10:365,1,79.1999975830079,2|0,0:0|1:2,0:0:0:0:
188,268,127874,2,0,P|242:246|307:267,1,118.799996374512,10|2,0:0|0:0,0:0:0:0:
319,262,128215,6,0,B|360:173|289:191|337:86,1,158.399995166016,2|10,1:2|0:0,0:0:0:0:
483,145,128726,1,2,1:2:0:0:
483,144,128897,2,0,P|445:153|405:145,1,79.1999975830079,2|0,0:0|1:2,0:0:0:0:
402,38,129237,2,0,P|328:7|240:54,1,158.399995166016,10|2,0:0|1:2,0:0:0:0:
171,6,129749,5,2,1:2:0:0:
171,6,129919,1,10,0:0:0:0:
171,109,130090,1,0,0:0:0:0:
81,59,130260,2,0,L|-17:63,1,79.1999975830079,2|0,1:2|1:2,0:0:0:0:
3,165,130601,2,0,B|98:160,1,79.1999975830079,8|10,0:0|0:0,0:0:0:0:
113,166,130857,1,10,0:0:0:0:
113,166,130942,6,0,P|104:216|119:260,1,79.1999975830079,6|0,1:2|0:0,0:0:0:0:
172,325,131283,1,10,0:0:0:0:
228,239,131453,2,0,L|337:237,1,79.1999975830079,2|0,1:2|0:0,0:0:0:0:
355,328,131794,1,2,1:2:0:0:
355,328,131965,2,0,L|243:330,1,79.1999975830079,10|0,0:0|0:0,0:0:0:0:
437,384,132306,6,0,P|455:308|409:241,1,158.399995166016,2|10,1:2|0:0,0:0:0:0:
343,168,132817,1,2,1:2:0:0:
253,218,132987,2,0,P|237:174|260:119,2,79.1999975830079,2|0|10,0:0|1:2|0:0,0:0:0:0:
378,71,133499,1,2,0:0:0:0:
378,72,133584,1,2,0:0:0:0:
378,72,133669,6,0,P|327:60|280:79,1,88,6|0,1:2|0:0,0:0:0:0:
343,168,134010,1,10,0:0:0:0:
456,151,134181,2,0,P|493:64|448:-6,1,176,2|2,1:2|1:2,0:0:0:0:
378,72,134692,2,0,B|327:74|327:74|291:54|291:54|215:54,1,132,8|0,0:0|0:0,0:0:0:0:
223,56,135033,6,0,P|213:102|229:159,2,79.1999975830079,2|0|10,1:2|0:0|0:0,0:0:0:0:
308,169,135544,1,2,1:2:0:0:
219,222,135715,2,0,L|121:215,1,79.1999975830079,2|0,0:0|1:2,0:0:0:0:
38,195,136056,2,0,P|51:234|44:303,1,79.1999975830079,10|2,0:0|1:2,0:0:0:0:
49,298,136311,1,2,0:0:0:0:
49,298,136397,6,0,B|104:337|159:308|122:282|196:272|233:293|233:293|286:318|325:284|325:284|267:224|312:158,1,431.199986840821,6|2,1:2|1:2,0:0:0:0:
376,214,137760,1,0,1:0:0:0:
342,52,138783,5,8,0:0:0:0:
201,191,139124,6,0,L|104:188,1,88,6|0,1:2|0:0,0:0:0:0:
165,97,139465,1,2,1:2:0:0:
296,153,139635,2,0,P|305:190|292:240,1,88,10|0,0:0|0:0,0:0:0:0:
201,191,139976,1,2,1:2:0:0:
255,57,140147,2,0,L|342:52,1,88,10|0,0:0|0:0,0:0:0:0:
438,150,140487,6,0,L|316:156,2,88,2|10|0,1:2|0:0|0:0,0:0:0:0:
371,250,140999,1,2,1:2:0:0:
270,204,141169,2,0,P|256:160|274:94,1,88,10|8,0:0|0:0,0:0:0:0:
371,250,141510,2,0,L|375:375,1,88,10|8,0:0|0:0,0:0:0:0:
373,369,141766,1,8,0:0:0:0:
373,369,141851,6,0,P|321:363|273:374,1,88,14|0,0:0|0:0,0:0:0:0:
173,349,142192,1,2,1:2:0:0:
236,268,142362,2,0,P|251:211|234:147,1,118.799996374512,10|0,0:0|0:0,0:0:0:0:
229,127,142703,2,0,B|149:179|150:106|50:150,1,158.399995166016,2|8,1:2|0:0,0:0:0:0:
48,143,143129,1,8,0:0:0:0:
48,143,143215,6,0,P|36:102|45:58,2,79.1999975830079,2|0|2,1:2|0:0|1:2,0:0:0:0:
112,221,143726,2,0,L|113:324,1,79.1999975830079,10|0,0:0|0:0,0:0:0:0:
0,273,144067,2,0,L|0:218,2,39.5999987915039,10|0|2,0:0|0:0|1:2,0:0:0:0:
78,380,144408,1,8,0:0:0:0:
78,380,144493,1,8,0:0:0:0:
78,380,144578,6,0,L|185:367,1,88,6|0,1:2|0:0,0:0:0:0:
239,271,144919,1,2,1:2:0:0:
87,234,145090,2,0,L|-37:232,1,88,10|0,0:0|0:0,0:0:0:0:
165,369,145431,1,2,1:2:0:0:
186,213,145601,2,0,L|187:123,1,88,10|0,0:0|0:0,0:0:0:0:
76,46,145942,6,0,L|73:136,2,88,2|10|0,1:2|0:0|0:0,0:0:0:0:
187,126,146453,1,2,1:2:0:0:
115,234,146624,2,0,P|70:245|29:233,1,88,10|8,0:0|0:0,0:0:0:0:
0,238,146879,1,8,0:0:0:0:
0,238,146965,2,0,L|0:326,1,88,0|8,1:2|0:0,0:0:0:0:
176,298,147306,6,0,P|207:235|144:151,1,176,6|8,1:2|0:0,0:0:0:0:
23,163,147817,1,8,0:0:0:0:
23,163,147987,1,8,0:0:0:0:
96,84,148158,1,8,0:0:0:0:
124,234,148328,2,0,L|237:232,1,88,8|8,0:0|0:0,0:0:0:0:
342,183,148669,6,0,L|348:298,2,88,10|0|2,0:0|0:0|1:2,0:0:0:0:
443,121,149181,1,10,0:0:0:0:
387,348,149522,2,0,B|305:385|314:314|221:363,1,140.8,10|8,0:0|0:0,0:0:0:0:
222,354,149948,1,8,0:0:0:0:
222,354,150033,6,0,P|206:308|219:260,1,79.1999975830079,6|0,1:2|1:2,0:0:0:0:
239,180,150374,1,10,0:0:0:0:
239,180,150544,1,2,0:0:0:0:
146,221,150715,2,0,P|98:230|42:217,1,79.1999975830079,0|0,0:0|1:2,0:0:0:0:
16,154,151056,2,0,P|5:103|22:53,1,79.1999975830079,10|0,0:0|0:0,0:0:0:0:
117,86,151397,6,0,L|291:60,1,158.399995166016,2|10,1:2|0:0,0:0:0:0:
337,133,151908,1,2,0:0:0:0:
337,133,152078,2,0,P|297:153|245:147,1,79.1999975830079,0|0,0:0|1:2,0:0:0:0:
371,45,152419,2,0,L|464:29,1,79.1999975830079,10|2,0:0|0:0,0:0:0:0:
452,148,152760,6,0,P|482:231|456:325,1,158.399995166016,6|10,1:2|0:0,0:0:0:0:
397,364,153272,1,2,0:0:0:0:
329,293,153442,2,0,L|223:295,1,79.1999975830079,2|0,1:2|1:2,0:0:0:0:
147,340,153783,2,0,P|165:274|138:218,1,118.799996374512,10|0,0:0|0:0,0:0:0:0:
128,203,154124,6,0,P|109:159|126:103,1,79.1999975830079,6|0,1:2|1:2,0:0:0:0:
146,39,154465,1,10,0:0:0:0:
213,114,154635,1,8,0:0:0:0:
213,114,154720,1,8,0:0:0:0:
213,114,154806,1,2,1:2:0:0:
289,59,154976,2,0,B|360:38|344:72|417:63|417:63|389:105,1,158.399995166016,6|10,1:2|0:0,0:0:0:0:
477,120,155487,6,0,P|496:57|459:-9,2,140.8,6|2|10,1:2|0:0|0:0,0:0:0:0:
308,143,156510,2,0,P|299:180|314:226,1,70.4,2|10,1:2|0:0,0:0:0:0:
344,288,156851,1,2,1:2:0:0:
344,288,157022,2,0,L|272:286,1,70.4,8|2,0:0|1:2,0:0:0:0:
261,370,157362,2,0,L|111:368,1,140.8,2|0,0:0|0:0,0:0:0:0:
56,313,157874,2,0,L|47:230,1,70.4,10|0,0:0|0:0,0:0:0:0:
136,247,158215,6,0,P|187:209|170:126,1,140.8,6|2,1:2|1:2,0:0:0:0:
130,55,158726,1,0,0:0:0:0:
64,108,158897,2,0,L|-3:102,2,46.9333333333333,8|0|0,0:0|0:0|0:0,0:0:0:0:
134,142,159237,2,0,L|201:136,2,46.9333333333333,10|8|0,0:0|0:0|1:2,0:0:0:0:
71,185,159578,1,14,0:0:0:0:
256,192,159749,12,4,162306,0:0:0:0:
177,233,173215,6,0,P|242:244|319:227,1,123.199996240234,6|2,1:2|0:0,0:0:0:0:
373,202,173726,1,2,1:2:0:0:
373,202,173897,2,0,L|382:266,1,61.5999981201172,8|2,0:0|0:0,0:0:0:0:
453,298,174237,2,0,L|463:237,1,61.5999981201172,0|8,0:0|0:0,0:0:0:0:
486,160,174578,6,0,B|416:166|441:115|369:122,1,123.199996240234,2|2,1:2|1:2,0:0:0:0:
311,70,175090,1,0,0:0:0:0:
276,141,175260,2,0,L|286:182,2,41.0666654134115,8|8|4,0:0|0:0|3:0,0:0:0:0:
227,73,175601,2,0,L|236:29,2,41.0666654134115,6|4|0,3:0|3:0|0:0,0:0:0:0:
133,156,175942,5,6,1:2:0:0:
133,156,176453,2,0,P|105:92|123:35,1,123.199996240234,10|10,0:0|0:0,0:0:0:0:
194,211,177135,1,6,0:0:0:0:
194,211,177306,6,0,P|132:198|65:225,1,123.199996240234,6|2,1:2|1:2,0:0:0:0:
59,307,177817,1,8,0:0:0:0:
59,307,177987,2,0,P|21:312|-11:301,2,61.5999981201172,10|0|10,0:0|1:2|0:0,0:0:0:0:
194,211,178669,5,6,1:2:0:0:
290,347,179181,1,0,1:0:0:0:
370,196,179522,1,8,0:0:0:0:
370,196,179692,1,10,0:0:0:0:
201,217,180033,6,0,P|111:119|235:106,1,307.999990600586,6|0,1:2|0:0,0:0:0:0:
181,152,181056,1,8,0:0:0:0:
181,152,181226,1,8,0:0:0:0:
286,209,181397,6,0,P|303:169|301:117,1,74.8000014266968,6|0,1:2|0:0,0:0:0:0:
243,27,181737,2,0,P|225:80|237:120,1,74.8000014266968,8|8,0:0|0:0,0:0:0:0:
364,78,182078,2,0,P|407:70|466:86,1,74.8000014266968,8|8,0:0|0:0,0:0:0:0:
359,207,182419,2,0,P|313:215|268:197,1,74.8000014266968,8|8,0:0|0:0,0:0:0:0:
227,97,182760,1,14,0:0:0:0:
321,139,182931,1,0,1:2:0:0:
209,200,183101,6,0,L|42:218,1,149.600002853394,6|2,1:2|1:2,0:0:0:0:
162,301,183612,1,10,0:0:0:0:
162,301,183698,1,10,0:0:0:0:
162,301,183783,2,0,L|254:291,1,74.8000014266968,2|10,1:2|0:0,0:0:0:0:
273,292,184039,1,10,0:0:0:0:
273,292,184124,6,0,B|291:251|291:251|279:184,1,83.5999977676392,6|0,1:2|0:0,0:0:0:0:
371,335,184465,1,10,0:0:0:0:
371,335,184635,2,0,L|481:331,1,83.5999977676392,2|0,1:2|0:0,0:0:0:0:
469,223,184976,1,2,1:2:0:0:
369,178,185147,2,0,P|356:221|367:264,1,83.5999977676392,10|0,0:0|0:0,0:0:0:0:
409,82,185487,6,0,B|324:52|323:122|245:75,1,167.199995535278,2|8,1:2|0:0,0:0:0:0:
158,119,185999,1,2,1:2:0:0:
158,119,186169,2,0,P|148:81|174:11,1,83.5999977676392,2|0,0:0|1:2,0:0:0:0:
231,192,186510,2,0,P|190:216|139:215,1,83.5999977676392,10|2,0:0|0:0,0:0:0:0:
58,143,186851,6,0,P|34:229|79:321,1,167.199995535278,2|10,1:2|0:0,0:0:0:0:
162,336,187362,1,2,1:2:0:0:
162,336,187533,2,0,L|257:326,1,83.5999977676392,0|2,0:0|1:2,0:0:0:0:
309,239,187874,2,0,P|372:215|432:236,1,125.399996651459,10|0,0:0|0:0,0:0:0:0:
448,255,188215,6,0,L|465:364,2,83.5999977676392,2|0|10,1:2|0:0|0:0,0:0:0:0:
486,152,188726,1,2,1:2:0:0:
378,170,188897,2,0,L|284:179,1,83.5999977676392,2|0,0:0|1:2,0:0:0:0:
193,115,189237,2,0,L|183:218,1,83.5999977676392,10|2,0:0|1:2,0:0:0:0:
184,226,189493,1,0,0:0:0:0:
184,226,189578,6,0,P|134:220|83:240,1,83.5999977676392,6|0,1:2|0:0,0:0:0:0:
221,375,189919,2,0,P|237:339|238:296,1,83.5999977676392,10|0,0:0|0:0,0:0:0:0:
51,305,190260,2,0,P|56:349|87:389,1,83.5999977676392,2|0,0:0|1:2,0:0:0:0:
184,226,190601,1,10,0:0:0:0:
184,226,190772,1,0,0:0:0:0:
221,375,190942,6,0,L|322:369,1,83.5999977676392,2|0,1:2|1:2,0:0:0:0:
381,260,191283,2,0,L|275:264,1,83.5999977676392,10|0,0:0|0:0,0:0:0:0:
478,308,191624,2,0,P|492:262|466:201,1,83.5999977676392,2|0,0:0|1:2,0:0:0:0:
392,170,191965,2,0,P|376:105|404:47,1,125.399996651459,10|2,0:0|0:0,0:0:0:0:
419,36,192306,6,0,B|349:57|349:57|305:17|228:50,1,167.199995535278,2|8,1:2|0:0,0:0:0:0:
280,146,192817,1,2,1:2:0:0:
280,146,192987,2,0,P|226:154|177:132,1,83.5999977676392,2|0,0:0|1:2,0:0:0:0:
100,99,193328,2,0,P|58:118|40:231,1,167.199995535278,8|6,0:0|1:2,0:0:0:0:
146,242,193840,5,0,1:2:0:0:
146,242,194010,1,10,0:0:0:0:
62,312,194181,1,2,0:0:0:0:
160,356,194351,2,0,L|269:341,1,83.5999977676392,2|0,1:2|1:2,0:0:0:0:
310,225,194692,2,0,L|208:238,1,83.5999977676392,8|10,0:0|0:0,0:0:0:0:
198,242,194948,1,10,0:0:0:0:
198,242,195033,6,0,P|178:193|185:152,1,83.5999977676392,6|0,1:2|0:0,0:0:0:0:
230,66,195374,1,10,0:0:0:0:
314,133,195544,2,0,L|422:133,1,83.5999977676392,2|0,1:2|0:0,0:0:0:0:
498,85,195885,1,2,1:2:0:0:
498,85,196056,2,0,L|504:186,1,83.5999977676392,10|0,0:0|0:0,0:0:0:0:
401,281,196397,6,0,P|365:208|402:137,1,167.199995535278,2|10,1:2|0:0,0:0:0:0:
461,208,196908,1,0,1:2:0:0:
401,281,197078,2,0,L|295:284,2,83.5999977676392,2|2|10,0:0|1:2|0:0,0:0:0:0:
217,282,197590,1,10,0:0:0:0:
217,282,197675,1,10,0:0:0:0:
217,282,197760,6,0,P|202:234|217:175,1,92.3999971801759,6|0,1:2|0:0,0:0:0:0:
317,283,198101,1,10,0:0:0:0:
253,375,198272,2,0,P|185:374|118:280,1,184.799994360352,2|2,1:2|1:2,0:0:0:0:
208,193,198783,2,0,B|209:133|209:133|189:98|189:98|189:27,1,138.599995770264,10|0,0:0|0:0,0:0:0:0:
191,26,199124,6,0,P|235:14|282:27,2,83.5999977676392,2|0|10,1:2|0:0|0:0,0:0:0:0:
292,120,199635,1,0,0:0:0:0:
292,120,199806,2,0,P|346:126|388:109,1,83.5999977676392,2|0,1:2|1:2,0:0:0:0:
476,151,200147,2,0,L|473:244,1,83.5999977676392,10|2,0:0|1:2,0:0:0:0:
472,263,200402,1,2,0:0:0:0:
472,263,200487,6,0,B|431:300|369:276|369:276|359:278|359:278|353:267|353:267|322:216|263:219|214:224|175:308|209:378|292:389|325:362,1,462.000017623902,6|2,1:2|1:2,0:0:0:0:
291,302,201851,1,0,1:0:0:0:
446,219,202874,1,8,0:0:0:0:
446,219,203044,6,0,L|506:217,2,39.5999987915039,8|8|6,0:0|0:0|1:2,0:0:0:0:
377,153,203385,2,0,L|264:155,1,79.1999975830079,0|10,0:0|0:0,0:0:0:0:
202,158,203726,2,0,P|165:85|186:9,1,158.399995166016,2|2,1:2|1:2,0:0:0:0:
317,10,204237,2,0,P|333:90|293:158,1,158.399995166016,10|2,0:0|1:2,0:0:0:0:
249,237,204749,5,0,0:0:0:0:
332,281,204919,2,0,L|419:276,1,79.1999975830079,2|0,1:2|0:0,0:0:0:0:
337,373,205260,2,0,L|239:377,1,79.1999975830079,2|10,1:2|0:0,0:0:0:0:
224,384,205516,1,10,0:0:0:0:
224,384,205601,2,0,P|230:331|209:272,1,79.1999975830079,2|10,1:2|0:0,0:0:0:0:
193,309,205857,1,10,0:0:0:0:
193,309,205942,6,0,L|71:313,1,118.799996374512,6|0,1:2|0:0,0:0:0:0:
42,311,206283,2,0,P|26:270|39:213,1,79.1999975830079,10|2,0:0|0:0,0:0:0:0:
75,152,206624,1,2,1:2:0:0:
152,207,206794,2,0,L|250:201,1,79.1999975830079,0|10,1:2|0:0,0:0:0:0:
141,81,207135,6,0,P|75:54|-4:95,1,158.399995166016,2|2,0:0|0:0,0:0:0:0:
75,152,207647,1,8,0:0:0:0:
152,207,207817,2,0,L|156:312,1,79.1999975830079,2|0,1:2|0:0,0:0:0:0:
109,369,208158,1,2,1:2:0:0:
203,362,208328,2,0,L|329:353,1,118.799996374512,10|0,0:0|0:0,0:0:0:0:
353,349,208669,6,0,P|358:304|338:256,1,79.1999975830079,6|0,1:2|0:0,0:0:0:0:
258,240,209010,2,0,L|254:148,1,79.1999975830079,10|2,0:0|0:0,0:0:0:0:
260,69,209351,1,2,0:0:0:0:
260,69,209522,1,0,1:2:0:0:
350,102,209692,2,0,L|463:101,1,79.1999975830079,10|2,0:0|0:0,0:0:0:0:
412,204,210033,6,0,L|296:204,2,79.1999975830079,2|2|10,1:2|1:2|0:0,0:0:0:0:
510,170,210544,2,0,P|534:103|494:21,1,158.399995166016,2|2,1:2|1:2,0:0:0:0:
403,30,211056,2,0,P|361:38|303:20,1,79.1999975830079,10|10,0:0|0:0,0:0:0:0:
294,33,211311,1,10,0:0:0:0:
294,33,211397,6,0,L|295:131,1,79.1999975830079,6|0,1:2|0:0,0:0:0:0:
204,151,211737,2,0,L|203:67,1,79.1999975830079,10|0,0:0|0:0,0:0:0:0:
109,120,212078,1,2,1:2:0:0:
71,206,212249,2,0,P|111:217|165:198,1,79.1999975830079,0|10,0:0|0:0,0:0:0:0:
244,188,212590,6,0,B|276:182|303:194|303:194|285:242|319:306,1,158.399995166016,0|0,0:0|0:0,0:0:0:0:
366,370,213101,2,0,L|470:370,1,79.1999975830079,10|0,0:0|0:0,0:0:0:0:
505,293,213442,1,2,1:2:0:0:
420,250,213612,2,0,L|419:210,2,39.5999987915039,8|8|2,0:0|0:0|1:2,0:0:0:0:
483,146,213953,1,8,0:0:0:0:
483,146,214039,1,8,0:0:0:0:
483,146,214124,6,0,P|492:101|475:63,1,79.1999975830079,6|0,1:2|1:2,0:0:0:0:
394,22,214465,1,10,0:0:0:0:
347,104,214635,2,0,L|186:103,1,158.399995166016,6|8,1:2|0:0,0:0:0:0:
108,101,215147,2,0,L|96:181,1,79.1999975830079,8|4,0:0|0:0,0:0:0:0:
128,251,215487,6,0,P|162:286|169:183,1,237.599992749024,6|0,1:2|1:2,0:0:0:0:
298,172,216169,1,10,0:0:0:0:
298,172,216340,2,0,L|382:176,2,79.1999975830079,8|2|8,0:0|1:2|0:0,0:0:0:0:
258,73,216851,6,0,L|350:75,1,88,14|0,0:0|0:0,0:0:0:0:
298,172,217192,1,2,1:2:0:0:
157,101,217362,2,0,P|149:54|177:5,1,88,10|0,0:0|0:0,0:0:0:0:
258,73,217703,1,2,1:2:0:0:
189,201,217874,2,0,L|100:197,1,88,10|0,0:0|0:0,0:0:0:0:
55,305,218215,6,0,L|152:309,2,88,2|10|0,1:2|0:0|0:0,0:0:0:0:
248,318,218726,1,2,1:2:0:0:
248,318,218811,1,2,0:0:0:0:
248,318,218897,2,0,P|266:275|256:217,1,88,10|10,0:0|0:0,0:0:0:0:
138,70,219237,2,0,L|95:216,1,132,6|0,1:2|0:0,0:0:0:0:
88,229,219578,1,2,0:0:0:0:
189,116,220772,5,2,1:2:0:0:
189,116,220942,2,0,L|302:110,2,88,8|2|4,0:0|1:2|0:0,0:0:0:0:
108,51,221453,1,2,0:0:0:0:
88,161,221624,1,2,0:0:0:0:
111,33,221794,1,8,0:0:0:0:
196,196,222135,5,6,1:2:0:0:
256,192,222306,12,2,225033,0:0:0:0:
