osu file format v6

[General]
AudioFilename: GCH01-gym_class_heroes-1st_period-the_queen_and_i.mp3
AudioLeadIn: 0
PreviewTime: 44660
Countdown: 2
SampleSet: Normal
StackLeniency: 0.7
Mode: 0
LetterboxInBreaks: 1

[Editor]
Bookmarks: 8097,33410,45410,69035,72410,96410,108410,132035
DistanceSpacing: 0.699999988079071
BeatDivisor: 4
GridSize: 16

[Metadata]
Title:The Queen And I
Artist:Gym Class Heroes
Creator:roxkyuubiforever
Version:Normal
Source:As Cruel as School Children
Tags:Hip Hop Travis McCoy Disashi Lumumba-Kasongo Eric Roberts Matt McGinley

[Difficulty]
HPDrainRate:2
CircleSize:4
OverallDifficulty:4
SliderMultiplier:1.4
SliderTickRate:1

[Events]
//Background and Video events
0,0,"playfield.jpg"
//Break Periods
2,33624,44104
2,69249,71104
2,96624,107104
//Storyboard Layer 0 (Background)
//Storyboard Layer 1 (Fail)
//Storyboard Layer 2 (Pass)
//Storyboard Layer 3 (Foreground)
//Storyboard Sound Samples
//Background Colour Transformations
3,100,0,0,0

[TimingPoints]
6425,375,4,1,0,50,1,0
45425,-100,4,1,0,50,0,1
69050,-100,4,1,0,50,0,0
108425,-100,4,1,0,50,0,1
132050,-100,4,1,0,50,0,0
132425,-100,4,1,0,50,0,1
132612,-100,4,1,0,50,0,0

[Colours]
Combo1 : 255,28,141
Combo2 : 253,82,0
Combo3 : 255,255,0
Combo4 : 189,4,4

[HitObjects]
256,48,8111,1,0
208,48,8299,1,0
112,48,8674,1,0
48,112,9049,1,0
112,192,9424,5,4
48,272,9799,1,8
80,304,9986,1,0
112,336,10174,1,0
208,336,10549,1,8
240,304,10736,1,0
336,304,11111,5,0
368,272,11299,2,0,B|448:272|448:176,2,140,8|0|8
368,176,12424,1,0
272,176,12799,1,8
272,80,13174,1,0
176,80,13549,1,8
80,192,14111,5,0
80,240,14299,1,8
144,304,14674,2,0,B|288:304,1,140,0|8
336,224,15424,1,0
400,304,15799,1,8
464,224,16174,1,0
464,176,16361,1,0
464,128,16549,1,8
336,48,17111,5,0
304,80,17299,2,0,B|160:80,1,140,8|0
80,144,18049,1,8
160,208,18424,1,0
80,272,18799,1,8
160,336,19174,5,4
240,336,19455,1,4
320,336,19736,1,4
448,272,20299,5,8
448,176,20674,2,0,B|480:144,2,35
400,176,21049,1,8
336,112,21424,2,0,B|192:112,1,140,0|8
96,112,22174,6,0,B|96:256,1,140,0|8
160,320,22924,2,0,B|272:208,1,140,0|8
336,288,23674,1,0
336,288,23861,1,0
336,288,24049,1,8
432,288,24424,6,0,B|432:128,1,140,0|8
368,64,25174,1,0
304,144,25549,1,8
240,64,25924,2,0,B|96:64,1,140,0|8
32,144,26674,1,0
32,192,26861,1,0
32,240,27049,1,8
112,288,27424,5,0
208,288,27799,1,8
192,192,28174,1,0
288,192,28549,1,8
256,96,28924,1,0
352,96,29299,1,8
448,96,29674,1,0
416,192,30049,1,8
448,288,30424,6,0,B|288:288,1,140,0|8
224,352,31174,1,0
176,352,31361,1,0
128,352,31549,1,0
256,144,32486,5,0
256,144,32674,1,0
304,64,33049,1,0
208,64,33424,1,4
256,208,45424,12,14,46549
400,304,47111,5,0
400,304,47299,1,8
480,240,47674,1,0
480,144,48049,1,8
400,80,48424,6,0,B|336:40|264:80,1,140,0|8
232,112,48986,2,0,B|192:176|232:248,1,140
280,240,49549,1,14
112,304,50111,5,0
112,304,50299,1,14
32,240,50674,1,0
32,144,51049,1,8
112,80,51424,6,0,B|176:40|248:80,1,140,0|8
280,112,51986,2,0,B|320:176|280:248,1,140
232,240,52549,1,14
112,336,53111,5,0
160,336,53299,1,8
208,336,53486,1,0
256,336,53674,1,0
320,272,54049,1,8
384,336,54424,1,0
448,272,54799,5,8
448,224,54986,1,0
368,176,55361,1,0
368,128,55549,1,14
256,288,56299,5,14
256,192,56674,5,14
256,96,57049,5,14
256,208,57424,12,14,58549
112,304,59111,5,0
112,304,59299,1,8
32,240,59674,1,0
32,144,60049,1,8
112,80,60424,6,0,B|176:40|248:80,1,140,0|8
280,112,60986,2,0,B|320:176|280:248,1,140
232,240,61549,1,14
400,304,62111,5,0
400,304,62299,1,14
480,240,62674,1,0
480,144,63049,1,8
400,80,63424,6,0,B|336:40|264:80,1,140,0|8
232,112,63986,2,0,B|192:176|232:248,1,140
280,240,64549,1,14
400,336,65111,5,0
352,336,65299,1,8
304,336,65486,1,0
256,336,65674,1,0
192,272,66049,1,8
128,336,66424,1,0
64,272,66799,5,8
64,224,66986,1,0
144,176,67361,1,0
144,128,67549,1,14
256,288,68299,5,14
256,192,68674,5,14
256,96,69049,5,14
256,48,72424,5,0
208,128,72799,1,8
160,48,73174,1,0
112,128,73549,2,0,B|48:224|112:336,1,210,8|0
152,328,74299,5,8
216,248,74674,1,0
280,328,75049,1,8
344,248,75424,1,0
408,328,75799,1,8
472,248,76174,1,0
472,152,76549,1,8
424,152,76736,1,0
304,32,77299,5,8
208,64,77674,1,0
208,160,78049,1,8
304,192,78424,1,0
304,288,78799,1,8
208,336,79174,1,0
160,336,79361,1,0
112,336,79549,1,8
32,192,80299,6,0,B|32:48,1,140,8|0
128,48,81049,1,8
192,128,81424,1,0
256,48,81799,1,8
320,128,82174,1,0
352,160,82361,1,0
384,128,82549,1,8
416,160,82736,1,0
416,304,83299,1,8
336,352,83674,5,0
256,304,84049,1,8
176,352,84424,1,4
96,304,84799,1,8
144,224,85174,1,0
112,128,85549,1,8
192,80,85924,2,0,B|336:32|464:128|432:304|336:336,1,420,0|8
272,320,87424,5,0
176,320,87799,1,8
176,224,88174,1,0
80,224,88549,1,8
80,128,88924,2,0,B|208:32|352:224|480:80,1,420,0|8
384,48,90424,5,0
320,128,90799,1,8
384,208,91174,1,0
320,288,91549,1,8
224,288,91924,2,0,B|37:288|36:32|232:32,1,420,0|8
320,32,93424,6,0,B|464:32,1,140,0|8
464,128,94174,2,0,B|464:208,2,70
256,256,95486,5,0
256,256,95674,1,0
304,336,96049,1,0
208,336,96424,1,4
256,208,108424,12,14,109549
256,32,110111,5,0
224,64,110299,1,8
128,64,110674,1,0
128,160,111049,1,8
32,176,111424,6,0,B|32:272|128:272,1,140,0|8
144,304,111986,2,0,B|240:304|240:208,1,140
208,192,112549,1,14
256,32,113111,5,0
288,64,113299,1,14
384,64,113674,1,0
384,160,114049,1,8
480,176,114424,6,0,B|480:272|384:272,1,140,0|8
368,304,114986,2,0,B|272:304|272:208,1,140
304,192,115549,1,14
256,32,116111,5,0
256,32,116299,1,8
256,128,116674,1,0
256,224,117049,1,8
320,288,117424,2,0,B|320:384|192:384|192:288,2,210,0|0|14
328,96,119299,5,14
256,32,119674,5,14
184,96,120049,5,14
256,208,120424,12,14,121549
256,32,122111,5,0
288,64,122299,1,8
384,64,122674,1,0
384,160,123049,1,8
480,176,123424,6,0,B|480:272|384:272,1,140,0|8
368,304,123986,2,0,B|272:304|272:208,1,140
304,192,124549,1,14
256,32,125111,5,0
224,64,125299,1,14
128,64,125674,1,0
128,160,126049,1,8
32,176,126424,6,0,B|32:272|128:272,1,140,0|8
144,304,126986,2,0,B|240:304|240:208,1,140
208,192,127549,1,14
256,32,128111,5,0
256,32,128299,1,8
256,128,128674,1,0
256,224,129049,1,8
192,288,129424,2,0,B|192:384|320:384|320:288,2,210,0|0|14
184,96,131299,5,14
256,32,131674,5,14
328,96,132049,5,14
256,160,132424,5,4
