osu file format v6

[General]
AudioFilename: GCH01-gym_class_heroes-1st_period-the_queen_and_i.mp3
AudioLeadIn: 0
PreviewTime: 44660
Countdown: 2
SampleSet: Normal
StackLeniency: 0.7
Mode: 0
LetterboxInBreaks: 1

[Editor]
Bookmarks: 8107,33420,45420,69045,72420,96420,108420,132045,144420,156420,168420,192420
DistanceSpacing: 1
BeatDivisor: 4
GridSize: 16

[Metadata]
Title:The Queen And I
Artist:Gym Class Heroes
Creator:roxkyuubiforever
Version:Hard
Source:As Cruel as School Children
Tags:Hip Hop Travis McCoy Disashi Lumumba-Kasongo Eric Roberts Matt McGinley

[Difficulty]
HPDrainRate:5
CircleSize:4
OverallDifficulty:7
SliderMultiplier:1.7
SliderTickRate:1

[Events]
//Background and Video events
0,0,"playfield.jpg"
//Break Periods
2,33625,44525
2,69250,71525
2,96625,107525
2,132250,143525
2,156625,167525
//Storyboard Layer 0 (Background)
//Storyboard Layer 1 (Fail)
//Storyboard Layer 2 (Pass)
//Storyboard Layer 3 (Foreground)
//Storyboard Sound Samples
//Background Colour Transformations
3,100,0,0,0

[TimingPoints]
6425,375,4,1,0,50,1,0
45425,-100,4,1,0,50,0,1
69050,-100,4,1,0,50,0,0
108425,-100,4,1,0,50,0,1
132050,-100,4,1,0,50,0,0
168425,-100,4,1,0,50,0,1
191956,-100,4,1,0,50,0,0
192050,-100,4,1,0,50,0,1
192237,-100,4,2,0,50,0,0

[Colours]
Combo1 : 255,28,141
Combo2 : 253,82,0
Combo3 : 255,255,0
Combo4 : 189,4,4

[HitObjects]
256,64,8112,1,0
192,112,8300,1,0
112,80,8487,2,0,B|112:128|64:128|80:176,1,85
128,224,8862,1,0
80,288,9050,2,0,B|144:352|240:320,1,170,0|4
400,320,9800,5,8
448,256,9987,1,0
464,176,10175,2,0,B|448:80|336:48,1,170,0|8
272,64,10737,1,0
96,112,11112,5,0
48,176,11300,2,0,B|80:240|160:144|224:208,1,170,8|0
192,272,11862,1,0
272,272,12050,1,8
304,192,12237,1,0
256,112,12425,6,0,B|256:64|320:48,1,85
384,32,12800,1,8
448,80,12987,1,0
480,160,13175,2,0,B|480:256|368:288,1,170,0|8
128,336,14112,5,0
48,320,14300,1,8
48,240,14487,2,0,B|144:224,1,85
160,144,14862,2,0,B|256:128,2,85,0|8|0
160,64,15425,5,0
240,32,15612,1,0
320,32,15800,1,8
400,64,15987,1,0
464,128,16175,1,0
480,208,16362,1,0
464,288,16550,1,8
256,144,17112,5,0
176,112,17300,1,8
176,192,17487,2,0,B|160:224|200:256|160:288,2,85
96,160,18050,2,0,B|48:240,1,85,8|0
64,320,18425,2,0,B|144:368,1,85
224,368,18800,1,8
272,304,18987,1,0
320,368,19175,2,0,B|400:368|432:288,2,127.5,4|0|4
256,80,20300,5,8
320,32,20487,1,0
400,48,20675,1,0
408,56,20768,1,0
416,64,20862,1,0
424,72,20956,1,0
432,80,21050,1,8
400,160,21237,1,0
464,208,21425,2,0,B|464:304|336:320,1,170,0|8
272,288,21987,5,0
240,208,22175,1,0
224,208,22268,1,0
208,208,22362,1,0
128,256,22550,1,8
64,208,22737,6,0,B|48:176|96:160|48:112,1,85,0|0
256,32,23112,2,0,B|240:64|288:80|240:128,1,85,0|8
448,208,23487,2,0,B|464:176|416:160|464:112,1,85
451,126,23862,1,0
451,126,24050,1,8
256,32,24425,5,0
272,32,24518,1,0
288,32,24612,1,0
336,96,24800,1,8
416,80,24987,1,0
464,144,25175,2,0,B|464:256,1,85
416,304,25550,2,0,B|320:272,1,85,8|0
288,208,25925,5,0
224,256,26112,1,0
176,192,26300,1,8
208,112,26487,2,0,B|128:48|48:128,1,170
24,200,27050,1,8
88,256,27237,1,0
128,336,27425,6,0,B|32:336,2,85,0|0|8
176,272,27987,2,0,B|192:176,2,85
224,336,28550,2,0,B|320:336,1,85,8|0
384,304,28925,5,0
432,240,29112,1,0
416,160,29300,1,8
368,96,29487,2,0,B|272:96,1,85
224,32,29862,2,0,B|128:32,1,85,0|8
64,80,30237,5,0
32,160,30425,1,0
112,160,30612,1,0
96,240,30800,1,8
176,240,30987,1,0
160,320,31175,2,0,B|272:320,2,85,0|0|0
256,48,32487,5,0
256,48,32675,1,0
448,336,33050,1,0
64,336,33425,1,4
256,208,45425,12,14,46550
256,48,47112,5,0
336,64,47300,1,8
400,112,47487,1,0
432,192,47675,1,0
400,272,47862,1,0
336,320,48050,1,8
256,336,48237,1,0
176,336,48425,6,0,B|208:272|80:256|160:160,1,170,0|8
128,96,48987,2,0,B|192:64|208:192|304:112,1,170
256,48,49550,1,14
256,48,50112,5,0
176,64,50300,1,14
112,112,50487,1,0
80,192,50675,2,0,B|71:244|112:288,1,85
160,328,51050,2,0,B|200:352|248:344,1,85,8|0
336,336,51425,6,0,B|304:272|432:256|352:160,1,170,0|8
384,96,51987,2,0,B|320:64|304:192|208:112,1,170
256,48,52550,1,14
48,192,53112,5,0
128,192,53300,1,8
208,192,53487,1,0
288,192,53675,2,0,B|336:160|416:240|472:160,2,170,0|8|0
192,48,54800,5,8
112,48,54987,1,0
320,336,55362,1,0
400,336,55550,1,14
256,48,56300,5,14
256,336,56675,5,14
256,48,57050,5,14
256,208,57425,12,14,58550
256,48,59112,5,0
176,64,59300,1,8
112,112,59487,1,0
80,192,59675,1,0
112,272,59862,1,0
176,320,60050,1,8
256,336,60237,1,0
336,336,60425,6,0,B|304:272|432:256|352:160,1,170,0|8
384,96,60987,2,0,B|320:64|304:192|208:112,1,170
256,48,61550,1,14
256,48,62112,5,0
336,64,62300,1,14
400,112,62487,1,0
432,192,62675,2,0,B|441:244|400:288,1,85
352,328,63050,2,0,B|312:352|264:344,1,85,8|0
176,336,63425,6,0,B|208:272|80:256|160:160,1,170,0|8
128,96,63987,2,0,B|192:64|208:192|304:112,1,170
256,48,64550,1,14
464,192,65112,5,0
384,192,65300,1,8
304,192,65487,1,0
224,192,65675,2,0,B|176:160|96:240|40:160,2,170,0|8|0
320,48,66800,5,8
400,48,66987,1,0
192,336,67362,1,0
112,336,67550,1,14
256,48,68300,5,14
256,336,68675,5,14
256,48,69050,5,14
256,48,72425,6,0,B|208:32|144:48,1,85,0|0
208,112,72800,2,0,B|160:112|128:144,1,85,8|0
192,192,73175,2,0,B|160:224|112:224,1,85,0|0
48,272,73550,2,0,B|128:368|288:320,1,255,8|0
352,288,74300,5,8
384,208,74487,1,0
368,128,74675,1,0
320,64,74862,1,0
240,48,75050,1,8
160,64,75237,1,0
96,128,75425,5,0
64,240,75612,1,0
144,336,75800,1,8
256,352,75987,1,0
376,320,76175,2,0,B|456:256|424:160,1,170,0|8
426,169,76737,1,0
256,176,77112,6,0,B|256:272,2,85,0|8|0
304,112,77675,2,0,B|352:128|368:176,1,85
208,112,78050,2,0,B|160:128|144:176,1,85,8|0
144,256,78425,5,0
176,336,78612,1,0
256,352,78800,1,8
336,336,78987,1,0
368,256,79175,2,0,B|384:208|352:160,1,85
344,176,79456,1,0
328,176,79550,1,8
80,48,80112,5,0
48,128,80300,2,0,B|80:144|80:176|112:192,1,85,8|0
160,128,80675,2,0,B|192:112|192:80|224:64,1,85
256,144,81050,2,0,B|288:128|320:160|352:128,1,85,8|0
368,64,81425,5,0
448,96,81612,1,0
464,176,81800,1,8
400,240,81987,1,0
312,224,82175,1,0
224,248,82362,1,0
208,328,82550,1,8
288,360,82737,1,0
48,272,83300,1,8
32,192,83487,5,0
64,112,83675,1,0
144,144,83862,2,0,B|144:112|192:96|192:64,2,85,0|8|0
128,224,84425,2,0,B|208:288|288:240,1,170,0|8
224,176,84987,6,0,B|192:272|256:352,1,170
336,352,85550,1,8
416,320,85737,1,0
464,240,85925,1,0
464,160,86112,1,0
432,80,86300,5,8
368,32,86487,1,0
288,16,86675,1,0
208,16,86862,1,0
128,32,87050,1,8
64,80,87237,1,0
32,160,87425,5,0
32,240,87612,2,0,B|64:256|96:240|128:256,1,85,0|8
128,336,87987,1,0
192,288,88175,1,0
256,336,88362,1,0
288,256,88550,1,8
352,304,88737,1,0
368,224,88925,5,0
448,208,89112,1,0
384,144,89300,1,8
448,96,89487,1,0
368,64,89675,1,0
304,112,89862,1,0
288,32,90050,1,8
224,80,90237,1,0
144,48,90425,6,0,B|96:128,1,85
48,192,90800,2,0,B|144:256,1,85,8|0
160,320,91175,2,0,B|256:304,1,85
224,224,91550,2,0,B|272:128,1,85,8|0
320,80,91925,5,0
400,80,92112,1,0
448,144,92300,1,8
384,192,92487,1,0
432,256,92675,1,0
368,320,92862,1,0
304,272,93050,1,8
240,336,93237,1,0
208,256,93425,5,0
128,288,93612,1,0
48,240,93800,1,8
112,176,93987,1,0
48,112,94175,2,0,B|96:32|208:32,1,170
256,352,95487,5,0
256,352,95675,1,0
464,48,96050,1,0
48,48,96425,1,4
256,208,108425,12,14,109550
448,192,110112,5,0
384,144,110300,1,8
320,96,110487,1,0
256,48,110675,1,0
192,96,110862,1,0
128,144,111050,1,8
64,192,111237,1,0
64,272,111425,6,0,B|144:272|144:336|224:336,1,170,0|8
208,256,111987,2,0,B|288:256|288:320|368:320,1,170
352,240,112550,1,14
64,192,113112,5,0
128,144,113300,1,14
192,96,113487,1,0
256,48,113675,2,0,B|336:112,1,85
384,144,114050,2,0,B|464:208,1,85,8|0
448,272,114425,6,0,B|368:272|368:336|288:336,1,170,0|8
304,256,114987,2,0,B|224:256|224:320|144:320,1,170
160,240,115550,1,14
256,96,116112,5,0
304,16,116300,1,8
208,16,116487,1,0
256,96,116675,2,0,B|224:144|288:208|256:272,2,170,0|8|0
416,128,117800,5,8
416,48,117987,1,0
96,256,118362,1,0
96,336,118550,1,14
432,192,119300,5,14
80,192,119675,5,14
432,192,120050,5,14
256,208,120425,12,14,121550
64,192,122112,5,0
128,144,122300,1,8
192,96,122487,1,0
256,48,122675,1,0
320,96,122862,1,0
384,144,123050,1,8
448,192,123237,1,0
448,272,123425,6,0,B|368:272|368:336|288:336,1,170,0|8
304,256,123987,2,0,B|224:256|224:320|144:320,1,170
160,240,124550,1,14
448,192,125112,5,0
384,144,125300,1,14
320,96,125487,1,0
256,48,125675,2,0,B|176:112,1,85
128,144,126050,2,0,B|48:208,1,85,8|0
64,272,126425,6,0,B|144:272|144:336|224:336,1,170,0|8
208,256,126987,2,0,B|288:256|288:320|368:320,1,170
352,240,127550,1,14
256,96,128112,5,0
208,16,128300,1,8
304,16,128487,1,0
256,96,128675,2,0,B|288:144|224:208|256:272,2,170,0|8|0
96,128,129800,5,8
96,48,129987,1,0
416,256,130362,1,0
416,336,130550,1,14
80,192,131300,5,14
432,192,131675,5,14
80,192,132050,5,14
256,48,144425,6,2,B|208:96|128:32|96:96,1,170
160,144,144987,2,0,B|112:192|208:256|144:304,1,170
208,352,145550,2,2,B|240:304|352:352|368:288,1,170
304,240,146112,2,0,B|336:176|400:192|416:112,1,170
368,48,146675,5,4
64,48,147050,5,4
64,336,147425,6,2,B|144:336|112:224|192:224,1,170
144,144,147987,2,0,B|192:80|272:160|304:96,1,170
368,48,148550,2,2,B|432:80|384:160|448:208,1,170
480,272,149112,2,0,B|432:336|352:240|304:304,1,170
256,336,149675,5,4
256,48,150050,5,4
48,192,150425,6,2,B|112:240|176:160|224:208,1,170
176,272,150987,2,0,B|224:304|304:224|352:256,1,170
336,336,151550,2,2,B|464:352|464:240,1,170
384,224,152112,2,0,B|352:176|432:112|384:48,1,170
304,48,152675,5,4
64,192,153050,5,4
304,336,153425,6,2,B|464:336|464:176,2,255,2|2|4
256,208,154925,12,0,156425
256,208,168425,12,10,169550
256,336,170112,5,0
336,320,170300,1,8
400,272,170487,1,0
432,192,170675,1,0
400,112,170862,1,0
336,64,171050,1,8
256,48,171237,1,0
176,48,171425,6,0,B|208:112|80:128|160:224,1,170,0|8
128,288,171987,2,0,B|192:320|208:192|304:272,1,170
256,336,172550,1,14
256,336,173112,5,0
176,320,173300,1,14
112,272,173487,1,0
80,192,173675,2,0,B|71:140|112:96,1,85
160,56,174050,2,0,B|200:32|248:40,1,85,8|0
336,48,174425,6,0,B|304:112|432:128|352:224,1,170,0|8
384,288,174987,2,0,B|320:320|304:192|208:272,1,170
256,336,175550,1,14
48,192,176112,5,0
128,192,176300,1,8
208,192,176487,1,0
288,192,176675,2,0,B|336:224|416:144|472:224,2,170,0|8|0
192,336,177800,5,8
112,336,177987,1,0
320,48,178362,1,0
400,48,178550,1,14
256,336,179300,5,14
256,48,179675,5,14
256,336,180050,5,14
256,208,180425,12,14,181550
64,192,182112,5,0
128,240,182300,1,8
192,288,182487,1,0
256,336,182675,1,0
320,288,182862,1,0
384,240,183050,1,8
448,192,183237,1,0
448,112,183425,6,0,B|368:112|368:48|288:48,1,170,0|8
304,128,183987,2,0,B|224:128|224:64|144:64,1,170
160,144,184550,1,14
448,192,185112,5,0
384,240,185300,1,14
320,288,185487,1,0
256,336,185675,2,0,B|176:272,1,85
128,240,186050,2,0,B|48:176,1,85,8|0
64,112,186425,6,0,B|144:112|144:48|224:48,1,170,0|8
208,128,186987,2,0,B|288:128|288:64|368:64,1,170
352,144,187550,1,14
256,288,188112,5,0
208,368,188300,1,8
304,368,188487,1,0
256,288,188675,2,0,B|288:240|224:176|256:112,2,170,0|8|0
96,256,189800,5,8
96,336,189987,1,0
416,128,190362,1,0
416,48,190550,1,14
80,192,191300,5,14
432,192,191675,5,14
80,192,192050,5,14
256,352,192425,5,2
