osu file format v6

[General]
AudioFilename: GCH01-gym_class_heroes-1st_period-the_queen_and_i.mp3
AudioLeadIn: 0
PreviewTime: 44660
Countdown: 2
SampleSet: Normal
StackLeniency: 0.7
Mode: 0
LetterboxInBreaks: 1

[Editor]
Bookmarks: 8097,33410,45410,69035,72410,96410,108410,132035
DistanceSpacing: 1
BeatDivisor: 4
GridSize: 16

[Metadata]
Title:The Queen And I
Artist:Gym Class Heroes
Creator:roxkyuubiforever
Version:Easy
Source:As Cruel as School Children
Tags:Hip Hop Travis McCoy Disashi Lumumba-Kasongo Eric Roberts Matt McGinley

[Difficulty]
HPDrainRate:1
CircleSize:3
OverallDifficulty:1
SliderMultiplier:0.999999999999999
SliderTickRate:2

[Events]
//Background and Video events
0,0,"playfield.jpg"
//Break Periods
2,33625,43745
2,69250,70745
2,96625,106745
//Storyboard Layer 0 (Background)
//Storyboard Layer 1 (Fail)
//Storyboard Layer 2 (Pass)
//Storyboard Layer 3 (Foreground)
//Storyboard Sound Samples
//Background Colour Transformations
3,100,0,0,0

[TimingPoints]
6425,375,4,1,0,50,1,0
45425,-100,4,1,0,50,0,1
69050,-100,4,1,0,50,0,0
108425,-100,4,1,0,50,0,1
132050,-100,4,1,0,50,0,0
132425,-100,4,1,0,50,0,1
132612,-100,4,1,0,50,0,0

[Colours]
Combo1 : 255,28,141
Combo2 : 253,82,0
Combo3 : 255,255,0
Combo4 : 189,4,4

[HitObjects]
400,32,8300,2,0,B|96:32,1,300,0|4
64,128,9800,5,0
128,320,10550,1,8
192,128,11300,1,0
256,320,12050,1,8
320,128,12800,1,0
384,320,13550,1,8
448,128,14300,5,0
256,64,15050,1,8
64,128,15800,1,0
256,192,16550,1,8
448,256,17300,5,0
256,320,18050,1,8
64,256,18800,1,0
64,256,19175,2,2,B|128:184|56:120,1,150
160,32,20300,5,4
352,32,21050,1,8
480,192,21800,1,0
352,352,22550,1,8
160,352,23300,1,0
32,192,24050,1,8
160,32,24800,6,2,B|384:32,1,200,2|8
480,192,26300,2,0,B|256:192,1,200,0|8
156,352,27800,6,0,B|380:352,3,200,0|8|0|8
352,160,30800,5,0
160,160,31550,1,0
256,352,32675,6,0,B|256:128,1,200,0|4
256,208,45425,12,14,46550
256,32,47300,5,0
64,32,48050,1,0
64,32,48425,2,0,B|64:224|256:224,1,300,0|14
256,32,50300,5,14
448,32,51050,1,0
448,32,51425,2,0,B|448:224|256:224,1,300,0|14
256,32,53300,5,0
256,32,54050,1,0
256,208,54425,12,14,55550
256,192,56300,5,14
256,192,56675,5,14
256,192,57050,5,14
256,208,57425,12,14,58550
256,352,59300,5,0
64,352,60050,1,0
64,352,60425,2,0,B|64:160|256:160,1,300,0|14
256,352,62300,5,14
448,352,63050,1,0
448,352,63425,2,0,B|448:160|256:160,1,300,0|14
256,352,65300,5,0
256,352,66050,1,0
256,208,66425,12,14,67550
256,192,68300,5,14
256,192,68675,5,14
256,192,69050,5,14
80,48,72425,6,0,B|80:160,1,99.9999999999999
160,336,73550,1,8
352,336,74300,1,0
432,144,75050,1,8
256,32,75800,1,0
256,224,76550,1,8
80,320,77300,6,0,B|80:112,1,200,0|8
256,32,78800,2,0,B|256:240,1,200,0|8
432,320,80300,6,0,B|432:112,3,200,0|8|0|8
256,32,83300,5,0
64,32,84050,1,8
176,192,84800,1,0
64,352,85550,1,8
256,352,86300,1,0
448,352,87050,1,8
336,192,87800,5,0
448,32,88550,1,8
256,32,89300,1,0
64,32,90050,1,8
168,192,90800,6,0,B|208:248|304:248|344:192,3,200,0|8|0|8
256,32,93800,5,0
256,32,94550,1,0
155,314,95675,6,0,B|366:314,1,200,0|4
256,208,108425,12,14,109550
256,192,110300,5,0
448,192,111050,1,0
448,192,111425,2,0,B|448:32,2,150,0|0|14
256,192,113300,5,14
64,192,114050,1,0
64,192,114425,2,0,B|64:32,2,150,0|0|14
256,128,116300,5,0
328,320,117050,1,0
328,320,117425,2,0,B|168:320,2,150,0|0|14
256,96,119300,5,14
256,96,119675,5,14
256,96,120050,5,14
256,208,120425,12,14,121550
256,192,122300,5,0
64,192,123050,1,0
64,192,123425,2,0,B|64:352,2,150,0|0|14
256,192,125300,5,14
448,192,126050,1,0
448,192,126425,2,0,B|448:352,2,150,0|0|14
256,256,128300,5,0
184,64,129050,1,0
184,64,129425,2,0,B|344:64,2,150,0|0|14
256,288,131300,5,14
256,288,131675,5,14
256,288,132050,5,14
256,192,132425,5,4
