osu file format v5

[General]
AudioFilename: Gyaruru - Boom Boom Meccha Maccho!.mp3
AudioLeadIn: 0
PreviewTime: -1
Countdown: 1
SampleSet: Normal
StackLeniency: 0.7
Mode: 0

[Metadata]
Title:Boom Boom Meccha Maccho!
Artist:Gyaruru
Creator:Butanero-san
Version:Maccho!

[Difficulty]
HPDrainRate:5
CircleSize:5
OverallDifficulty:5
SliderMultiplier:1.4
SliderTickRate:1

[Events]
//Background and Video events
1,546,"gyaruru-bbmm.avi"
//Break Periods
2,21447,26939
2,73338,78830
2,138202,150181
//Storyboard Layer 0 (Background)
//Storyboard Layer 1 (Failing)
//Storyboard Layer 2 (Passing)
//Storyboard Layer 3 (Foreground)
//Storyboard Sound Samples
//Background Colour Transformations
3,100,232,172,248

[TimingPoints]
2194,405.4,4,1,0,100

[HitObjects]
128,192,8275,1,0
256,192,8680,1,0
384,192,9085,1,4
256,64,9896,5,0
192,160,10302,2,2,B|352:160,2,140
256,256,11518,1,0
192,320,11923,1,0
320,320,12329,1,0
256,256,12734,1,0
320,160,13139,2,2,B|160:160,3,140
128,256,14761,5,0
256,256,15166,1,0
384,256,15571,1,4
256,64,16382,5,0
192,160,16788,2,2,B|352:160,2,140
256,256,18004,1,0
192,320,18409,1,0
320,320,18815,1,0
320,320,19220,1,0
320,320,19626,1,0
320,160,20031,2,2,B|160:160,3,140
224,128,28139,5,0
320,128,28545,1,0
416,128,28950,2,2,C|416:192|375:258,1,140
288,256,29761,1,0
192,256,30166,2,2,C|32:256,1,140
55,257,30977,6,2,C|197:257,1,140
288,256,31788,5,4
416,160,32599,5,4
352,32,33004,6,2,C|256:160,1,140
192,224,33815,6,2,C|96:352,1,140
256,320,34626,5,0
384,320,35031,1,0
393,226,35436,2,2,C|233:226,4,140
288,128,37463,5,4
384,128,37869,1,4
160,96,39490,5,4
384,96,39896,5,4
160,288,40301,5,4
384,288,40707,5,4
128,192,41112,5,0
256,64,41517,1,0
416,192,41923,1,0
320,224,42328,2,2,B|320:128|224:128|160:128|160:288|224:288|320:288|317:177,1,373.333333333333
256,192,43950,5,4
384,192,44355,5,0
256,64,44760,1,0
96,192,45166,1,0
192,224,45571,2,2,B|192:128|288:128|352:128|352:288|288:288|192:288|195:177,1,373.333333333333
192,192,47598,5,0
320,192,48004,1,0
416,256,48409,2,2,B|416:96,1,140
320,64,49220,1,0
192,64,49625,1,0
96,160,50031,1,4
96,160,50233,1,4
192,224,50842,6,2,B|352:224,7,140
224,96,54085,5,0
224,96,54287,1,0
224,96,54490,1,0
224,96,54896,1,4
320,192,55504,6,2,B|160:192,1,140
180,192,56112,1,4
179,288,56517,2,2,B|339:288,1,140
352,192,57328,5,0
352,192,57531,1,0
352,192,57733,1,0
352,192,57936,1,0
352,192,58139,1,0
352,192,58341,1,0
352,192,58544,2,2,B|192:192,3,140
128,192,60166,5,0
128,192,60233,1,0
256,192,60571,1,0
256,192,60639,1,0
384,192,60976,1,4
384,192,61044,1,4
256,64,61787,5,4
192,160,62193,2,2,B|352:160,2,140
256,256,63409,1,0
192,320,63814,1,0
320,320,64220,1,0
256,256,64625,1,0
320,160,65030,2,2,B|160:160,3,140
128,256,66652,5,0
256,256,67057,1,0
384,256,67462,1,4
256,64,68273,5,0
192,160,68679,2,2,B|352:160,2,140
256,256,69895,1,0
192,320,70300,1,0
320,320,70706,1,0
320,320,71111,1,0
320,320,71517,1,0
320,160,71922,2,2,B|160:160,3,140
224,128,80030,5,0
320,128,80436,1,0
416,128,80841,2,2,C|416:192|375:258,1,140
288,256,81652,1,4
192,256,82057,2,2,C|32:256,1,140
55,257,82868,6,2,C|197:257,1,140
288,256,83679,5,4
416,160,84490,5,4
352,32,84895,6,2,C|256:160,1,140
192,224,85706,6,2,C|96:352,1,140
256,320,86517,5,0
384,320,86922,1,0
393,226,87327,2,2,C|233:226,4,140
288,128,89354,5,0
384,128,89760,1,4
160,96,91381,5,4
384,96,91787,5,4
160,288,92192,5,4
384,288,92598,5,4
128,192,93003,5,0
256,64,93408,1,0
416,192,93814,1,0
320,224,94219,2,2,B|320:128|224:128|160:128|160:288|224:288|320:288|317:177,1,373.333333333333
256,192,95841,5,4
384,192,96246,5,0
256,64,96651,1,0
96,192,97057,1,0
192,192,97462,2,2,B|192:288|288:288|352:288|352:128|288:128|192:128|195:239,1,373.333333333333
192,192,99489,5,0
320,192,99895,1,0
416,256,100300,2,2,B|416:96,1,140
320,64,101111,1,0
192,64,101516,1,0
96,160,101922,1,4
96,160,102124,1,4
192,224,102733,6,2,B|352:224,7,140
224,96,105976,5,0
224,96,106178,1,0
224,96,106381,1,0
224,96,106787,1,4
320,192,107395,6,2,B|160:192,1,140
180,192,108003,1,4
179,288,108408,2,2,B|339:288,1,140
352,192,109219,5,0
352,192,109422,1,0
352,192,109624,1,0
352,192,109827,1,0
352,192,110030,1,0
352,192,110232,1,0
352,192,110435,2,2,B|192:192,3,140
128,192,112057,5,0
128,192,112124,1,0
256,192,112462,1,0
256,192,112530,1,0
384,192,112868,1,4
256,64,113678,5,0
192,160,114084,2,2,B|352:160,2,140
256,256,115300,1,0
192,320,115705,1,0
320,320,116111,1,0
256,256,116516,1,0
320,160,116921,2,2,B|160:160,3,140
128,256,118543,5,0
256,256,118948,1,0
384,256,119353,1,4
256,64,120164,5,0
192,160,120570,2,2,B|352:160,2,140
256,256,121786,1,0
192,320,122191,1,0
320,320,122597,1,0
320,320,123002,1,0
320,320,123408,1,4
320,160,123813,2,2,B|160:160,3,140
192,256,125435,5,0
192,256,125503,1,0
320,256,125841,1,4
256,64,126651,5,0
192,160,127057,2,2,B|352:160,2,140
256,256,128273,1,0
192,320,128678,1,0
320,320,129084,1,0
256,256,129489,1,0
320,160,129894,2,2,B|160:160,3,140
128,256,131516,5,0
256,256,131921,1,0
384,256,132326,1,4
256,64,133137,5,0
192,160,133543,2,2,B|352:160,2,140
256,256,134759,1,0
192,320,135164,1,0
320,320,135570,1,0
320,320,135975,1,0
320,320,136381,1,4
320,160,136786,2,2,B|160:160,3,140
320,192,151381,5,0
192,192,151787,1,0
96,256,152192,2,2,B|96:96,1,140
192,64,153003,1,0
320,64,153408,1,0
416,160,153814,1,0
416,160,154016,1,4
320,224,154625,6,2,B|160:224,7,140
288,96,157868,5,0
288,96,158070,1,0
288,96,158273,1,0
288,96,158679,1,4
192,192,159287,6,2,B|352:192,1,140
332,192,159895,1,0
333,288,160300,2,2,B|173:288,1,140
160,192,161111,5,0
160,192,161314,1,0
160,192,161516,1,0
160,192,161719,1,0
160,192,161922,1,0
160,192,162124,1,0
160,192,162327,2,2,B|320:192,3,140
384,192,163949,5,0
384,192,164016,1,0
256,192,164354,1,0
256,192,164422,1,0
128,192,164759,1,4
256,64,165570,5,0
320,160,165976,2,2,B|160:160,2,140
256,256,167192,1,0
320,320,167597,1,0
192,320,168003,1,0
256,256,168408,1,0
192,160,168813,2,2,B|352:160,3,140
384,256,170435,5,0
256,256,170840,1,0
128,256,171245,1,4
256,64,172056,5,0
320,160,172462,2,2,B|160:160,2,140
256,256,173678,1,0
320,320,174083,1,0
192,320,174489,1,0
192,320,174894,1,0
192,320,175300,1,4
192,160,175705,2,2,B|352:160,3,140
256,192,177327,5,0
256,192,177395,1,0
128,192,177732,1,4
256,64,178543,5,0
320,160,178949,2,2,B|160:160,2,140
256,256,180165,1,0
320,320,180570,1,0
192,320,180976,1,0
256,256,181381,1,0
192,160,181786,2,2,B|352:160,3,140
384,256,183408,5,0
256,256,183813,1,0
128,256,184218,1,4
256,64,185029,5,0
320,160,185435,2,2,B|160:160,2,140
256,256,186651,1,0
320,320,187056,1,0
192,320,187462,1,0
192,320,187867,1,0
192,320,188273,1,4
192,160,188678,2,2,B|352:160,3,140
256,192,190299,12,0,195975
256,192,196786,12,0,202461
