osu file format v5

[General]
AudioFilename: Gyaruru - Boom Boom Meccha Maccho!.mp3
AudioLeadIn: 0
PreviewTime: -1
Countdown: 1
SampleSet: Normal
StackLeniency: 0.7
Mode: 0

[Metadata]
Title:Boom Boom Meccha Maccho!
Artist:Gyaruru
Creator:Butanero-san
Version:Gal!

[Difficulty]
HPDrainRate:2
CircleSize:2
OverallDifficulty:2
SliderMultiplier:0.8
SliderTickRate:1

[Events]
//Background and Video events
1,625,"gyaruru-bbmm.avi"
//Break Periods
2,21852,26579
2,73744,78470
2,138608,149821
//Storyboard Layer 0 (Background)
//Storyboard Layer 1 (Failing)
//Storyboard Layer 2 (Passing)
//Storyboard Layer 3 (Foreground)
//Storyboard Sound Samples
//Background Colour Transformations
3,100,227,171,248

[TimingPoints]
2194,405.4,4,1,0,100

[HitObjects]
128,192,8274,1,0
384,192,9085,1,4
256,64,9896,5,0
256,160,10707,1,0
256,256,11518,1,0
384,256,12329,1,0
320,160,13139,2,2,B|148:160,1,160
128,256,14761,5,0
384,256,15572,1,4
256,64,16383,5,0
192,160,16788,2,2,B|352:160,1,146.666666666667
256,256,18004,1,0
320,320,18815,1,0
320,320,19626,1,0
320,160,20031,2,2,B|157:159,2,160
224,128,28139,5,0
416,128,28950,2,2,C|416:192|416:214,1,80
288,256,30166,2,2,C|202:256,1,80
205,258,30977,6,2,C|294:257,1,80
320,64,33004,6,2,L|160:256,1,240
256,320,34625,5,0
393,226,35436,2,2,C|233:226,2,160
224,128,37463,5,4
384,128,37869,1,4
160,96,39490,5,4
224,160,39896,5,4
288,224,40301,5,4
352,288,40706,5,4
128,192,41112,5,0
416,192,41923,1,0
320,224,42328,2,2,B|286:129|286:129|217:124|217:124|154:127|154:127|141:127,1,240
64,128,43950,5,4
96,224,44761,5,0
192,256,45571,2,2,B|226:161|226:161|295:156|295:156|358:159|358:159|371:159,1,240
192,192,47598,5,0
320,160,48409,2,2,B|320:71,1,80
192,64,49625,1,0
96,160,50233,1,4
192,224,50842,6,2,B|282:224,7,80
224,96,54085,5,0
224,96,54895,1,4
320,192,55706,5,2
180,192,56112,1,4
214,288,56517,2,2,B|300:288,1,80
352,192,57328,5,0
352,192,57733,1,2
352,192,58139,1,0
352,192,58544,2,2,B|263:192,3,80
128,192,60166,5,0
384,192,60977,1,4
256,64,61788,5,0
256,160,62599,1,0
256,256,63410,1,0
384,256,64221,1,0
320,160,65031,2,2,B|148:160,1,160
128,256,66653,5,0
384,256,67464,1,4
256,64,68275,5,0
192,160,68680,2,2,B|352:160,1,146.666666666667
256,256,69896,1,0
320,320,70707,1,0
320,320,71518,1,0
320,160,71923,2,2,B|157:159,2,160
224,128,80030,5,0
416,128,80841,2,2,C|416:192|416:214,1,80
288,256,82057,2,2,C|202:256,1,80
205,258,82868,6,2,C|294:257,1,80
320,64,84895,6,2,L|160:256,1,240
256,320,86516,5,0
393,226,87327,2,2,C|233:226,2,160
224,128,89354,5,4
384,128,89760,1,4
160,96,91381,5,4
224,160,91787,5,4
288,224,92192,5,4
352,288,92597,5,4
128,192,93003,5,0
416,192,93814,1,0
320,224,94219,2,2,B|286:129|286:129|217:124|217:124|154:127|154:127|141:127,1,240
64,128,95841,5,4
96,224,96652,5,0
192,256,97462,2,2,B|226:161|226:161|295:156|295:156|358:159|358:159|371:159,1,240
192,192,99489,5,0
320,160,100300,2,2,B|320:71,1,80
192,64,101516,1,0
96,160,102124,1,4
192,224,102733,6,2,B|282:224,7,80
224,96,105976,5,0
224,96,106786,1,4
320,192,107597,5,2
180,192,108003,1,4
214,288,108408,2,2,B|300:288,1,80
352,192,109219,5,0
352,192,109624,1,2
352,192,110030,1,0
352,192,110435,2,2,B|263:192,3,80
128,192,112057,5,0
384,192,112868,1,4
256,64,113679,5,0
256,160,114490,1,0
256,256,115301,1,0
384,256,116112,1,0
320,160,116922,2,2,B|148:160,1,160
128,256,118544,5,0
384,256,119355,1,4
256,64,120166,5,0
192,160,120571,2,2,B|352:160,1,146.666666666667
256,256,121787,1,0
320,320,122598,1,0
320,320,123409,1,0
352,192,123814,5,4
224,192,124219,1,4
96,192,124624,1,4
160,192,125435,1,0
288,192,125841,1,4
256,64,126652,5,0
256,160,127463,1,0
256,256,128274,1,0
384,256,129085,1,0
320,160,129895,2,2,B|148:160,1,160
128,256,131517,5,0
384,256,132328,1,4
256,64,133139,5,0
192,160,133544,2,2,B|352:160,1,146.666666666667
256,256,134760,1,0
320,320,135571,1,0
320,320,136382,1,0
320,160,136787,2,2,B|157:159,2,160
192,192,151381,5,0
320,160,152192,2,2,B|320:71,1,80
192,64,153408,1,0
96,160,154016,1,4
192,224,154625,6,2,B|282:224,7,80
224,96,157868,5,0
224,96,158678,1,4
320,192,159489,5,2
180,192,159895,1,4
214,288,160300,2,2,B|300:288,1,80
352,192,161111,5,0
352,192,161516,1,2
352,192,161922,1,0
352,192,162327,2,2,B|263:192,3,80
128,192,163949,5,0
384,192,164760,1,4
256,64,165571,5,0
256,160,166382,1,0
256,256,167193,1,0
384,256,168004,1,0
320,160,168814,2,2,B|148:160,1,160
128,256,170436,5,0
384,256,171247,1,4
256,64,172058,5,0
192,160,172463,2,2,B|352:160,1,146.666666666667
256,256,173679,1,0
320,320,174490,1,0
320,320,175301,1,0
352,192,175706,5,4
224,192,176111,1,4
96,192,176516,1,4
160,192,177327,1,0
288,192,177733,1,4
256,64,178544,5,0
256,160,179355,1,0
256,256,180166,1,0
384,256,180977,1,0
320,160,181787,2,2,B|148:160,1,160
128,256,183409,5,0
384,256,184220,1,4
256,64,185031,5,0
192,160,185436,2,2,B|352:160,1,146.666666666667
256,256,186652,1,0
320,320,187463,1,0
320,320,188274,1,0
320,160,188679,2,2,B|157:159,1,160
256,192,190299,12,0,195975
256,192,196786,12,0,202461
