osu file format v6

[General]
AudioFilename: Gwen Stefani - Sweet Escape.mp3
AudioLeadIn: 0
PreviewTime: -1
Countdown: 1
SampleSet: Normal
StackLeniency: 0.7
Mode: 0
LetterboxInBreaks: 1

[Editor]
Bookmarks: 14346,46055,94555,174555
DistanceSpacing: 0.800000011920929
BeatDivisor: 6
GridSize: 8

[Metadata]
Title:The Sweet Escape
Artist:Gwen Stefani ft. Akon
Creator:FerreTrip
Version:Hard - Extended Version
Source:--
Tags:

[Difficulty]
HPDrainRate:7
CircleSize:5
OverallDifficulty:6
SliderMultiplier:1.7
SliderTickRate:3

[Events]
//Background and Video events
//Break Periods
2,40087,46171
2,80588,94671
2,160588,174671
//Storyboard Layer 0 (Background)
//Storyboard Layer 1 (Fail)
//Storyboard Layer 2 (Pass)
//Storyboard Layer 3 (Foreground)
//Storyboard Sound Samples
//Background Colour Transformations
3,100,0,0,0

[TimingPoints]
2888,500,4,1,0,100,1,0

[HitObjects]
85,257,16388,2,0,B|85:284|176:323,1,113.333333333333
211,302,16888,1,0
265,119,17221,2,2,B|319:71|345:95|380:148|384:235|378:269,1,226.666666666667
321,363,18388,6,0,B|348:363|389:261,1,113.333333333333
366,237,18888,1,0
183,183,19221,2,2,B|135:129|159:103|212:68|299:64|333:70,1,226.666666666667
427,127,20388,6,0,B|427:100|321:59,1,113.333333333333
301,82,20888,1,0
247,265,21221,2,2,B|193:313|167:289|132:236|128:149|134:115,1,226.666666666667
191,21,22388,6,0,B|164:21|122:121,1,113.333333333333
146,147,22888,1,0
329,201,23221,2,2,B|377:255|353:281|300:316|213:320|179:314,1,226.666666666667
101,105,24388,5,0
183,188,24721,1,0
238,99,24888,1,0
303,70,25221,2,2,B|357:22|383:46|418:99|422:186|416:220,1,226.666666666667
411,105,26388,5,0
329,188,26721,1,0
274,99,26888,1,0
209,70,27221,2,2,B|155:22|129:46|94:99|90:186|96:220,1,226.666666666667
256,187,28388,5,0
404,253,29221,1,0
263,125,30388,1,0
136,253,31221,5,8
202,209,31388,1,8
272,245,31721,1,8
319,183,31888,1,8
318,56,32221,1,12
120,62,33221,5,0
121,170,33388,1,0
168,233,33721,1,0
238,196,33888,1,0
304,240,34221,1,0
347,181,34388,2,8,B|247:119,1,113.333333333333
321,82,34888,1,0
389,126,35221,2,8,B|312:162|487:225|376:284,1,170
337,297,35888,1,0
335,237,36221,5,0
277,179,36388,2,2,B|220:128|173:189,1,113.333333333333
178,182,36888,1,2
121,238,37221,1,0
179,182,37388,2,2,B|236:131|283:192,1,113.333333333333
279,184,37888,1,2
363,140,38221,1,0
306,122,38388,2,8,B|251:91,3,56.6666666666667
188,104,39221,2,6,B|75:158|330:182|100:198|281:231|108:226|188:306,1,226.666666666667
186,251,47221,5,0
246,212,47388,1,0
305,135,47721,1,2
305,135,47888,1,2
305,135,48221,2,2,B|346:115|379:101|401:101|416:98|442:94|472:93,1,170
377,90,48888,2,8,B|359:73|318:56|279:56|232:75|209:93,1,170
184,152,49721,5,0
142,214,49888,1,0
86,127,50221,2,0,B|122:68|149:42|201:49|234:85,1,170
250,124,50888,1,0
297,190,51221,1,0
344,128,51388,1,0
381,75,51721,1,0
381,75,52221,2,2,B|423:58|446:36|508:44|540:71|551:106,1,170
468,148,52888,2,8,B|427:193|362:192|306:141,2,170
433,204,54221,5,0
378,147,54388,2,0,B|328:107|269:157,1,113.333333333333
242,198,54888,2,0,B|206:261|149:243|132:223,1,113.333333333333
97,210,55388,2,0,B|27:154|-9:209|23:276|82:276,1,170
129,297,56221,2,2,B|153:275|194:253|210:248|234:246|247:249|258:261|275:282|281:300,1,170
384,224,57221,5,8
336,272,57388,1,8
336,176,57721,1,8
78,112,58221,6,2,B|92:84|107:69|122:62|141:57|163:53|180:53|198:53|220:55|231:55|249:58,1,170
269,106,58888,1,2
221,187,59221,1,0
167,118,59388,2,2,B|147:171|146:197|166:221|166:231|183:237,1,113.333333333333
94,246,60221,5,0
133,176,60388,1,0
196,199,60721,1,0
196,199,60888,1,0
287,201,61221,1,0
321,250,61388,2,8,B|340:283|381:283,3,56.6666666666667
435,304,62221,2,4,C|386:361|338:290|292:364|245:293,1,340
246,294,63388,5,0
328,144,63721,1,0
274,92,63888,1,2
275,92,64221,2,2,B|234:72|201:58|179:58|164:55|138:51|108:50,1,170
192,144,64888,2,8,B|184:149|112:169|73:148|25:102,2,170
368,128,66221,5,0
304,64,66388,1,0
240,128,66721,1,0
304,192,66888,1,0
368,256,67221,1,0
304,352,67388,1,0
240,256,67721,1,2
240,256,68221,1,2
240,256,68888,2,8,B|201:279|159:286|145:272|130:264|86:248|64:224|43:127|210:113|139:240|138:255|196:221|219:207|263:186,1,340
278,126,70221,5,0
362,85,70388,2,0,B|389:104|411:130|413:160|408:188,1,113.333333333333
403,243,70888,1,0
327,276,71221,1,0
345,336,71388,2,0,B|300:351|262:359|219:335,1,113.333333333333
154,289,71888,1,0
102,200,72221,2,2,B|96:154|97:120|113:97|147:94|172:84|196:114,1,170
176,240,73221,5,8
128,192,73388,1,8
224,192,73721,1,8
339,227,74221,6,2,B|283:199|239:192|196:199|165:235,1,170
160,272,74888,1,2
240,272,75221,1,0
272,336,75388,2,2,B|324:383|397:320,1,113.333333333333
416,208,76221,5,0
368,160,76388,2,0,B|256:96,1,113.333333333333
238,104,76888,2,0,B|137:167,1,113.333333333333
126,210,77388,1,2
146,245,77555,1,2
108,243,77721,1,2
186,206,77888,1,2
251,233,78221,1,6
190,303,78888,5,8
273,285,79221,1,0
326,219,79388,1,8
342,304,79888,1,8
425,286,80221,1,0
478,220,80388,1,8
168,280,95721,5,0
248,248,95888,1,0
312,160,96221,1,0
312,72,96388,2,4,B|344:56|376:56|400:80|408:136|400:192,1,170
456,192,97221,5,0
408,144,97388,1,0
360,192,97721,1,0
408,240,97888,1,0
312,240,98221,1,0
360,288,98388,2,0,B|360:352|336:352|296:368|280:360|264:320|272:296,1,170
271,302,99221,1,0
216,224,99721,5,0
152,168,99888,1,0
152,232,100221,1,0
216,152,100388,1,0
288,144,101221,5,0
352,144,101388,2,0,B|344:200|328:208|296:208|264:208,1,113.333333333333
232,152,101888,2,0,B|264:136|280:104|280:72|240:48,1,113.333333333333
192,80,102388,2,8,B|168:96|136:136|136:168|136:184,1,113.333333333333
136,174,102888,1,8
192,80,103221,1,8
216,208,103721,5,2
272,184,103888,2,2,B|296:160|336:144|352:144|392:152|416:168|432:184|424:208,2,170
224,104,105221,5,0
272,135,105388,1,0
320,192,105721,1,0
276,233,105888,1,0
208,264,106138,1,0
242,314,106388,1,0
320,328,106721,1,0
323,269,106888,1,0
240,216,107221,2,0,B|192:184|152:176|120:192|96:208|72:168,1,170
112,152,107888,5,0
177,125,108221,1,0
232,112,108388,2,8,B|288:104|328:112|344:136,1,113.333333333333
339,130,108888,1,8
339,130,109221,1,10
344,264,109721,1,0
295,300,109888,1,0
256,228,110221,1,0
208,192,110388,2,4,B|176:176|152:176|112:176,1,113.333333333333
105,119,110888,1,4
128,232,111221,1,4
256,64,111888,5,0
256,192,112388,1,2
256,320,112888,1,2
384,112,113388,5,0
336,160,113721,1,0
288,208,114055,1,0
224,288,114388,2,2,B|160:336|128:336|80:320|64:304,1,170
112,64,115388,5,0
64,112,115555,1,0
112,160,115721,1,0
208,224,116055,1,0
288,288,116388,2,2,B|352:336|384:336|432:320|448:304,1,170
400,112,117388,6,0,B|336:64,1,56.6666666666667
320,128,117721,1,0
336,208,118055,1,0
224,288,118388,2,2,B|160:336|128:336|80:320|64:304,1,170
80,96,119388,5,8
128,80,119555,1,8
176,96,119721,1,8
224,80,119971,1,8
272,96,120138,1,8
352,112,120388,2,2,B|384:176|352:208|336:224|304:240|320:288,1,170
416,144,121388,6,8,B|384:112|336:128,1,85
336,176,121721,2,8,B|288:208|256:144,1,85
208,128,122138,1,8
208,208,122388,2,2,B|144:256|112:256|64:240|48:224,1,170
112,112,123388,5,8
144,176,123638,1,8
224,160,123805,1,8
256,224,124055,1,8
288,288,124138,1,8
288,288,124388,2,2,B|352:336|384:336|432:320|448:304,1,170
384,80,125388,5,0
256,192,125721,1,0
128,288,126055,1,0
128,192,126388,1,6
384,192,126888,1,6
326,251,127221,5,0
266,212,127388,1,0
207,135,127721,1,2
207,135,127888,1,2
207,135,128221,2,2,B|166:115|133:101|111:101|96:98|70:94|40:93,1,170
135,90,128888,2,8,B|153:73|194:56|233:56|280:75|303:93,1,170
328,152,129721,5,0
370,214,129888,1,0
428,129,130221,1,0
394,83,130388,2,0,B|377:71|367:63|343:47|330:49|315:51|291:77,1,113.333333333333
262,124,130888,1,0
215,190,131221,1,0
168,120,131388,1,0
131,75,131721,1,2
131,75,132221,2,2,B|89:58|66:36|4:44|-28:71|-39:106,1,170
44,148,132888,2,8,B|85:193|150:192|206:141,2,170
79,204,134221,5,0
134,147,134388,2,0,B|184:107|243:157,1,113.333333333333
270,198,134888,2,0,B|306:261|363:243|380:223,1,113.333333333333
415,210,135388,2,0,B|482:158|504:181|478:261|483:246,1,113.333333333333
453,271,135888,1,0
383,297,136221,2,2,B|359:275|318:253|302:248|278:246|265:249|254:261|237:282|231:300,1,170
128,224,137221,5,8
176,272,137388,1,8
176,176,137721,1,8
434,112,138221,6,2,B|420:84|405:69|390:62|371:57|349:53|332:53|314:53|292:55|281:55|263:58,1,170
243,106,138888,1,2
291,187,139221,1,0
345,118,139388,2,2,B|365:171|366:197|346:221|346:231|329:237,1,113.333333333333
418,246,140221,5,0
379,176,140388,1,0
316,199,140721,1,0
316,199,140888,1,0
225,201,141221,1,0
191,250,141388,2,8,B|172:283|131:283,3,56.6666666666667
77,304,142221,2,4,C|126:361|174:290|220:364|267:293,1,340
266,294,143388,5,0
176,144,143721,1,0
238,92,143888,1,2
237,92,144221,2,2,B|278:72|311:58|333:58|348:55|374:51|404:50,1,170
320,144,144888,2,8,B|328:149|400:169|439:148|487:102,2,170
144,128,146221,5,0
208,64,146388,1,0
272,128,146721,1,0
208,192,146888,1,0
144,256,147221,1,0
208,352,147388,1,0
272,256,147721,1,2
272,256,148221,1,2
272,256,148888,2,8,B|311:279|353:286|367:272|382:264|426:248|448:224|469:127|302:113|373:240|374:255|316:221|293:207|249:186,1,340
234,126,150221,5,0
150,85,150388,2,0,B|123:104|101:130|99:160|104:188,1,113.333333333333
109,243,150888,1,0
185,276,151221,1,0
167,336,151388,2,0,B|212:351|250:359|293:335,1,113.333333333333
358,289,151888,1,0
410,200,152221,2,2,B|416:154|415:120|399:97|365:94|340:84|316:114,1,170
336,240,153221,5,8
384,192,153388,1,8
288,192,153721,1,8
173,227,154221,6,2,B|229:199|273:192|316:199|347:235,1,170
352,272,154888,1,2
272,272,155221,1,0
240,336,155388,2,2,B|188:383|115:320,1,113.333333333333
96,208,156221,5,0
144,160,156388,1,0
242,103,156721,1,0
274,104,156888,1,0
370,163,157221,1,0
388,230,157388,2,2,B|324:230,3,56.6666666666667
261,233,158221,1,6
322,303,158888,5,8
239,285,159221,1,0
186,219,159388,1,8
170,304,159888,1,8
87,286,160221,1,0
34,220,160388,1,8
256,192,175721,5,0
256,128,175888,1,0
256,64,176221,1,0
320,64,176388,2,0,B|293:26|233:3|224:32|224:32,1,113.333333333333
166,98,176888,2,0,B|128:125|105:185|134:194|134:194,1,113.333333333333
182,257,177388,2,0,B|209:295|269:318|278:289|278:289,1,113.333333333333
355,242,177888,1,0
318,263,178055,5,0
251,277,178221,1,0
188,278,178388,2,0,B|136:175,1,113.333333333333
138,176,178888,2,0,B|228:76,1,113.333333333333
213,94,179388,2,0,B|215:170,3,56.6666666666667
184,264,180055,5,0
248,264,180221,1,0
264,200,180388,1,0
312,264,180555,1,0
328,200,180721,1,0
344,136,180888,1,0
280,136,181055,1,0
216,136,181221,1,0
200,200,181388,1,0
216,136,181555,1,0
200,200,181721,1,0
152,136,181888,2,0,C|132:171|142:193|175:194|184:212|176:244|180:273|214:307|271:327|338:330,1,340
186,251,183221,5,0
246,212,183388,1,0
305,135,183721,1,2
305,135,183888,1,2
305,135,184221,2,2,B|346:115|379:101|401:101|416:98|442:94|472:93,1,170
377,90,184888,2,8,B|359:73|318:56|279:56|232:75|209:93,1,170
184,152,185721,5,0
142,214,185888,1,0
84,129,186221,1,0
118,83,186388,2,0,B|135:71|145:63|169:47|182:49|197:51|221:77,1,113.333333333333
250,124,186888,1,0
297,190,187221,1,0
353,87,187388,1,0
381,75,187721,1,2
381,75,188221,2,2,B|423:58|446:36|508:44|540:71|551:106,1,170
468,148,188888,2,8,B|427:193|362:192|306:141,2,170
433,204,190221,5,0
378,147,190388,2,0,B|328:107|269:157,1,113.333333333333
242,198,190888,2,0,B|206:261|149:243|132:223,1,113.333333333333
97,210,191388,2,0,B|30:158|8:181|34:261|29:246,1,113.333333333333
59,271,191888,1,0
129,297,192221,2,2,B|153:275|194:253|210:248|234:246|247:249|258:261|275:282|281:300,1,170
384,224,193221,5,8
336,272,193388,1,8
336,176,193721,1,8
78,112,194221,6,2,B|92:84|107:69|122:62|141:57|163:53|180:53|198:53|220:55|231:55|249:58,1,170
269,106,194888,1,2
221,187,195221,1,0
168,226,195388,2,2,B|166:231|166:221|146:197|147:171|167:118,1,113.333333333333
94,246,196221,5,0
133,176,196388,1,0
196,199,196721,1,0
196,199,196888,1,0
287,201,197221,1,0
321,250,197388,2,8,B|340:283|381:283,3,56.6666666666667
435,304,198221,2,4,C|386:361|338:290|292:364|245:293,1,340
246,294,199388,5,0
337,148,199721,1,0
274,92,199888,1,2
275,92,200221,2,2,B|234:72|201:58|179:58|164:55|138:51|108:50,1,170
192,136,200888,2,8,B|153:174|97:174|73:126,1,113.333333333333
40,232,201388,1,8
128,200,201721,1,8
208,232,201888,1,8
368,128,202221,5,0
304,64,202388,1,0
240,128,202721,1,0
304,192,202888,1,0
368,256,203221,1,0
304,352,203388,2,0,B|228:238,1,113.333333333333
240,256,204221,2,2,B|211:239|185:243|173:270|159:305|224:321|261:305|234:242,1,170
240,256,204888,2,8,B|194:282|132:266|123:266|122:249,1,113.333333333333
94,228,205388,2,8,B|95:181|133:181|140:221|172:221|196:200,1,113.333333333333
240,198,205888,1,8
278,126,206221,5,0
362,85,206388,2,0,B|389:104|411:130|413:160|408:188,1,113.333333333333
403,243,206888,1,0
327,276,207221,1,0
345,336,207388,2,0,B|300:351|262:359|219:335,1,113.333333333333
154,289,207888,1,0
102,200,208221,2,2,B|96:154|97:120|113:97|147:94|172:84|196:114,1,170
292,100,209221,5,8
386,100,209388,1,8
340,57,209721,1,8
336,120,210221,6,0,L|176:120|176:248|336:248|336:184|272:184,1,566.666666666667
256,208,212221,12,4,216388
