osu file format v14

[General]
AudioFilename: aPcE51yruAac.128.mp3
AudioLeadIn: 0
PreviewTime: 149671
Countdown: 0
SampleSet: Soft
StackLeniency: 0.7
Mode: 0
LetterboxInBreaks: 0
WidescreenStoryboard: 0

[Editor]
DistanceSpacing: 0.6
BeatDivisor: 4
GridSize: 4
TimelineZoom: 1

[Metadata]
Title:Battle Scars (feat. Lupe Fiasco)
TitleUnicode:Battle Scars (feat. Lupe Fiasco)
Artist:Guy Sebastian
ArtistUnicode:Guy Sebastian
Creator:samplefish
Version:War
Source:
Tags:armageddon David Ryan Harris Wasalu Jaco Pro-Jay Australia
BeatmapID:667511
BeatmapSetID:297359

[Difficulty]
HPDrainRate:6
CircleSize:4
OverallDifficulty:7
ApproachRate:7.8
SliderMultiplier:2.6
SliderTickRate:1

[Events]
//Background and Video events
0,0,"thanksringytingy.jpg",0,0
//Break Periods
2,25743,33535
2,105943,115678
2,197371,204964
//Storyboard Layer 0 (Background)
//Storyboard Layer 1 (Fail)
//Storyboard Layer 2 (Pass)
//Storyboard Layer 3 (Foreground)
//Storyboard Sound Samples

[TimingPoints]
2886,714.285714285714,4,2,2,40,1,0
2886,-125,4,2,2,40,0,0
37171,-100,4,2,1,60,0,0
81457,-142.857142857143,4,2,1,40,0,0
82885,-83.3333333333333,4,2,1,80,0,1
92885,-111.111111111111,4,2,1,80,0,0
94314,-83.3333333333333,4,2,1,80,0,1
104314,-142.857142857143,4,2,1,80,0,0
116457,-100,4,2,1,60,0,0
150028,-142.857142857143,4,2,1,40,0,0
151457,-83.3333333333333,4,2,1,80,0,1
161457,-111.111111111111,4,2,1,80,0,0
162885,-83.3333333333333,4,2,1,80,0,1
172885,-142.857142857143,4,2,1,80,0,0
174314,-100,4,2,1,70,0,0
205743,-200,4,2,1,40,0,0
206457,-133.333333333333,4,2,1,50,0,0
207171,-111.111111111111,4,2,1,60,0,0
207885,-111.111111111111,4,2,1,70,0,0
208600,-83.3333333333333,4,2,1,80,0,1
218600,-111.111111111111,4,2,1,80,0,0
220028,-83.3333333333333,4,2,1,80,0,1
230028,-111.111111111111,4,2,1,80,0,0
231457,-83.3333333333333,4,2,1,80,0,1
241457,-111.111111111111,4,2,1,80,0,0
243600,-100,4,2,1,60,0,0
244314,-100,4,2,1,40,0,0
245028,-100,4,2,1,20,0,0
247171,-100,4,2,1,5,0,0

[Colours]
Combo1 : 249,83,112
Combo2 : 172,140,247
Combo3 : 122,113,236
Combo4 : 81,103,232
Combo5 : 4,173,255
Combo6 : 249,165,81
Combo7 : 244,88,36

[HitObjects]
208,132,2886,5,2,0:0:0:0:
208,132,5743,5,2,0:0:0:0:
208,132,8600,5,2,0:0:0:0:
208,132,11457,5,2,0:0:0:0:
208,132,14315,54,0,L|344:128,1,104,2|0,0:0|0:0,0:0:0:0:
368,240,15028,2,0,L|232:244,1,104
140,248,15743,2,0,L|120:196,2,52
208,352,16457,2,0,P|304:320|436:332,1,208,0|2,0:0|0:0,0:0:0:0:
500,240,17528,5,0,0:0:0:0:
432,136,17886,2,0,L|444:60,2,52
348,228,18600,2,0,B|297:232|297:232|245:220,1,104
144,148,19314,1,0,0:0:0:0:
72,252,19671,2,0,L|76:328,2,52,0|0|2,0:0|0:0|0:0,0:0:0:0:
20,140,20385,5,0,0:0:0:0:
88,32,20743,1,0,0:0:0:0:
212,32,21100,1,0,0:0:0:0:
276,140,21457,2,0,B|268:192|268:192|276:264,1,104
360,332,22171,1,0,0:0:0:0:
236,352,22528,2,0,L|168:360,2,52,0|0|2,0:0|0:0|0:0,0:0:0:0:
360,332,23243,5,0,0:0:0:0:
444,240,23600,1,0,0:0:0:0:
392,124,23957,1,0,0:0:0:0:
245,232,24314,2,0,B|304:220|304:220|376:252|376:252|444:240,1,208
256,192,34314,12,0,36457,0:0:0:0:
360,224,37171,54,0,B|228:268|232:152|104:224,1,260,4|8,0:0|0:0,0:0:0:0:
308,136,38243,2,0,P|312:100|308:44,1,65,0|2,0:0|0:0,0:0:0:0:
180,292,38778,2,0,P|176:328|180:384,1,65,2|2,0:0|0:0,0:0:0:0:
308,136,39314,1,8,0:0:0:0:
84,80,39671,1,2,0:0:0:0:
84,80,40028,6,0,B|132:60|184:76|184:76|192:68|192:68|268:92|340:52,1,260,2|8,0:0|0:0,0:0:0:0:
136,172,41100,2,0,B|128:212|128:212|136:260,1,65,0|2,0:0|0:0,0:0:0:0:
288,352,41635,2,0,B|296:312|296:312|288:264,1,65,2|2,0:0|0:0,0:0:0:0:
252,108,42171,1,8,0:0:0:0:
420,232,42528,1,2,0:0:0:0:
420,232,42885,6,0,B|336:240|336:240|244:200|244:200|152:208,1,260,6|8,0:0|0:0,0:0:0:0:
160,141,43957,2,0,L|168:206,1,65,0|2,0:0|0:0,0:0:0:0:
63,227,44493,2,0,L|56:292,1,65,2|2,0:0|0:0,0:0:0:0:
240,180,45028,1,8,0:0:0:0:
60,100,45385,1,2,0:0:0:0:
60,100,45743,6,0,B|136:108|160:56|160:56|224:92|256:28|320:88,1,260,2|8,0:0|0:0,0:0:0:0:
292,252,46814,2,0,L|284:328,1,65,0|2,0:0|0:0,0:0:0:0:
184,160,47350,2,0,L|192:236,1,65,2|2,0:0|0:0,0:0:0:0:
340,120,47885,1,12,0:0:0:0:
384,332,48243,1,2,0:0:0:0:
384,332,48600,54,0,B|336:324|284:364|284:364|244:316|184:300|104:340,1,260,6|8,0:0|0:0,0:0:0:0:
52,216,49671,2,0,P|92:216|128:228,1,65,0|2,0:0|0:0,0:0:0:0:
304,132,50207,2,0,P|264:132|228:144,1,65,0|2,0:0|0:0,0:0:0:0:
292,260,50743,1,8,0:0:0:0:
52,216,51100,1,2,0:0:0:0:
52,216,51457,6,0,P|36:152|56:56,1,130,2|0,0:0|0:0,0:0:0:0:
232,48,52171,2,0,P|248:112|228:208,1,130,8|0,0:0|0:0,0:0:0:0:
241,174,52707,1,2,0:0:0:0:
212,328,53064,1,2,0:0:0:0:
212,328,53243,2,0,L|388:316,1,130,2|8,0:0|0:0,0:0:0:0:
460,216,53957,1,2,0:0:0:0:
288,88,54314,6,0,P|164:120|172:248,1,260,6|8,0:0|0:0,0:0:0:0:
388,120,55385,2,0,P|392:84|380:16,1,65,0|2,0:0|0:0,0:0:0:0:
244,176,55921,2,0,P|240:212|252:280,1,65,2|2,0:0|0:0,0:0:0:0:
388,120,56457,1,8,0:0:0:0:
364,316,56814,1,2,0:0:0:0:
364,316,57171,5,2,0:0:0:0:
364,316,59314,2,0,B|304:300|304:300|212:312,1,130,12|2,0:0|0:0,0:0:0:0:
88,360,60028,54,0,P|108:296|92:224,1,130,4|0,0:0|0:0,0:0:0:0:
24,96,60743,2,0,B|120:56|116:132|240:92,1,195,8|2,0:0|0:0,0:0:0:0:
364,48,61635,2,0,L|352:124,1,65,2|2,0:0|0:0,0:0:0:0:
320,264,62171,1,8,0:0:0:0:
216,148,62528,1,2,0:0:0:0:
140,320,62885,5,2,0:0:0:0:
140,320,63243,2,0,L|44:320,1,65
124,244,63600,2,0,P|200:268|216:328,1,130,8|0,0:0|0:0,0:0:0:0:
216,309,64135,1,2,0:0:0:0:
344,152,64493,1,2,0:0:0:0:
344,152,64671,1,2,0:0:0:0:
472,264,65028,2,0,P|424:312|364:328,1,130,8|2,0:0|0:0,0:0:0:0:
124,244,65743,6,0,P|184:244|284:256,1,130,2|0,0:0|0:0,0:0:0:0:
200,104,66457,1,8,0:0:0:0:
344,152,66814,2,0,L|356:52,2,65,0|2|0,0:0|0:0|0:0,0:0:0:0:
476,72,67528,1,2,0:0:0:0:
344,152,67885,1,8,0:0:0:0:
468,304,68243,1,2,0:0:0:0:
320,280,68600,6,0,B|232:280|136:316|136:316|108:272|112:208,1,260,2|8,0:0|0:0,0:0:0:0:
200,112,69671,2,0,P|208:152|200:188,1,65,0|2,0:0|0:0,0:0:0:0:
168,200,70028,2,0,L|324:196,1,130,0|2,0:0|0:0,0:0:0:0:
464,80,70743,2,0,L|308:76,1,130,12|2,0:0|0:0,0:0:0:0:
360,344,71457,54,0,P|364:284|356:172,1,130,6|0,0:0|0:0,0:0:0:0:
248,188,72171,2,0,P|245:123|249:58,1,130,8|0,0:0|0:0,0:0:0:0:
248,58,72707,1,2,0:0:0:0:
440,88,73064,2,0,P|428:100|360:104,1,65,2|2,0:0|0:0,0:0:0:0:
172,32,73600,1,8,0:0:0:0:
56,216,73957,1,2,0:0:0:0:
56,216,74314,6,0,L|236:212,1,130,2|0,0:0|0:0,0:0:0:0:
368,200,75028,1,8,0:0:0:0:
500,284,75385,2,0,L|492:368,1,65,0|2,0:0|0:0,0:0:0:0:
368,200,75921,2,0,L|376:116,1,65,2|2,0:0|0:0,0:0:0:0:
492,44,76457,1,8,0:0:0:0:
368,200,76814,1,2,0:0:0:0:
268,68,77171,6,0,B|224:60|224:60|140:80,1,130,2|0,0:0|0:0,0:0:0:0:
24,188,77885,1,8,0:0:0:0:
176,312,78243,2,0,P|180:272|176:216,1,65,0|2,0:0|0:0,0:0:0:0:
364,224,78778,2,0,P|338:192|296:156,1,65,2|2,0:0|0:0,0:0:0:0:
296,328,79314,1,8,0:0:0:0:
472,228,79671,1,2,0:0:0:0:
332,56,80028,5,2,0:0:0:0:
332,56,81100,1,0,0:0:0:0:
332,56,81457,2,0,P|316:132|392:116,1,181.999994445801,0|4,0:0|0:0,0:0:0:0:
391,117,82885,6,0,B|311:136|311:136|187:120|187:120|75:164,1,311.999990478516,4|8,0:0|0:0,0:0:0:0:
20,332,83957,1,0,0:0:0:0:
308,328,84314,1,0,0:0:0:0:
416,352,84493,1,2,0:0:0:0:
440,252,84671,1,2,0:0:0:0:
440,252,85028,2,0,B|392:240|372:240|372:240|360:236|344:240|344:240|328:232|312:232|312:232|296:228|281:238|281:238|260:236|244:248|244:248|228:268|160:252,1,233.999992858887,8|0,0:0|0:0,0:0:0:0:
168,248,85743,5,2,0:0:0:0:
364,100,86100,1,0,0:0:0:0:
364,100,86457,1,8,0:0:0:0:
260,160,86635,1,0,0:0:0:0:
228,60,86814,1,0,0:0:0:0:
228,60,87171,2,0,B|184:60|144:92|144:92|108:72|48:72,1,155.999995239258,0|2,0:0|0:0,0:0:0:0:
260,260,87885,2,0,B|304:260|344:228|344:228|380:248|440:248,1,155.999995239258,8|2,0:0|0:0,0:0:0:0:
351,341,88421,1,0,0:0:0:0:
190,308,88600,6,0,P|106:288|2:292,1,155.999995239258,6|0,0:0|0:0,0:0:0:0:
351,341,89314,1,8,0:0:0:0:
432,292,89493,2,0,P|433:253|425:214,1,77.999997619629
156,120,90028,2,0,L|368:104,1,155.999995239258,0|2,0:0|0:0,0:0:0:0:
432,292,90743,2,0,L|220:276,1,155.999995239258,8|2,0:0|0:0,0:0:0:0:
260,172,91278,1,0,0:0:0:0:
160,220,91457,70,0,B|115:236|75:192|75:192|23:224,2,155.999995239258,2|0|8,0:0|0:0|0:0,0:0:0:0:
412,80,92528,1,0,0:0:0:0:
412,80,92885,6,0,B|388:112|432:152|432:152|388:212|400:256|400:256|372:256|340:288,1,233.999992858887,0|4,0:0|0:0,0:0:0:0:
364,267,94314,6,0,P|323:186|83:218,1,311.999990478516,4|8,0:0|0:0,0:0:0:0:
184,364,95385,1,0,0:0:0:0:
444,200,95742,1,0,0:0:0:0:
340,160,95921,1,2,0:0:0:0:
432,84,96100,1,2,0:0:0:0:
432,84,96457,2,0,P|368:72|200:64,1,233.999992858887,8|0,0:0|0:0,0:0:0:0:
152,72,97171,69,2,0:0:0:0:
288,272,97528,1,0,0:0:0:0:
288,272,97885,1,8,0:0:0:0:
316,120,98063,1,0,0:0:0:0:
180,188,98242,1,0,0:0:0:0:
180,188,98600,2,0,B|104:216|104:156|0:200,1,155.999995239258,0|2,0:0|0:0,0:0:0:0:
316,120,99314,2,0,B|392:148|392:88|496:132,1,155.999995239258,8|2,0:0|0:0,0:0:0:0:
400,220,99849,1,0,0:0:0:0:
348,40,100028,6,0,L|160:24,1,155.999995239258,6|0,0:0|0:0,0:0:0:0:
84,180,100742,1,8,0:0:0:0:
168,224,100921,2,0,P|176:268|175:302,1,77.999997619629
248,132,101456,2,0,L|460:116,1,155.999995239258,0|2,0:0|0:0,0:0:0:0:
492,280,102171,2,0,L|280:264,1,155.999995239258,8|2,0:0|0:0,0:0:0:0:
260,216,102706,1,0,0:0:0:0:
143,322,102885,6,0,P|104:245|123:148,2,155.999995239258,2|0|8,0:0|0:0|0:0,0:0:0:0:
344,80,103956,1,0,0:0:0:0:
344,80,104314,70,0,B|336:264,1,181.999994445801,0|8,0:0|0:0,0:0:0:0:
336,261,105743,37,0,0:0:0:0:
432,104,116457,5,8,0:0:0:0:
432,104,117171,6,0,B|332:80|332:80|272:76|248:124,1,195,4|0,0:0|0:0,0:0:0:0:
320,164,117885,1,8,0:0:0:0:
136,72,118242,2,0,L|128:136,1,65,0|2,0:0|0:0,0:0:0:0:
40,280,118778,2,0,L|116:292,1,65,2|2,0:0|0:0,0:0:0:0:
220,200,119314,1,8,0:0:0:0:
384,340,119671,1,2,0:0:0:0:
384,340,120028,6,0,L|396:208,1,130,2|0,0:0|0:0,0:0:0:0:
308,40,120743,2,0,L|296:172,1,130,8|0,0:0|0:0,0:0:0:0:
296,169,121278,1,2,0:0:0:0:
176,312,121635,1,2,0:0:0:0:
176,312,121814,2,0,L|188:180,1,130,2|8,0:0|0:0,0:0:0:0:
96,56,122528,1,2,0:0:0:0:
40,224,122885,54,0,B|120:196|120:196|192:236|192:236|288:208,1,260,2|8,0:0|0:0,0:0:0:0:
436,136,123957,1,0,0:0:0:0:
436,136,124135,1,2,0:0:0:0:
292,44,124493,1,2,0:0:0:0:
292,44,124671,1,2,0:0:0:0:
192,296,125028,1,8,0:0:0:0:
88,128,125385,1,2,0:0:0:0:
88,128,125743,6,0,L|228:124,2,130,2|0|8,0:0|0:0|0:0,0:0:0:0:
44,244,126814,2,0,L|49:308,1,65
192,236,127350,1,0,0:0:0:0:
192,236,127528,2,0,P|256:220|348:228,1,130
319,221,128064,2,0,L|316:140,1,65
312,304,128600,6,0,P|380:280|396:204,1,130,4|0,0:0|0:0,0:0:0:0:
256,56,129314,2,0,P|224:64|152:64,1,65,8|0,0:0|0:0,0:0:0:0:
152,28,129671,1,0,0:0:0:0:
152,28,130028,2,0,L|152:204,1,130,0|2,0:0|0:0,0:0:0:0:
144,328,130743,1,8,0:0:0:0:
264,208,131100,1,2,0:0:0:0:
392,332,131456,5,2,0:0:0:0:
392,332,131814,2,0,L|488:332,1,65
408,256,132171,2,0,P|332:280|316:340,1,130,8|0,0:0|0:0,0:0:0:0:
315,321,132706,1,2,0:0:0:0:
180,220,133064,1,2,0:0:0:0:
180,220,133242,1,2,0:0:0:0:
284,88,133600,2,0,B|364:56|364:56|444:68,1,130,8|2,0:0|0:0,0:0:0:0:
180,220,134314,54,0,L|28:204,1,130,2|0,0:0|0:0,0:0:0:0:
144,328,135028,1,8,0:0:0:0:
144,328,135207,2,0,L|296:312,1,130,0|2,0:0|0:0,0:0:0:0:
416,232,135921,2,0,L|404:320,1,65,2|2,0:0|0:0,0:0:0:0:
304,148,136457,1,8,0:0:0:0:
404,64,136814,1,2,0:0:0:0:
460,216,137171,6,0,B|452:356,2,130,2|0|8,0:0|0:0|0:0,0:0:0:0:
240,132,138242,2,0,P|232:172|240:208,1,65,0|2,0:0|0:0,0:0:0:0:
269,223,138599,2,0,L|140:220,1,130,0|2,0:0|0:0,0:0:0:0:
76,164,139135,2,0,P|72:128|80:92,1,65,0|12,0:0|0:0,0:0:0:0:
140,220,139493,2,0,P|144:256|136:292,1,65,0|2,0:0|0:0,0:0:0:0:
84,356,139850,1,0,0:0:0:0:
84,356,140028,6,0,L|268:348,1,130,6|0,0:0|0:0,0:0:0:0:
272,280,140564,1,0,0:0:0:0:
272,280,140743,2,0,P|316:268|364:272,1,65,8|0,0:0|0:0,0:0:0:0:
420,304,141100,2,0,L|424:200,1,65,0|2,0:0|0:0,0:0:0:0:
308,64,141635,2,0,L|304:168,1,65,2|2,0:0|0:0,0:0:0:0:
116,60,142171,1,8,0:0:0:0:
160,236,142528,1,2,0:0:0:0:
160,236,142707,1,0,0:0:0:0:
160,236,142885,6,0,P|176:304|172:380,1,130,2|0,0:0|0:0,0:0:0:0:
324,256,143599,1,8,0:0:0:0:
464,292,143956,2,0,L|456:376,1,65,0|2,0:0|0:0,0:0:0:0:
380,192,144492,2,0,L|388:108,1,65,2|2,0:0|0:0,0:0:0:0:
476,40,145028,1,8,0:0:0:0:
380,192,145385,1,2,0:0:0:0:
124,128,145743,54,0,B|90:164|90:164|62:244,1,130,2|0,0:0|0:0,0:0:0:0:
184,356,146457,1,8,0:0:0:0:
296,228,146814,2,0,P|296:196|292:164,1,65,0|2,0:0|0:0,0:0:0:0:
352,344,147350,2,0,P|384:340|415:332,1,65,2|2,0:0|0:0,0:0:0:0:
436,196,147885,1,8,0:0:0:0:
336,64,148242,1,2,0:0:0:0:
176,276,148599,5,2,0:0:0:0:
176,276,149671,1,0,0:0:0:0:
176,276,150028,2,0,B|188:220|188:220|120:228|120:228|132:196|100:156,1,181.999994445801,0|4,0:0|0:0,0:0:0:0:
112,174,151457,38,0,B|179:165|255:193|255:193|267:185|267:185|339:217|411:161,1,311.999990478516,4|8,0:0|0:0,0:0:0:0:
324,80,152528,1,0,0:0:0:0:
324,80,152885,1,0,0:0:0:0:
476,216,153064,1,2,0:0:0:0:
320,344,153242,1,2,0:0:0:0:
320,344,153600,2,0,B|244:348|244:348|208:304|152:280|104:312|64:344,1,233.999992858887,8|0,0:0|0:0,0:0:0:0:
103,316,154314,5,2,0:0:0:0:
348,264,154671,1,0,0:0:0:0:
348,264,155028,1,8,0:0:0:0:
292,120,155206,1,0,0:0:0:0:
224,276,155385,1,0,0:0:0:0:
224,276,155743,2,0,P|150:254|118:182,1,155.999995239258,0|2,0:0|0:0,0:0:0:0:
342,30,156457,2,0,P|416:52|448:124,1,155.999995239258,8|2,0:0|0:0,0:0:0:0:
332,232,156992,1,0,0:0:0:0:
197,145,157171,6,0,L|352:128,2,155.999995239258,6|0|8,0:0|0:0|0:0,0:0:0:0:
88,200,158064,2,0,L|81:122,1,77.999997619629
404,148,158599,2,0,L|396:316,1,155.999995239258,0|2,0:0|0:0,0:0:0:0:
115,303,159314,2,0,L|108:148,1,155.999995239258,8|2,0:0|0:0,0:0:0:0:
256,64,159849,1,0,0:0:0:0:
256,196,160028,70,0,B|256:392,2,155.999995239258,2|0|8,0:0|0:0|0:0,0:0:0:0:
148,64,161099,1,0,0:0:0:0:
416,60,161457,6,0,P|376:136|424:272,1,233.999992858887,0|12,0:0|0:0,0:0:0:0:
420,269,162885,6,0,P|379:188|139:220,1,311.999990478516,4|8,0:0|0:0,0:0:0:0:
112,304,163956,1,0,0:0:0:0:
436,168,164313,1,0,0:0:0:0:
296,208,164492,1,2,0:0:0:0:
352,72,164671,1,2,0:0:0:0:
352,72,165028,2,0,B|288:76|212:56|212:56|176:72|176:72|96:56,1,233.999992858887,8|0,0:0|0:0,0:0:0:0:
123,61,165742,69,2,0:0:0:0:
32,272,166099,1,0,0:0:0:0:
32,272,166457,1,8,0:0:0:0:
168,152,166635,1,0,0:0:0:0:
292,268,166813,1,0,0:0:0:0:
292,268,167170,2,0,B|112:280,1,155.999995239258,0|2,0:0|0:0,0:0:0:0:
300,352,167885,2,0,B|344:352|368:316|368:316|408:304|468:320,1,155.999995239258,8|2,0:0|0:0,0:0:0:0:
442,314,168420,1,0,0:0:0:0:
392,188,168600,6,0,L|404:8,2,155.999995239258,6|0|8,0:0|0:0|0:0,0:0:0:0:
356,264,169492,2,0,P|324:244|312:188,1,77.999997619629
248,80,170028,2,0,L|36:64,1,155.999995239258,0|2,0:0|0:0,0:0:0:0:
228,192,170743,2,0,L|440:176,1,155.999995239258,8|2,0:0|0:0,0:0:0:0:
248,80,171278,1,0,0:0:0:0:
228,192,171457,6,0,P|220:256|220:380,2,155.999995239258,2|0|8,0:0|0:0|0:0,0:0:0:0:
97,116,172527,1,0,0:0:0:0:
97,116,172885,70,0,B|125:98|125:98|167:109|167:109|186:77|186:77|225:93|225:93|248:80,1,181.999994445801,0|8,0:0|0:0,0:0:0:0:
329,233,174314,6,0,P|236:204|56:216,1,260,4|8,0:0|0:0,0:0:0:0:
388,303,175385,2,0,P|404:275|415:245,1,65,0|2,0:0|0:0,0:0:0:0:
388,160,175743,2,0,L|392:76,2,65,0|2|2,0:0|0:0|0:0,0:0:0:0:
388,160,176457,2,0,P|312:184|232:96,1,195,8|0,0:0|0:0,0:0:0:0:
324,96,177171,5,2,0:0:0:0:
152,32,177528,1,0,0:0:0:0:
40,176,177885,2,0,L|52:272,2,65,8|0|0,0:0|0:0|0:0,0:0:0:0:
92,100,178421,1,2,0:0:0:0:
144,176,178600,2,0,P|228:188|304:172,1,130,0|2,0:0|0:0,0:0:0:0:
424,84,179314,2,0,L|416:264,1,130,8|2,0:0|0:0,0:0:0:0:
296,348,180028,70,0,P|240:284|80:324,1,260,6|8,0:0|0:0,0:0:0:0:
44,168,181100,2,0,B|48:128|48:128|44:80,1,65,0|2,0:0|0:0,0:0:0:0:
192,44,181635,2,0,B|188:84|188:84|192:132,1,65,2|2,0:0|0:0,0:0:0:0:
280,236,182171,1,8,0:0:0:0:
408,108,182528,1,2,0:0:0:0:
408,108,182885,6,0,L|256:100,1,130,2|0,0:0|0:0,0:0:0:0:
150,229,183600,2,0,L|280:236,1,130,8|0,0:0|0:0,0:0:0:0:
280,236,184135,1,2,0:0:0:0:
372,372,184493,1,2,0:0:0:0:
372,372,184671,2,0,L|220:364,1,130,2|8,0:0|0:0,0:0:0:0:
372,124,185385,1,2,0:0:0:0:
372,124,185743,6,0,B|356:188|356:188|372:220|364:292,2,130,4|0|8,0:0|0:0|0:0,0:0:0:0:
220,92,186814,2,0,P|180:96|120:80,1,65,0|2,0:0|0:0,0:0:0:0:
96,64,187171,2,0,B|112:128|112:128|104:200,1,130,0|2,0:0|0:0,0:0:0:0:
32,332,187885,2,0,P|164:316|272:312,1,195,8|0,0:0|0:0,0:0:0:0:
225,312,188600,69,2,0:0:0:0:
376,348,188957,1,0,0:0:0:0:
476,228,189314,2,0,P|476:163|478:98,1,130,8|0,0:0|0:0,0:0:0:0:
478,98,189850,1,2,0:0:0:0:
332,44,190207,1,2,0:0:0:0:
332,43,190385,2,0,P|334:107|334:172,1,130,2|8,0:0|0:0,0:0:0:0:
212,272,191100,1,2,0:0:0:0:
132,100,191457,5,6,0:0:0:0:
132,100,192171,2,0,L|292:84,1,130,8|0,0:0|0:0,0:0:0:0:
116,136,192885,5,4,0:0:0:0:
116,136,193600,2,0,L|276:120,1,130,8|0,0:0|0:0,0:0:0:0:
96,172,194314,69,4,0:0:0:0:
80,204,195028,5,4,0:0:0:0:
64,236,195743,5,4,0:0:0:0:
48,268,196457,69,4,0:0:0:0:
272,252,197171,37,0,0:0:0:0:
280,304,205743,6,0,L|196:292,1,65,0|2,0:0|0:0,0:0:0:0:
120,164,206457,6,0,L|228:180,1,97.50000371933,2|2,0:0|0:0,0:0:0:0:
396,292,207171,1,2,0:0:0:0:
308,184,207528,1,2,0:0:0:0:
452,32,207885,1,2,0:0:0:0:
508,216,208243,1,2,0:0:0:0:
356,104,208600,38,0,B|289:95|213:123|213:123|201:115|201:115|129:147|57:91,1,311.999990478516,4|8,0:0|0:0,0:0:0:0:
144,32,209671,1,0,0:0:0:0:
144,32,210028,1,0,0:0:0:0:
36,208,210207,1,2,0:0:0:0:
224,296,210385,1,2,0:0:0:0:
224,296,210743,2,0,P|312:232|480:296,1,233.999992858887,8|0,0:0|0:0,0:0:0:0:
430,248,211457,5,2,0:0:0:0:
328,36,211814,1,0,0:0:0:0:
328,36,212171,1,8,0:0:0:0:
192,144,212349,1,0,0:0:0:0:
292,288,212528,1,0,0:0:0:0:
292,288,212885,2,0,P|212:264|112:268,1,155.999995239258,0|2,0:0|0:0,0:0:0:0:
40,119,213600,2,0,P|114:142|192:143,1,155.999995239258,8|2,0:0|0:0,0:0:0:0:
308,64,214135,1,0,0:0:0:0:
284,184,214314,70,0,P|276:236|272:364,2,155.999995239258,4|0|8,0:0|0:0|0:0,0:0:0:0:
407,196,215207,2,0,L|400:118,1,77.999997619629
112,32,215743,2,0,L|104:200,1,155.999995239258,0|2,0:0|0:0,0:0:0:0:
400,352,216457,2,0,L|407:196,1,155.999995239258,8|2,0:0|0:0,0:0:0:0:
256,72,216993,1,0,0:0:0:0:
256,204,217171,6,0,B|256:400,2,155.999995239258,2|0|8,0:0|0:0|0:0,0:0:0:0:
88,112,218242,1,0,0:0:0:0:
48,300,218600,6,0,P|204:320|308:328,1,233.999992858887,0|12,0:0|0:0,0:0:0:0:
280,326,220028,70,0,B|296:280|268:224|268:224|300:148|300:148|220:180|124:96,1,311.999990478516,4|8,0:0|0:0,0:0:0:0:
260,32,221099,1,0,0:0:0:0:
260,32,221456,1,0,0:0:0:0:
376,192,221635,1,2,0:0:0:0:
168,240,221814,1,2,0:0:0:0:
168,240,222171,2,0,B|248:248|304:240|304:240|340:276|340:276|376:280|424:276,1,233.999992858887,8|0,0:0|0:0,0:0:0:0:
386,277,222885,5,2,0:0:0:0:
168,352,223242,1,0,0:0:0:0:
168,352,223599,1,8,0:0:0:0:
100,128,223777,1,0,0:0:0:0:
296,240,223956,1,0,0:0:0:0:
296,240,224313,2,0,B|476:252,1,155.999995239258,0|2,0:0|0:0,0:0:0:0:
288,324,225028,2,0,B|244:324|220:288|220:288|180:276|120:292,1,155.999995239258,8|2,0:0|0:0,0:0:0:0:
76,340,225563,1,0,0:0:0:0:
212,172,225743,6,0,P|280:136|392:180,2,155.999995239258,6|0|8,0:0|0:0|0:0,0:0:0:0:
180,244,226635,2,0,P|148:224|136:168,1,77.999997619629
468,72,227171,2,0,L|452:272,1,155.999995239258,0|2,0:0|0:0,0:0:0:0:
180,116,227885,2,0,L|392:100,1,155.999995239258,8|2,0:0|0:0,0:0:0:0:
292,24,228421,1,0,0:0:0:0:
276,204,228600,70,0,B|264:308|264:308|296:368,2,155.999995239258,2|0|8,0:0|0:0|0:0,0:0:0:0:
88,324,229670,1,0,0:0:0:0:
88,324,230028,6,0,B|80:288|104:256|104:256|76:220|80:188|80:188|104:164|104:164|80:132|84:104,1,233.999992858887,0|12,0:0|0:0,0:0:0:0:
83,115,231457,6,0,B|180:108|260:168|260:168|300:104|396:100,1,311.999990478516,4|8,0:0|0:0,0:0:0:0:
240,36,232528,1,0,0:0:0:0:
240,36,232885,1,0,0:0:0:0:
364,200,233064,1,2,0:0:0:0:
148,232,233243,1,2,0:0:0:0:
148,232,233600,2,0,P|192:336|344:324,1,233.999992858887,8|0,0:0|0:0,0:0:0:0:
301,351,234314,69,2,0:0:0:0:
400,80,234671,1,0,0:0:0:0:
400,80,235028,1,8,0:0:0:0:
220,56,235206,1,0,0:0:0:0:
288,224,235385,1,0,0:0:0:0:
288,224,235743,2,0,P|364:188|468:212,1,155.999995239258,0|2,0:0|0:0,0:0:0:0:
224,316,236457,2,0,P|148:352|44:328,1,155.999995239258,8|2,0:0|0:0,0:0:0:0:
12,276,236992,1,0,0:0:0:0:
320,344,237171,6,0,B|424:348|424:348|496:376,1,155.999995239258,6|0,0:0|0:0,0:0:0:0:
428,204,237885,1,8,0:0:0:0:
344,160,238064,2,0,P|336:116|337:82,1,77.999997619629
264,252,238599,2,0,L|52:268,1,155.999995239258,0|2,0:0|0:0,0:0:0:0:
20,104,239314,2,0,L|232:120,1,155.999995239258,8|2,0:0|0:0,0:0:0:0:
248,24,239849,1,0,0:0:0:0:
344,48,240028,6,0,L|344:224,2,155.999995239258,2|0|8,0:0|0:0|0:0,0:0:0:0:
46,240,241100,1,0,0:0:0:0:
45,239,241457,70,0,B|97:239|137:223|137:223|157:235|157:235|205:171|256:192,1,233.999992858887,0|8,0:0|0:0,0:0:0:0:
255,191,242885,37,2,0:0:0:0:
256,192,243064,12,0,247171,0:0:0:0:
