osu file format v11

[General]
AudioFilename: gustavo.mp3
AudioLeadIn: 0
PreviewTime: -1
Countdown: 1
SampleSet: None
StackLeniency: 0.7
Mode: 0
LetterboxInBreaks: 1

[Editor]
DistanceSpacing: 0.4
BeatDivisor: 4
GridSize: 8

[Metadata]
Title:Balada Boa (Curta Ver.)
TitleUnicode:Balada Boa (Curta Ver.)
Artist:Gusttavo Lima
ArtistUnicode:Gusttavo Lima
Creator:Iz-Ko
Version:Normal
Source:
Tags:
BeatmapID:204948
BeatmapSetID:71516

[Difficulty]
HPDrainRate:2
CircleSize:3
OverallDifficulty:3
ApproachRate:4
SliderMultiplier:1.5
SliderTickRate:1

[Events]
//Background and Video events
0,0,"Konachan.com - 151549 blue blue_hair izumi_konata long_hair lucky_star panties shorts umbrella underwear.jpg"
//Break Periods
2,31943,38393
2,45069,45893
2,52569,53627
2,69444,75893
2,90069,90893
//Storyboard Layer 0 (Background)
//Storyboard Layer 1 (Fail)
//Storyboard Layer 2 (Pass)
//Storyboard Layer 3 (Foreground)
//Storyboard Sound Samples
//Background Colour Transformations
3,100,163,162,255

[TimingPoints]
9713,468.75,4,3,0,100,1,0
21900,-83.3333333333333,4,3,0,100,0,0
43228,-200,4,3,0,100,0,0
46417,-83.3333333333333,4,3,0,100,0,0
50728,-100,4,3,0,100,0,0
65963,-142.857142857143,4,3,0,100,0,0
76275,-100,4,3,0,100,0,0
78853,-142.857142857143,4,3,0,100,0,0
80963,-83.3333333333333,4,3,0,100,0,0
82720,-142.857142857143,4,3,0,100,0,0
84502,-83.3333333333333,4,3,0,100,0,0
88267,-100,4,3,0,100,0,0
91978,-83.3333333333333,4,3,0,100,0,0
95728,-100,4,3,0,100,0,0

[Colours]
Combo1 : 128,128,255
Combo2 : 0,128,192
Combo3 : 0,128,255

[HitObjects]
88,72,9947,2,0,P|136:160|224:88,1,225,2|0,0:0|0:0,0:0:0
344,88,11119,1,2,0:0:0
400,192,11588,1,8,0:0:0
320,280,12056,2,0,P|184:344,1,150
128,240,12994,1,4,0:0:0
224,88,13697,6,0,P|304:152|224:216,1,225,8|2,0:0|0:0,0:0:0
304,312,14869,1,2,0:0:0
184,312,15338,1,4,0:0:0
64,304,15806,2,0,P|96:224|56:224|80:136,1,150,8|2,0:0|0:0,0:0:0
72,40,16744,1,4,0:0:0
248,40,17447,6,0,P|320:119|373:25,1,225,2|0,0:0|0:0,0:0:0
496,80,18619,2,0,P|496:240,1,150,2|8,0:0|0:0,0:0:0
384,272,19556,2,0,P|298:320|311:278|219:324,1,150
152,320,20377,1,0,0:0:0
128,232,20728,2,0,P|227:181,1,75,0|8,0:0|0:0,0:0:0
280,40,21666,5,2,0:0:0
336,88,21900,1,0,0:0:0
392,128,22134,1,2,0:0:0
448,176,22369,2,0,P|448:263|349:263,1,179.999994506836,0|4,0:0|0:0,0:0:0
112,78,24713,6,0,P|213:195|302:66,1,359.999989013672,4|0,0:0|0:0,0:0:0
448,72,26118,1,2,0:0:0
448,216,26588,6,0,P|347:333|258:204,1,359.999989013672,4|0,0:0|0:0,0:0:0
192,72,27994,1,0,0:0:0
88,176,28463,1,8,0:0:0
88,248,28697,2,4,P|187:248,1,89.9999972534181
392,280,29634,2,4,P|500:280,1,89.9999972534181
480,64,30572,2,8,P|353:64,3,89.9999972534181
336,112,31509,2,4,P|365:163|322:161|352:220,1,89.9999972534181
464,64,39713,6,0,P|344:117,3,89.9999972534181,2|0|2|0,0:0|0:0|0:0|0:0,0:0:0
312,112,40650,2,0,P|252:28,3,89.9999972534181,2|0|2|0,0:0|0:0|0:0|0:0,0:0:0
192,56,41588,2,0,P|139:132,3,89.9999972534181,2|0|2|0,0:0|0:0|0:0|0:0,0:0:0
104,192,42525,1,2,0:0:0
184,312,42994,1,2,0:0:0
240,288,43463,2,0,P|344:221|344:280|443:194,1,225,8|4,0:0|0:0,0:0:0
56,64,47213,6,0,P|176:117,3,89.9999972534181,2|0|2|0,0:0|0:0|0:0|0:0,0:0:0
208,120,48150,2,0,P|268:36,3,89.9999972534181,2|0|2|0,0:0|0:0|0:0|0:0,0:0:0
336,48,49088,2,0,P|389:124,3,89.9999972534181,2|0|2|0,0:0|0:0|0:0|0:0,0:0:0
416,184,50025,1,2,0:0:0
328,296,50494,1,2,0:0:0
216,256,50963,2,0,P|176:187|117:256|102:175,3,150,4|0|4|8,0:0|0:0|0:0|0:0,0:0:0
88,64,54947,6,2,P|180:135|209:52|316:144,1,225
416,136,56119,1,4,0:0:0
416,280,56822,2,2,P|324:351|295:268|188:360,1,225
120,264,57994,1,4,0:0:0
104,88,58697,2,2,P|256:48,2,150
48,104,59869,1,4,0:0:0
256,192,60338,12,2,61978,0:0:0
440,88,62447,5,0,0:0:0
384,88,62681,1,0,0:0:0
320,88,62916,2,0,P|248:152|328:216,1,225,2|4,0:0|0:0,0:0:0
72,296,64322,5,0,0:0:0
128,296,64556,1,0,0:0:0
192,296,64791,2,0,P|264:232|184:168,1,225,2|4,0:0|0:0,0:0:0
112,64,66197,2,0,P|200:72|168:16|272:8,1,157.499995193482,8|4,0:0|0:0,0:0:0
368,184,68072,2,0,P|312:168,2,52.4999983978272,2|0|8,0:0|0:0|0:0,0:0:0
456,192,68775,1,4,0:0:0
456,272,69244,1,4,0:0:0
72,80,77213,6,0,P|136:120|200:64,1,150,2|0,0:0|0:0,0:0:0
312,88,78150,1,2,0:0:0
432,88,78619,1,0,0:0:0
432,176,79088,2,0,P|368:280|368:280|280:280,1,209.999993591309,2|0,0:0|0:0,0:0:0
240,280,80259,1,8,0:0:0
160,280,80728,1,8,0:0:0
96,216,81197,6,2,P|192:184,1,89.9999972534181,2|6,0:0|0:0,0:0:0
224,88,82134,2,2,P|152:64,1,75,2|10,0:0|0:0,0:0:0
296,40,83072,2,0,P|448:64|448:64|456:192,1,262.499991989136
456,320,84713,6,0,P|336:267,3,89.9999972534181,2|0|2|0,0:0|0:0|0:0|0:0,0:0:0
304,256,85650,2,0,P|244:340,3,89.9999972534181,2|0|2|0,0:0|0:0|0:0|0:0,0:0:0
184,320,86588,2,0,P|131:244,3,89.9999972534181,2|0|2|0,0:0|0:0|0:0|0:0,0:0:0
96,184,87525,1,2,0:0:0
152,48,87994,1,2,0:0:0
272,80,88463,2,0,P|312:149|371:80|386:161,3,150,8|0|8|4,0:0|0:0|0:0|0:0,0:0:0
72,344,92213,6,0,P|125:224,3,89.9999972534181,2|0|2|0,0:0|0:0|0:0|0:0,0:0:0
136,192,93150,2,0,P|52:132,3,89.9999972534181,2|0|2|0,0:0|0:0|0:0|0:0,0:0:0
120,96,94088,2,0,P|196:43,3,89.9999972534181,2|0|2|0,0:0|0:0|0:0|0:0,0:0:0
264,32,95025,1,2,0:0:0
392,104,95494,1,2,0:0:0
336,208,95963,2,0,P|267:248|336:307|255:322,3,150,8|0|8|4,0:0|0:0|0:0|0:0,0:0:0
