osu file format v11

[General]
AudioFilename: gustavo.mp3
AudioLeadIn: 0
PreviewTime: -1
Countdown: 1
SampleSet: None
StackLeniency: 0.7
Mode: 0
LetterboxInBreaks: 1

[Editor]
DistanceSpacing: 1.3
BeatDivisor: 8
GridSize: 8

[Metadata]
Title:Balada Boa (Curta Ver.)
TitleUnicode:Balada Boa (Curta Ver.)
Artist:Gusttavo Lima
ArtistUnicode:Gusttavo Lima
Creator:Iz-Ko
Version:Hard
Source:
Tags:
BeatmapID:204947
BeatmapSetID:71516

[Difficulty]
HPDrainRate:5
CircleSize:4
OverallDifficulty:8
ApproachRate:7
SliderMultiplier:1.5
SliderTickRate:1

[Events]
//Background and Video events
0,0,"Konachan.com - 151549 blue blue_hair izumi_konata long_hair lucky_star panties shorts umbrella underwear.jpg"
//Break Periods
2,31943,38813
2,76944,84047
//Storyboard Layer 0 (Background)
//Storyboard Layer 1 (Fail)
//Storyboard Layer 2 (Pass)
//Storyboard Layer 3 (Foreground)
//Storyboard Sound Samples
//Background Colour Transformations
3,100,163,162,255

[TimingPoints]
9713,468.75,4,3,0,100,1,0
24595,-62.5,4,3,0,100,0,0
50845,-100,4,3,0,100,0,0
60103,-125,4,3,0,100,0,0
65963,-76.9230769230769,4,3,0,100,0,0
69009,-200,4,3,0,100,0,0
70416,-62.5,4,3,0,100,0,0
73580,-125,4,3,0,100,0,0
75338,-100,4,3,0,100,0,0

[Colours]
Combo1 : 128,128,255
Combo2 : 0,128,192
Combo3 : 0,128,255

[HitObjects]
96,96,9947,1,2,0:0:0
184,96,10181,2,0,P|232:144|280:88,1,150
464,96,11119,1,2,0:0:0
464,184,11353,2,2,P|448:248|480:248|456:368,1,150,8|8,0:0|0:0,0:0:0
376,304,12056,2,0,P|328:352|272:296,1,150,2|0,0:0|0:0,0:0:0
192,272,12759,1,4,0:0:0
112,232,12994,1,4,0:0:0
448,48,13697,6,2,P|360:96,1,75
296,120,14166,1,0,0:0:0
216,152,14400,2,2,P|256:224,2,75
136,112,15103,1,8,0:0:0
136,296,15572,1,8,0:0:0
224,296,15806,2,0,P|280:336|320:272,1,150,4|0,0:0|0:0,0:0:0
280,200,16509,2,2,P|360:200,1,75
424,64,17447,5,0,0:0:0
352,120,17681,1,0,0:0:0
288,64,17916,1,0,0:0:0
200,64,18150,2,0,P|176:136|216:136|176:216,1,150,10|0,0:0|0:0,0:0:0
120,280,18853,1,8,0:0:0
120,280,19088,1,0,0:0:0
200,320,19322,2,0,P|296:320,1,75,8|0,0:0|0:0,0:0:0
360,288,19791,5,0,0:0:0
416,216,20025,1,2,0:0:0
328,168,20377,1,2,0:0:0
392,96,20670,1,0,0:0:0
392,96,20963,1,4,0:0:0
80,88,21607,6,0,P|80:192,1,75
80,256,22076,2,2,P|80:352,3,75
168,336,23013,2,0,P|240:288,5,75,0|0|0|0|0|8,0:0|0:0|0:0|0:0|0:0|0:0,0:0:0
312,264,24420,1,4,0:0:0
440,192,24713,6,0,P|440:120,2,60,2|0|0,0:0|0:0|0:0,0:0:0
304,136,25181,1,2,0:0:0
160,144,25416,1,0,0:0:0
40,216,25650,2,0,P|-8:152,2,60,2|0|2,0:0|0:0|0:0,0:0:0
128,248,26119,1,0,0:0:0
128,248,26353,1,0,0:0:0
272,256,26588,6,2,P|352:328|408:240,1,240
432,96,27291,1,0,0:0:0
288,112,27525,2,2,P|208:40|152:128,1,240
56,232,28228,1,0,0:0:0
56,376,28463,1,8,0:0:0
176,296,28697,6,0,P|248:200,1,120,2|4,0:0|0:0,0:0:0
432,216,29634,2,0,P|360:120,1,120,2|4,0:0|0:0,0:0:0
192,80,30572,2,0,P|120:168,2,60
128,208,31041,2,0,P|104:264|168:296,1,120,2|8,0:0|0:0,0:0:0
272,240,31509,2,0,P|296:184|232:152,1,120,2|4,0:0|0:0,0:0:0
440,40,39713,6,0,P|336:120,1,120,2|0,0:0|0:0,0:0:0
216,176,40181,2,0,P|136:176,2,60,2|0|2,0:0|0:0|0:0,0:0:0
88,240,40650,6,0,P|192:320,1,120,2|0,0:0|0:0,0:0:0
328,312,41119,2,0,P|408:312,2,60,2|0|2,0:0|0:0|0:0,0:0:0
440,136,41588,6,0,P|360:240,1,120,2|0,0:0|0:0,0:0:0
368,104,42056,6,0,P|288:208,1,120,2|0,0:0|0:0,0:0:0
72,152,42525,6,0,P|152:256,1,120,2|0,0:0|0:0,0:0:0
136,104,42994,6,0,P|216:208,1,120,2|0,0:0|0:0,0:0:0
256,72,43463,1,4,0:0:0
256,360,43931,1,4,0:0:0
152,304,44400,1,4,0:0:0
368,304,44869,1,8,0:0:0
264,224,45572,6,0,P|272:152|248:152|272:80,1,120,2|0,0:0|0:0,0:0:0
368,64,46041,2,0,P|432:64|440:128,2,120,2|0|0,0:0|0:0|0:0,0:0:0
376,168,46744,1,8,0:0:0
352,272,46978,1,4,0:0:0
248,296,47213,1,4,0:0:0
144,264,47447,2,0,P|144:136,2,120,2|0|0,0:0|0:0|0:0,0:0:0
240,216,48150,5,2,0:0:0
248,112,48384,2,0,P|304:128|336:72,2,120
200,8,49088,5,2,0:0:0
304,8,49322,2,0,P|432:8,1,120
424,120,49791,1,0,0:0:0
400,224,50025,5,2,0:0:0
344,320,50259,2,0,P|264:320,2,60
232,320,50728,1,0,0:0:0
152,288,50963,6,8,P|176:200|216:248|248:160,3,150
288,32,52838,5,2,0:0:0
320,64,52955,1,0,0:0:0
336,104,53072,1,2,0:0:0
336,152,53189,1,0,0:0:0
328,200,53306,1,2,0:0:0
304,240,53423,1,0,0:0:0
256,248,53541,2,0,P|240:304,3,37.5,2|0|2|0,0:0|0:0|0:0|0:0,0:0:0
224,240,54009,2,0,P|200:272,3,37.5,2|0|2|0,0:0|0:0|0:0|0:0,0:0:0
176,232,54478,2,0,P|208:176,2,37.5,2|0|2,0:0|0:0|0:0,0:0:0
224,152,54947,6,0,P|264:80|208:24,1,150,4|0,0:0|0:0,0:0:0
48,8,55884,1,2,0:0:0
40,96,56119,1,4,0:0:0
32,232,56588,2,0,P|144:216|128:160|224:120,1,225,8|0,0:0|0:0,0:0:0
400,72,57994,1,2,0:0:0
400,136,58228,1,4,0:0:0
352,184,58463,6,0,P|240:168|160:264,1,225,8|0,0:0|0:0,0:0:0
168,376,59634,1,2,0:0:0
232,376,59869,1,2,0:0:0
336,352,60338,2,0,P|248:264,2,120,4|0|4,0:0|0:0|0:0,0:0:0
320,80,62447,6,0,P|400:80,1,60,2|0,0:0|0:0,0:0:0
432,80,62916,2,0,P|488:144|408:200,1,180,8|0,0:0|0:0,0:0:0
264,152,64322,2,0,P|176:152,1,60,2|0,0:0|0:0,0:0:0
152,152,64790,2,0,P|96:216|176:272,1,180,8|0,0:0|0:0,0:0:0
272,152,66197,6,0,P|368:96,1,97.4999955368044,2|0,0:0|0:0,0:0:0
432,64,66900,1,2,0:0:0
456,304,68072,2,2,P|344:304,2,97.4999955368044
456,216,68775,1,4,0:0:0
456,184,69009,1,4,0:0:0
456,152,69244,2,0,P|304:152,1,150,4|2,0:0|0:0,0:0:0
72,64,71119,5,2,0:0:0
288,96,71588,2,0,P|232:48|216:128,1,180,8|0,0:0|0:0,0:0:0
168,280,72291,1,2,0:0:0
224,272,72408,1,2,0:0:0
280,264,72525,1,8,0:0:0
376,232,72759,2,0,P|400:288|360:344,1,120,0|2,0:0|0:0,0:0:0
264,344,73228,2,0,P|208:320|152:360,1,120,0|2,0:0|0:0,0:0:0
104,304,73697,6,0,P|48:360,1,60,0|4,0:0|0:0,0:0:0
88,152,74634,2,0,P|136:104,1,60,0|4,0:0|0:0,0:0:0
312,80,75572,2,2,P|312:168|392:112|416:200,1,150
360,216,76275,1,2,0:0:0
320,264,76509,1,8,0:0:0
368,304,76744,1,2,0:0:0
104,80,84947,5,8,0:0:0
192,80,85181,1,8,0:0:0
448,176,85884,1,8,0:0:0
360,176,86119,1,8,0:0:0
184,224,86588,2,0,P|176:288|248:280,2,150,4|8|4,0:0|0:0|0:0,0:0:0
168,160,87759,1,4,0:0:0
192,136,87877,1,0,0:0:0
216,112,87994,1,8,0:0:0
352,208,88463,6,0,P|360:272|288:264,3,150,4|8|4|2,0:0|0:0|0:0|0:0,0:0:0
88,288,90572,2,0,P|88:376,1,75,2|0,0:0|0:0,0:0:0
160,296,91041,2,0,P|160:192,3,75
216,120,91978,1,0,0:0:0
312,112,92213,2,0,P|384:168|344:224,1,150,2|0,0:0|0:0,0:0:0
368,304,92916,1,0,0:0:0
192,120,93150,6,0,P|120:176|160:232,1,150,2|0,0:0|0:0,0:0:0
144,312,93853,1,0,0:0:0
240,312,94088,5,2,0:0:0
280,344,94205,1,0,0:0:0
328,352,94322,1,0,0:0:0
376,336,94439,1,0,0:0:0
416,304,94556,1,2,0:0:0
416,216,94791,1,4,0:0:0
416,120,95025,6,0,P|328:120,2,75,2|0|2,0:0|0:0|0:0,0:0:0
416,24,95728,1,2,0:0:0
318,24,95963,1,8,0:0:0
236,200,96431,1,8,0:0:0
136,360,96900,1,8,0:0:0
32,200,97369,1,4,0:0:0
256,192,98072,12,2,99713,0:0:0
