osu file format v9

[General]
AudioFilename: iroha uta.mp3
AudioLeadIn: 0
PreviewTime: 133090
Countdown: 0
SampleSet: Soft
StackLeniency: 0.7
Mode: 0
LetterboxInBreaks: 1

[Editor]
DistanceSpacing: 1
BeatDivisor: 4
GridSize: 8

[Metadata]
Title:Iroha uta
Artist:Gurutamin
Creator:Strawberry
Version:Normal
Source:Nico Nico Douga
Tags:Twice niconico vocaloid kagamine rin

[Difficulty]
HPDrainRate:3
CircleSize:3
OverallDifficulty:4
ApproachRate:5
SliderMultiplier:1.3
SliderTickRate:1

[Events]
//Background and Video events
0,0,"moe 171793 sample.jpg"
//Break Periods
2,44337,48518
2,80616,87588
2,122476,127356
2,155965,162937
2,167128,172704
//Storyboard Layer 0 (Background)
//Storyboard Layer 1 (Fail)
//Storyboard Layer 2 (Pass)
//Storyboard Layer 3 (Foreground)
//Storyboard Sound Samples
//Background Colour Transformations
3,100,163,162,255

[TimingPoints]
2277,348.837209302326,4,1,0,40,1,0
21724,-100,4,1,0,30,0,0
24515,-100,4,2,0,60,0,0
32015,-100,4,1,0,40,0,0
35678,-100,4,2,0,70,0,0
52335,-100,4,1,0,40,0,0
55300,-100,4,1,0,40,0,1
80416,-100,4,1,0,40,0,0
88701,-100,4,1,1,40,0,0
99079,-100,4,2,0,50,0,0
108236,-100,4,1,0,20,0,0
110067,-100,4,1,1,30,0,0
120620,-133.333333333333,4,1,0,30,0,0
122189,-100,4,2,0,70,0,0
133439,-100,4,1,0,40,0,1
155765,-100,4,1,1,40,0,0
186114,-100,4,2,0,20,0,0
186375,-100,4,1,1,30,0,0
189253,-100,4,1,0,40,0,1
217160,-200,4,2,0,20,0,0

[Colours]
Combo1 : 128,255,255
Combo2 : 242,168,247
Combo3 : 130,255,130

[HitObjects]
256,192,6463,12,0,9602
104,96,9951,6,0,B|96:184|192:232,1,130
256,216,10649,1,0
408,96,11346,6,0,B|416:184|320:232,1,130
256,216,12044,1,4
256,88,12742,6,0,B|256:240,1,130
152,224,13439,2,0,B|168:312|256:320,3,130
344,312,14835,1,4
416,120,15532,5,0
336,56,15881,1,0
264,128,16230,1,4
96,264,16928,5,0
176,328,17277,1,0
248,256,17626,1,4
320,64,18323,6,0,B|256:88|240:168,1,130
336,152,19021,2,0,B|400:176|432:248,1,130,4|0
328,224,19718,2,0,B|343:290|302:357,1,130,4|0
264,256,20416,6,0,B|244:321|174:358,2,130,4|0|0
160,240,21463,2,0,B|179:174|249:137,1,130,0|4
312,32,22160,5,0
440,80,22509,2,0,B|368:80|320:160,1,130
360,184,23032,1,0
384,232,23207,2,0,B|320:304|192:328,1,195
160,328,23904,2,0,B|192:264|152:152,1,130
272,184,24602,6,0,B|296:264|376:264,2,130,2|0|2
312,88,25649,1,0
376,168,25997,1,2
312,88,26346,1,0
272,184,26695,1,2
112,247,27218,6,0,B|112:312,2,65
192,177,27916,2,0,B|192:112,2,65
272,247,28614,6,0,B|272:312,2,65
352,184,29311,2,0,B|352:360,1,130,2|0
440,248,30009,6,0,B|440:160,1,65
344,96,30532,1,0
256,192,30881,1,2
168,96,31230,1,0
80,192,31579,1,2
360,328,32451,6,0,B|448:224,1,130
424,176,32974,2,0,B|344:208|240:168,1,130
216,120,33672,2,0,B|296:88|400:128,1,130
392,112,34195,2,0,B|352:208|360:280,1,130
392,280,34718,2,0,B|296:296|200:288,1,130
184,224,35416,1,4
120,144,35765,6,0,B|168:88|224:56,1,130,2|0
248,160,36463,2,0,B|317:135|382:135,1,130,2|0
336,232,37160,2,0,B|240:280|96:264,1,195,2|0
96,288,37858,2,0,B|112:208|96:152,1,130,0|2
192,104,38556,5,0
384,184,39253,2,0,B|384:336,1,130
280,288,39951,2,0,B|320:160|288:40,1,195,2|0
336,64,40649,2,0,B|256:80|160:56,1,130
128,128,41346,5,2
176,248,41695,1,0
256,144,42044,1,2
336,248,42393,1,0
384,128,42742,1,2
256,192,42916,12,4,44137
176,112,49718,6,0,B|112:144|88:224,1,130,2|0
200,280,50416,2,0,B|128:275|67:332,1,130,0|2
120,200,51114,2,0,B|191:204|252:147,1,130,2|0
312,264,51811,2,0,B|360:136|488:64,1,260,2|0
216,88,53207,5,0
72,304,53904,1,0
144,200,54253,1,0
256,136,54602,1,0
368,200,54951,1,0
440,304,55300,1,4
184,256,55997,6,0,B|320:200|344:32,1,260,8|0
216,104,57044,2,0,B|80:104,1,130,0|12
208,336,58090,1,0
336,336,58439,1,8
272,224,58788,1,0
208,336,59137,1,8
336,336,59486,2,0,B|472:272|472:96,1,260,0|12
216,88,60881,6,0,B|88:136|32:296,2,260,4|8|0
328,152,62625,1,8
264,256,62974,2,0,B|336:304|432:224,1,130,0|8
256,192,63672,12,0,65067
256,56,65765,6,0,B|256:208,1,130
128,168,66463,2,0,B|144:240|232:288,1,130,4|8
336,272,67160,1,0
464,272,67509,1,8
400,160,67858,2,0,B|368:80|296:48,3,130,0|8|0|8
192,80,69253,5,4
80,152,69602,2,0,B|144:184|168:256,1,130,8|0
112,368,70300,2,0,B|176:381|236:342,1,130,8|0
256,280,70823,1,0
240,216,70997,2,0,B|307:193|366:223,1,130,8|0
392,96,71695,1,8
272,48,72044,6,0,B|200:160|64:232,1,260,4|0
72,56,73439,2,0,B|160:176,1,130,0|8
256,88,74137,2,0,B|344:208,1,130,0|8
256,320,74835,6,4,B|256:232,1,65
256,128,75358,2,0,B|304:176|392:192,2,130
136,72,76404,2,0,B|136:216,1,130
192,232,76928,2,0,B|344:192|456:336,1,260,8|4
256,192,77800,12,0,80416
256,96,88788,6,0,B|192:224|32:288,1,260
192,312,89835,1,0
320,328,90183,2,0,B|344:256|408:224,3,130
336,112,91579,6,0,B|264:208|96:248,1,260
56,128,92625,1,0
184,112,92974,2,0,B|200:192|264:240,1,130
360,160,93672,2,0,B|413:221|493:230,1,130
368,312,94370,6,0,B|216:304|168:144,1,260
304,160,95416,1,0
368,48,95765,2,0,B|432:88|448:160,3,130
376,264,97160,6,0,B|248:184|112:272,1,260
176,144,98207,2,0,B|232:128|256:72,1,65
416,328,99428,6,0,B|344:272|232:240,1,195
312,176,100300,1,0
264,176,100474,1,0
208,176,100649,1,2
152,264,100997,1,0
104,248,101172,2,0,B|104:184|48:128,1,130
80,88,101695,2,0,B|368:88,1,260,2|0
368,192,102742,6,0,B|400:216|448:224,3,65,0|0|2|2
472,120,103614,1,0
448,72,103788,2,0,B|384:112|296:64,1,130,2|0
224,120,104486,1,2
192,160,104660,2,0,B|184:240|72:288,1,130
208,320,105358,5,0
240,280,105532,2,0,B|328:176,1,130,0|2
288,144,106056,1,0
240,120,106230,2,0,B|128:40,1,130,0|2
136,96,106753,1,0
136,152,106928,2,0,B|88:192|72:272,1,130,0|2
120,280,107451,2,0,B|336:280,1,195,0|2
424,328,108323,5,0
424,200,108672,2,0,B|424:120,2,65
312,128,109370,2,0,B|312:64,1,65
104,64,110242,6,0,B|200:96|232:168,1,130
216,200,110765,1,0
152,192,110939,1,0
88,199,111114,2,0,B|125:294|90:364,1,130,4|8
168,320,111637,1,0
232,328,111811,2,0,B|296:304|360:312,1,130,0|8
392,256,112335,6,0,B|392:120,1,130
368,64,112858,2,0,B|304:160|136:192,1,260,8|8
104,144,113730,1,0
144,96,113904,6,0,B|224:136|256:224,1,130,0|8
360,152,114602,2,0,B|409:226|392:318,1,130,0|8
280,328,115300,2,0,B|176:232|16:240,1,260,0|4
256,88,116695,5,0
256,352,117393,1,0
120,128,118090,1,0
384,128,118788,1,0
256,168,119137,6,0,B|312:216|336:280,1,130
232,272,119835,1,0
184,368,120183,6,0,B|128:320|104:256,1,130
8,248,120881,2,0,B|40:152|160:120,1,194.999994188547,0|0
184,216,121928,2,2,B|280:216,1,97.4999970942737,0|4
256,104,128556,6,0,B|256:240,4,130,2|0|2|0|6
88,200,130649,5,2
344,200,131346,1,0
120,336,132044,2,0,B|192:312|240:248,1,130,2|0
184,144,132742,2,0,B|218:96|290:72,1,130,2|0
392,152,133439,5,6
200,328,134137,1,0
104,88,134835,2,0,B|192:200,1,130,0|8
280,104,135532,2,0,B|336:160|416:152,1,130,0|8
288,224,136230,6,0,B|216:352|40:352,1,260,0|4
72,88,137625,1,0
192,128,137974,1,8
88,208,138323,1,0
208,264,138672,1,8
320,200,139021,6,0,B|464:200,1,130,0|8
360,112,139718,2,0,B|216:112,1,130,0|8
96,120,140416,1,0
40,240,140765,1,8
160,288,141114,1,0
216,168,141463,1,8
256,192,141811,12,0,143904
256,96,144602,5,4
256,224,144951,1,0
256,96,145300,1,8
48,256,145997,2,0,B|168:344,1,130,0|8
144,200,146695,2,0,B|224:200|288:144,1,130,0|8
360,256,147393,6,0,B|384:144|472:72,1,195
408,48,148090,2,0,B|344:80|224:48,1,130,8|0
152,72,148788,2,0,B|176:176|152:256,3,130,0|8|0|8
152,328,150183,5,4
360,176,150881,1,0
120,72,151579,1,4
128,168,151928,1,0
224,200,152277,1,0
232,296,152625,1,0
256,192,152974,12,0,155765
256,192,164137,12,0,166928
120,104,173904,6,0,B|192:136|224:216,2,130
72,224,174951,1,0
160,320,175300,2,0,B|272:272|464:320,1,260
304,368,176346,2,0,B|256:256|304:64,1,260
168,72,177393,2,0,B|168:144|120:200,1,130
152,320,178090,6,0,B|272:184|400:160,1,260
456,264,179137,1,8
360,352,179486,1,0
336,224,179835,1,8
456,264,180183,2,0,B|456:128,1,130,0|8
336,80,180881,6,0,B|280:136|216:160,1,130,0|8
96,152,181579,1,0
200,232,181928,1,8
336,224,182277,6,0,B|280:168|216:144,1,130,0|8
96,152,182975,1,0
200,72,183323,1,0
256,192,183672,12,2,186288
256,192,186463,12,0,188556
256,80,188904,5,0
256,208,189253,2,0,B|216:280|112:328,1,130,4|8
128,176,189951,1,0
128,48,190300,1,8
256,80,190649,2,0,B|312:112|400:120,1,130,0|8
464,216,191346,2,0,B|344:232|232:360,1,260,0|4
160,248,192393,5,8
256,160,192742,2,0,B|312:112|376:104,1,130,0|8
256,48,193439,2,0,B|168:144|8:184,1,260
152,232,194486,1,8
272,288,194835,6,0,B|320:232|400:232|400:232|392:176|440:112,2,260,4|0|0
272,160,196579,1,8
144,192,196928,2,0,B|144:120|72:72,1,130,0|8
48,208,197625,2,0,B|48:280|120:328,2,130,4|8|0
256,192,198497,12,8,200067
256,104,200416,5,4
128,328,201114,1,0
384,328,201811,1,0
384,200,202160,1,8
272,264,202509,2,0,B|208:224|176:120,1,130,0|8
288,80,203207,6,0,B|176:40|88:72|64:176,1,260,4|0
240,312,204602,1,0
336,224,204951,1,8
368,352,205300,1,0
240,312,205649,1,8
208,184,205997,6,0,B|232:88|320:112|368:24,1,195,4|0
392,96,206695,2,0,B|368:176|424:264,1,130,0|8
320,320,207393,2,0,B|160:304|72:160,1,260
144,80,208439,1,8
256,144,208788,1,4
88,240,209311,6,0,B|192:224|256:248,1,130
344,256,210008,1,0
232,320,210358,2,0,B|224:240|248:160,1,130
208,136,210881,2,0,B|288:128|368:152,1,130
256,192,211579,12,0,217160
