osu file format v9

[General]
AudioFilename: iroha uta.mp3
AudioLeadIn: 0
PreviewTime: 133090
Countdown: 0
SampleSet: Normal
StackLeniency: 0.7
Mode: 0
LetterboxInBreaks: 1

[Editor]
DistanceSpacing: 0.9
BeatDivisor: 4
GridSize: 8

[Metadata]
Title:Iroha uta
Artist:Gurutamin
Creator:Strawberry
Version:Insane
Source:Nico Nico Douga
Tags:Twice niconico vocaloid kagamine rin

[Difficulty]
HPDrainRate:6
CircleSize:4
OverallDifficulty:7
ApproachRate:9
SliderMultiplier:2.1
SliderTickRate:1

[Events]
//Background and Video events
0,0,"moe 171793 sample.jpg"
//Break Periods
2,80616,88188
2,100325,104060
2,105558,107549
2,122477,126735
//Storyboard Layer 0 (Background)
//Storyboard Layer 1 (Fail)
//Storyboard Layer 2 (Pass)
//Storyboard Layer 3 (Foreground)
//Storyboard Sound Samples
//Background Colour Transformations
3,100,163,162,255

[TimingPoints]
2277,348.837209302326,4,1,0,40,1,0
15096,-100,4,2,0,40,0,0
15620,-100,4,1,0,40,0,0
15794,-100,4,2,0,40,0,0
16143,-100,4,1,0,40,0,0
22073,-100,4,1,0,30,0,0
24515,-100,4,2,0,60,0,0
31317,-133.333333333333,4,2,0,70,0,0
32015,-100,4,1,0,40,0,0
35678,-100,4,2,0,70,0,0
44660,-200,4,1,0,40,0,0
47451,-133.333333333333,4,1,0,30,0,0
52335,-100,4,1,0,40,0,0
54864,-100,4,2,0,60,0,0
55300,-100,4,2,0,60,0,1
55387,-100,4,1,0,40,0,1
63933,-100,4,2,0,40,0,1
64282,-100,4,1,0,40,0,1
80416,-100,4,1,0,40,0,0
88439,-100,4,1,1,40,0,0
99079,-100,4,2,0,70,0,0
108236,-200,4,1,1,20,0,0
110067,-100,4,1,1,30,0,0
120620,-133.333333333333,4,1,0,30,0,0
121492,-100,4,1,0,40,0,0
122189,-100,4,2,1,70,0,0
127945,-100,4,1,0,40,0,0
133439,-100,4,2,1,70,0,1
133527,-100,4,1,0,40,0,1
141724,-100,4,2,0,40,0,1
142073,-100,4,1,0,40,0,1
143294,-133.333333333333,4,1,0,40,0,1
143992,-100,4,1,0,40,0,1
151492,-100,4,2,1,70,0,1
151840,-133.333333333333,4,1,0,30,0,1
153410,-133.333333333333,4,1,0,15,0,1
155765,-100,4,2,0,40,0,0
158468,-100,4,2,1,70,0,0
169370,-100,4,1,0,20,0,0
170067,-100,4,1,0,30,0,0
170765,-100,4,1,1,40,0,0
183672,-200,4,2,0,60,0,0
185154,-100,4,2,1,60,0,0
189253,-83.3333333333333,4,1,1,50,0,1
194747,-100,4,1,1,40,0,1
195445,-83.3333333333333,4,1,1,40,0,1
196317,-100,4,1,1,40,0,1
197538,-83.3333333333333,4,1,1,40,0,1
217160,-100,4,1,0,40,0,0

[Colours]
Combo1 : 128,255,255
Combo2 : 242,168,247
Combo3 : 130,255,130

[HitObjects]
256,192,6463,12,0,9602
192,112,9951,5,0
136,200,10125,1,0
136,200,10213,1,0
136,200,10300,2,0,B|224:264,1,105
328,264,10649,5,4
328,264,10823,1,0
448,88,11172,2,0,B|448:296,1,210
328,264,11695,1,0
240,176,11870,2,0,B|264:48|392:32,1,210
328,136,12393,6,0,B|200:136,1,105
112,168,12742,1,0
208,232,12916,1,0
112,288,13090,1,0
208,352,13264,1,0
304,280,13439,6,0,B|352:312|416:272,2,105
368,97,13963,2,0,B|408:217|288:289,1,210
296,280,14399,1,0
288,280,14486,1,0
216,192,14660,1,0
120,328,14835,6,0,B|16:264,1,105
88,176,15183,1,2
320,192,15532,2,0,B|200:192,1,105,2|0
216,80,15881,1,2
432,336,16230,5,4
344,264,16404,1,0
352,248,16492,1,0
360,232,16579,2,0,B|360:112,1,105
136,72,17102,1,0
56,152,17277,1,0
136,232,17451,2,0,B|240:296|344:224,1,210
256,176,17974,6,0,B|256:296,1,105
368,336,18323,1,0
368,336,18497,1,0
456,224,18672,1,0
456,224,18846,1,0
416,64,19021,6,0,B|312:120,1,105
112,144,19370,1,0
112,144,19544,2,0,B|304:40,1,210
296,43,19980,1,0
296,43,20067,1,0
280,176,20242,2,0,B|168:224|160:344,1,210
288,288,20765,6,0,B|400:240|408:120,1,210
407,128,21288,1,0
272,112,21463,1,0
136,88,21637,1,0
128,88,21724,1,0
120,88,21811,1,4
184,352,22160,6,0,B|136:304|160:240,1,105
168,232,22422,1,0
184,208,22509,1,0
352,200,22683,1,0
336,224,22771,1,0
320,248,22858,1,0
432,328,23032,2,0,B|480:240|480:240|480:112,1,210
376,40,23556,5,0
240,64,23730,1,0
264,80,23817,1,0
288,96,23904,2,0,B|288:208,1,105
264,216,24166,1,0
240,232,24253,2,0,B|192:264|192:264|329:346,1,210,0|2
396,343,24777,5,0
469,343,24951,2,0,B|469:223,1,105,2|0
469,238,25213,1,0
469,238,25300,1,2
469,164,25474,2,0,B|400:168|392:243,2,105,0|2|0
432,96,25997,2,0,B|336:168|200:168,2,210,2|0|2
344,40,26870,5,0
296,56,26957,1,0
248,40,27044,1,2
248,40,27218,1,0
144,56,27393,6,0,B|80:64|40:136,1,105,2|0
152,144,27742,1,2
256,160,27916,1,0
256,160,28003,1,0
256,160,28090,2,0,B|230:219|273:290,1,105,2|0
344,200,28439,1,2
401,109,28613,5,0
401,109,28787,2,0,B|439:160|522:159,1,105,2|0
448,256,29137,1,2
376,336,29311,2,0,B|328:232|176:200,1,210
64,264,29835,2,0,B|104:296|184:288,1,105,2|0
163,289,30096,1,0
163,289,30183,1,2
216,200,30358,5,0
320,176,30532,1,0
320,176,30707,1,0
336,72,30881,1,2
416,136,31056,1,0
416,240,31230,1,2
344,320,31404,2,0,B|264:376|216:256|112:344,1,236.249992959202,2|0
40,272,32102,5,0
128,208,32277,2,0,B|256:208,1,105
184,112,32625,2,0,B|304:112,1,105
392,232,32974,5,0
392,232,33149,1,0
272,264,33323,2,0,B|272:320|344:352,1,105
392,232,33672,2,0,B|444:211|448:133,1,105
320,128,34021,2,0,B|282:86|207:110,1,105
222,106,34282,1,0
222,106,34370,1,0
176,224,34544,5,0
176,224,34718,2,0,B|64:176|40:48,1,210
168,56,35242,2,0,B|128:104,2,52.5
224,168,35590,6,0,B|272:216|280:280,1,105,0|2
344,280,35939,1,0
344,352,36114,1,2
408,320,36288,1,0
408,248,36463,2,0,B|480:160,2,105,2|0|2
344,208,36986,6,0,B|432:120|336:24,1,210,2|0
312,120,37509,2,0,B|168:120,1,105,2|0
96,272,38032,2,0,B|96:160,1,105,0|2
160,88,38381,5,0
256,40,38556,1,2
352,88,38730,1,2
160,88,39079,5,0
261,121,39254,1,2
295,223,39428,1,2
160,88,39777,5,0
160,88,39864,1,0
160,88,39951,2,0,B|160:144|160:144|120:208,2,105,2|0|2
64,136,40474,2,0,B|24:200|24:200|24:336,1,210,2|0
128,336,40997,2,0,B|192:232,1,105,2|0
280,296,41346,5,2
368,240,41521,1,0
280,184,41695,2,0,B|280:80,1,105,2|0
208,184,42044,2,0,B|216:256|296:256,2,105,2|0|2
304,104,42567,6,0,B|224:128|88:72,1,210,2|0
32,184,43090,2,0,B|88:208|128:256,1,105,2|0
117,243,43352,1,0
117,243,43439,1,2
168,360,43614,2,0,B|224:336|264:288,1,105,0|2
368,240,43963,1,0
256,192,44137,1,6
384,136,44835,6,0,B|336:160|272:136,1,105
264,240,45532,2,0,B|213:223|184:160,1,105
88,192,46230,2,0,B|63:144|87:80,2,105,0|0|4
384,296,47625,5,0
464,160,47974,1,0
464,320,48323,5,0
384,184,48672,1,0
480,240,49021,6,0,B|312:240,2,157.499995306134,0|0|4
328,80,50416,6,0,B|240:88|192:184,1,157.499995306134
344,288,51114,5,0
168,352,51463,1,0
202,165,51811,1,0
384,80,52509,5,4
384,80,52683,1,0
312,160,53032,6,0,B|400:64,1,105
424,176,53381,2,0,B|353:253,1,105
248,232,53730,6,0,B|240:336|336:376|416:320,1,210
336,264,54253,2,0,B|128:264,1,210,0|0
80,168,54777,1,0
184,168,54951,6,0,B|240:144|264:80,1,105,0|2
352,48,55300,1,4
440,136,55474,1,0
320,168,55649,2,0,B|272:200|312:240|248:256,1,105,8|0
136,272,55997,2,0,B|184:376|328:360,1,210,0|8
416,288,56521,5,0
416,288,56608,1,0
416,288,56695,1,0
472,176,56870,2,0,B|416:152|360:184,2,105,0|8|8
400,72,57393,1,0
376,248,57567,1,8
216,168,57742,2,0,B|239:112|213:67,1,105,8|0
96,112,58090,5,4
96,240,58265,1,0
96,112,58439,1,8
96,240,58614,1,0
224,240,58788,1,0
272,352,58963,1,0
320,240,59137,1,8
448,240,59311,6,0,B|392:144|504:120|440:24,1,210
328,72,59835,1,8
328,80,59922,1,0
328,88,60009,1,0
120,64,60183,1,0
328,40,60358,1,8
224,224,60532,5,8
248,248,60620,1,0
272,272,60707,1,0
160,336,60881,2,0,B|32:296|24:168,1,210,4|8
112,104,61404,1,0
152,216,61579,2,0,B|122:85|229:14,1,210,0|8
320,96,62102,1,0
304,128,62189,1,0
288,160,62277,1,0
248,280,62451,6,0,B|336:336|456:296,1,210
336,240,62974,2,0,B|248:184|128:224,1,210,0|0
32,296,63497,1,0
152,328,63672,6,0,B|216:312|264:264,1,105,0|0
312,176,64021,1,2
200,112,64195,2,0,B|272:48|408:64,1,210,10|0
464,216,64718,1,8
336,320,64893,5,0
336,320,64980,1,0
336,320,65067,1,0
208,216,65242,2,0,B|264:200|328:120,1,105,0|8
168,160,65590,2,0,B|112:176|48:256,2,105
256,64,66114,5,8
256,64,66288,1,0
376,112,66463,2,0,B|280:200,1,105,4|0
299,303,66811,1,8
411,247,66986,1,0
299,183,67160,1,0
184,224,67335,6,0,B|136:264,2,52.5,0|0|8
152,128,67683,2,0,B|256:48,2,105
136,24,68207,2,0,B|40:96,1,105,8|0
52,192,68556,2,0,B|52:80,1,105,8|8
52,87,68817,1,0
52,87,68904,1,8
152,128,69079,1,0
200,288,69253,6,0,B|272:272|296:200,1,105,4|0
360,80,69602,2,0,B|288:96|264:168,1,105,8|0
276,138,69864,1,0
276,138,69951,1,0
400,248,70125,2,0,B|312:184,1,105,0|8
248,80,70474,6,0,B|120:88|104:240,1,210
216,192,70997,2,0,B|158:306|282:396,1,210,8|0
352,336,71521,1,8
373,294,71608,1,0
360,248,71695,2,0,B|328:184|352:120,1,105,8|0
256,56,72044,6,0,B|240:168|120:240,1,210,4|8
48,136,72567,1,0
160,80,72742,2,0,B|176:192|296:264,1,210,0|8
273,249,73178,1,0
273,249,73265,1,0
424,288,73439,5,8
472,136,73614,1,0
328,80,73788,1,8
256,216,73963,1,0
256,216,74050,1,0
256,216,74137,1,0
184,80,74311,1,8
40,136,74485,1,8
88,288,74660,1,0
256,288,74835,6,0,B|256:176,1,105
256,64,75358,1,0
256,96,75707,5,0
256,128,76056,5,0
256,160,76404,5,0
152,344,76753,5,0
216,256,76928,1,0
360,344,77102,1,0
296,256,77277,1,0
256,160,77451,1,0
256,192,77625,12,4,80416
256,120,88788,6,0,B|256:248,1,105,4|0
256,328,89311,1,0
256,224,89660,1,0
168,168,90009,2,0,B|264:72|368:184,1,210
352,168,90532,1,8
256,224,90881,5,0
256,224,91056,1,0
200,320,91230,1,8
312,320,91404,1,0
368,224,91579,2,0,B|368:88,2,105,0|0|8
288,152,92102,2,0,B|216:72|216:72|96:72,1,210
168,160,92625,1,8
72,192,92800,2,0,B|112:296|248:304,1,210
236,303,93323,1,8
416,192,93672,2,0,B|304:192,2,105,0|0|8
208,192,94370,5,4
208,192,94544,1,0
56,192,94893,1,0
144,256,95067,2,0,B|256:328,1,105
272,128,95416,2,0,B|360:71,1,105,8|0
424,248,95765,2,0,B|424:144,2,105,0|0|8
224,192,96463,5,0
224,192,96637,1,0
120,192,96811,1,8
120,192,96986,1,0
168,104,97160,2,0,B|144:64|192:48|168:0,2,105,0|0|8
272,72,97683,2,0,B|384:48|456:176,1,210
344,192,98207,2,0,B|344:296,1,105,12|0
256,264,99253,6,0,B|256:328,4,52.5
256,160,99777,1,0
256,144,99864,1,0
256,128,99951,2,0,B|256:24,1,105,2|2
128,192,104660,5,2
336,192,105009,1,0
416,144,105183,1,2
416,240,105358,1,2
80,192,108149,5,2
160,192,108323,2,0,B|288:192,1,105,0|0
344,192,108846,1,0
424,192,109021,2,0,B|488:192,3,52.5
256,64,110242,5,0
256,64,110590,2,0,B|256:184,1,105
256,272,110939,1,0
168,208,111114,2,0,B|160:144|80:120,1,105,4|0
72,232,111463,1,8
136,320,111637,1,0
152,320,111724,1,0
168,320,111811,1,0
256,272,111986,2,0,B|360:272,1,105,0|8
320,176,112335,6,0,B|192:152|152:32,1,210
264,64,112858,2,0,B|96:208,1,210,8|0
408,288,113730,5,0
400,184,113904,2,0,B|344:216|264:216,1,105
328,112,114253,1,12
301,214,114428,1,0
232,136,114602,1,0
128,104,114777,1,0
32,136,114951,1,8
104,208,115125,2,0,B|208:232|264:352,1,210
152,320,115649,6,0,B|184:240|248:240,1,105,8|0
320,280,115997,1,0
408,224,116172,1,8
424,120,116346,1,8
256,72,116521,5,0
256,72,116608,1,0
256,72,116695,2,0,B|256:184,1,105,4|0
144,240,117044,1,8
144,112,117218,1,0
256,304,117393,6,0,B|256:192,1,105,4|0
376,160,117742,1,8
376,184,117829,1,0
376,208,117916,1,0
256,240,118090,6,0,B|136:240,1,105,4|0
48,80,118614,2,0,B|152:72|264:168,1,210
48,81,119137,2,0,B|16:188,1,105,8|8
120,168,119486,6,0,B|214:213|263:352,1,210,4|0
320,240,120009,1,0
424,256,120183,2,0,B|392:200|400:120,2,105
320,240,120707,2,0,B|208:216|320:104|176:48,1,236.249992959202
48,208,121579,6,0,B|168:208,1,105
152,280,121928,1,0
224,256,122102,1,0
280,208,122277,1,4
176,96,127335,5,0
88,184,127509,1,2
168,280,127683,1,0
168,280,127771,1,0
168,280,127858,1,2
280,224,128032,6,0,B|328:184|328:184|416:184,1,105
464,104,128381,2,0,B|344:104,1,105
256,32,128730,1,0
152,104,128904,1,0
88,216,129079,1,0
88,216,129166,1,0
88,216,129253,1,0
216,200,129428,5,0
130,300,129602,2,0,B|74:324|82:388,2,105
264,304,130125,1,0
288,304,130213,1,0
312,304,130300,2,0,B|432:304,1,105
368,192,130649,5,4
144,192,130823,1,0
256,16,131172,2,0,B|256:120,1,105,0|4
256,192,131521,1,0
160,272,131870,6,0,B|264:352|368:256,1,210
456,192,132393,1,4
352,120,132567,1,0
368,88,132654,1,4
400,72,132742,1,0
272,72,132916,2,0,B|160:72,1,105
168,72,133265,1,0
64,192,133439,5,4
64,192,133614,1,0
160,224,133788,2,0,B|224:240|240:328,2,105,8|0|0
248,80,134311,1,0
416,32,134486,2,0,B|352:48|336:136,1,105,8|0
440,136,134835,2,0,B|432:190|368:206,1,105
371,206,135096,1,0
371,206,135183,2,0,B|309:221|302:276,1,105,8|0
208,144,135532,1,8
344,104,135707,1,8
112,56,135881,5,8
112,56,136056,1,0
40,160,136230,2,0,B|96:264,1,105,4|0
200,200,136579,2,0,B|256:304,1,105,8|0
376,280,136928,1,0
352,160,137102,2,0,B|328:112,2,52.5,0|0|8
280,264,137451,1,0
160,312,137625,2,0,B|104:272|40:272,1,105
40,152,137974,2,0,B|88:56|168:176|216:48,1,210,8|0
360,24,138497,1,8
392,176,138672,6,0,B|296:104,1,105,8|0
256,192,139021,2,0,B|128:208|96:328,1,210,0|8
208,312,139544,1,0
208,312,139718,2,0,B|96:128,1,210,0|8
168,48,140242,2,0,B|232:64,2,52.5
216,136,140590,6,0,B|280:224|416:208,1,210
320,280,141114,2,0,B|428:268|482:142,1,210,0|8
464,48,141637,1,0
368,96,141811,2,0,B|256:96,2,105,2|2|8
296,176,142335,2,0,B|187:187|133:313,1,210
240,280,142858,6,0,B|152:176,1,105,8|0
159,182,143120,1,0
145,165,143207,1,0
240,88,143381,2,0,B|192:136|352:208|208:304,1,236.249992959202
392,176,144079,1,0
384,272,144253,2,0,B|432:216|376:152,1,105,8|0
296,216,144602,5,4
296,216,144777,1,0
208,160,144951,2,0,B|208:280,1,105,8|0
208,265,145213,1,0
208,265,145300,1,0
128,328,145474,2,0,B|128:224,1,105,0|8
24,208,145823,2,0,B|136:152|136:24,1,210
48,104,146346,2,0,B|88:160|168:160,1,105,8|0
232,112,146695,2,0,B|296:112,2,52.5,8|0|8
280,208,147044,6,0,B|416:208,1,105,8|0
280,312,147393,1,4
280,312,147567,1,0
176,208,147742,1,8
176,208,147916,2,0,B|120:208,2,52.5
128,64,148265,2,0,B|72:88|56:144,1,105,0|8
208,136,148614,2,0,B|328:144|408:16,1,210
464,80,149137,2,0,B|464:304,1,210,8|0
344,120,149660,1,8
192,264,149835,5,8
192,264,150009,1,0
72,352,150183,2,0,B|0:256|72:152,1,210,4|8
192,264,150707,1,0
336,264,150881,2,0,B|472:264,1,105
360,136,151230,1,8
328,136,151317,1,0
296,136,151404,1,0
128,80,151579,5,6
384,304,151753,1,2
256,320,151928,2,0,B|216:272|304:216|248:152,2,157.499995306134,0|0|0
160,232,152800,1,0
40,280,152974,2,0,B|32:184|112:128,1,157.499995306134,0|0
176,40,153497,1,0
184,57,153585,1,0
196,71,153672,2,0,B|245:121|373:137,1,157.499995306134,0|0
256,192,154195,12,2,155765
120,144,158556,6,0,B|184:200|184:200|240:216,1,105
312,144,158904,1,2
408,232,159079,1,0
392,264,159166,1,0
376,296,159253,1,0
256,248,159428,1,0
136,296,159602,1,2
64,192,159777,5,0
96,192,159864,1,0
128,192,159951,1,0
200,88,160125,2,0,B|88:88,1,105,0|2
128,192,160474,2,0,B|184:240,2,52.5
320,88,160823,1,0
320,296,160997,6,0,B|392:296|408:224,1,105,2|0
402,243,161259,1,0
402,243,161346,1,0
272,192,161521,1,0
184,88,161695,2,0,B|112:88|96:160,1,105,2|0
101,140,161957,1,0
101,140,162044,1,0
96,280,162218,1,0
96,248,162306,1,0
96,216,162393,1,2
208,288,162567,6,0,B|264:336,2,52.5,0|0|2
402,243,162916,1,0
264,88,163090,1,2
208,288,163265,5,0
240,280,163352,1,0
264,256,163439,1,2
392,160,163614,1,0
369,136,163701,1,0
336,127,163788,1,2
184,88,163963,1,0
174,119,164050,1,0
183,152,164137,1,6
256,192,164224,12,6,165532
88,80,166928,6,0,B|184:272|416:352,3,420,2|2|2|2
384,72,169718,5,0
360,104,170416,1,0
304,168,171114,5,0
216,256,171811,1,0
240,88,172509,1,0
296,288,173207,1,8
400,160,173381,1,0
448,312,173556,1,8
328,208,173730,1,0
224,96,173904,6,0,B|112:96,3,105,0|0|0|0
40,232,174602,1,0
160,336,174777,1,0
272,232,174951,1,8
392,336,175126,1,0
464,136,175300,6,0,B|408:176|336:176,1,105
352,176,175561,1,0
336,176,175649,1,8
48,136,175823,6,0,B|104:176|176:176,1,105
160,176,176084,1,0
176,176,176172,1,0
256,312,176346,6,0,B|216:272|288:240|248:192,1,105,8|0
256,200,176608,1,0
256,184,176695,1,0
208,32,176870,6,0,B|264:72|328:16,1,105,0|8
306,32,177131,1,0
306,32,177218,1,0
392,168,177393,6,0,B|456:280,1,105
444,259,177742,1,8
304,320,177916,2,0,B|280:296|272:248,1,52.5
288,264,178090,6,0,B|256:168|176:80,1,210,0|8
112,232,178614,2,0,B|176:160|304:112,1,210
419,203,179137,2,0,B|369:238,3,52.5,8|0|0|0
335,245,179486,5,0
289,212,179602,1,0
233,212,179718,1,0
228,268,179835,1,0
190,309,179951,1,0
139,333,180067,1,0
121,279,180183,2,0,B|67:261|39:196,1,105
47,194,180445,1,0
47,178,180532,1,8
336,54,180881,6,0,B|366:108,1,52.5
298,148,181056,2,0,B|267:205,2,52.5,0|0|8
331,301,181404,1,0
302,315,181492,1,0
270,317,181579,2,0,B|203:317,2,52.5
135,234,181928,6,0,B|187:234,2,52.5,8|0|0
103,233,182189,1,0
75,217,182277,1,0
150,79,182451,1,0
177,95,182538,1,0
203,78,182625,1,8
228,96,182713,1,0
250,118,182800,1,0
362,305,182974,5,0
335,289,183061,1,0
309,306,183148,1,0
284,288,183236,1,0
262,266,183323,1,8
232,276,183410,1,0
215,249,183497,1,0
217,217,183585,1,0
242,198,183672,2,0,B|373:140|130:75|290:13,2,210,0|2|0
120,128,185242,5,0
32,232,185416,1,2
120,336,185590,1,0
120,336,185678,1,0
120,336,185765,1,2
200,224,185939,1,0
336,224,186114,1,2
416,112,186288,1,6
256,192,186463,12,0,188556
256,40,188904,5,2
256,144,189079,1,2
96,168,189253,6,0,B|128:240|192:272,1,126.000003004074
312,352,189602,1,8
400,208,189777,1,0
256,144,189951,1,0
160,280,190125,1,0
160,280,190213,1,0
160,280,190300,1,8
312,352,190474,5,0
400,208,190649,1,0
376,48,190823,2,0,B|304:48|256:96,1,126.000003004074,0|8
248,112,191085,1,0
232,128,191172,2,0,B|188:171|116:171,1,126.000003004074,0|8
280,192,191521,6,0,B|323:235|395:235,1,126.000003004074,8|8
394,235,191870,1,0
368,72,192044,2,0,B|312:32|240:72,3,126.000003004074,0|0|8|0
88,48,192742,1,0
192,176,192916,1,0
56,264,193090,1,8
136,120,193265,5,0
136,120,193352,1,0
136,120,193439,1,0
248,240,193614,1,0
136,120,193788,1,8
248,240,193963,2,0,B|288:184|320:280|392:224,1,126.000003004074,0|8
456,56,194311,1,8
296,80,194486,6,0,B|360:96|400:168,1,126.000003004074,8|0
256,144,194835,2,0,B|224:144|184:168|184:168|192:208|152:240|152:240|80:208,1,210,0|8
105,219,195271,1,0
105,219,195358,1,0
176,336,195532,2,0,B|248:328|320:360,2,126.000003004074,0|0|8
256,224,196056,1,0
288,224,196143,1,0
320,232,196230,1,0
448,200,196404,6,0,B|432:96|312:24,1,210
368,168,196928,2,0,B|269:129|147:197,1,210
256,320,197625,5,0
256,232,197800,1,0
152,48,197974,1,8
360,48,198149,1,0
336,72,198236,1,0
312,96,198323,1,0
64,136,198497,1,0
96,144,198584,1,0
129,153,198671,1,0
256,192,198759,12,0,199718
256,64,200067,5,0
256,152,200242,1,0
360,336,200416,5,0
152,336,200591,1,0
256,264,200765,2,0,B|192:264|120:208,1,126.000003004074,8|0
256,152,201114,2,0,B|320:152|392:96,1,126.000003004074
384,240,201463,5,8
256,264,201637,2,0,B|192:264|120:320,1,126.000003004074
64,208,201986,1,0
96,192,202073,1,0
128,176,202160,1,8
144,48,202335,2,0,B|176:104|256:120,1,126.000003004074
360,72,202683,2,0,B|384:152|296:192,1,126.000003004074,0|8
200,232,203032,5,0
264,336,203207,1,0
264,336,203381,1,0
440,264,203556,1,8
440,264,203730,1,0
304,136,203904,1,0
304,136,204079,1,0
128,200,204253,1,8
328,40,204428,6,0,B|288:64|200:80|200:80|248:152|208:224,1,252.000006008148
472,144,204951,2,0,B|344:200|224:96,1,252.000006008148,8|0
56,152,205474,1,0
56,344,205649,6,0,B|56:200,1,126.000003004074,8|0
224,280,205997,1,0
288,104,206172,1,0
360,304,206346,1,8
152,80,206521,1,0
168,104,206608,1,0
200,128,206695,2,0,B|344:168|360:312,1,252.000006008148,0|8
256,232,207218,5,0
256,200,207306,1,0
256,168,207393,2,0,B|256:24,1,126.000003004074
360,112,207742,2,0,B|360:264,1,126.000003004074,8|0
184,304,208090,2,0,B|56:208,1,126.000003004074
184,72,208439,6,0,B|284:147,1,126.000003004074,8|0
299,159,208701,1,0
314,169,208788,1,0
432,344,208963,1,4
184,304,209311,1,0
280,72,209660,1,0
424,168,210009,2,0,B|360:160|320:184|320:184|352:232|352:232|320:264|256:256,1,252.000006008148
136,144,210707,5,0
240,344,210881,1,4
240,344,211056,1,0
416,200,211230,1,12
416,200,211404,1,0
256,192,211579,12,0,217160
96,96,217858,6,0,B|96:144|120:168,2,70
200,128,218207,2,0,B|218:146|218:194,2,70,8|0|0
304,152,218556,6,0,B|336:264|456:336,1,210,0|8
272,320,219079,2,0,B|352:280|440:176,1,210
431,185,219515,1,0
431,185,219602,1,8
352,48,219777,1,0
200,72,219951,6,0,B|240:128|192:192,1,105
48,192,220300,1,8
192,248,220474,2,0,B|152:304|200:368,1,105
328,272,220823,1,0
208,168,220997,2,0,B|242:125|202:69,1,105,8|0
48,72,221346,5,0
72,96,221433,1,0
96,120,221521,1,0
304,72,221695,1,8
432,240,221870,2,0,B|408:304|312:288,1,105
328,272,222131,1,0
304,256,222218,2,0,B|244:243|220:307,1,105,8|8
192,96,222567,1,0
64,264,222742,6,0,B|96:312|152:344,2,105,0|0|8
256,184,223265,1,0
448,104,223439,2,0,B|408:160|416:224,1,105
416,232,223701,1,0
416,264,223788,1,8
328,128,223963,1,0
256,272,224137,1,0
256,64,224311,1,0
48,112,224486,6,0,B|104:120|152:176,1,105,8|0
160,184,224747,1,0
176,216,224835,1,0
104,352,225009,2,0,B|136:296|208:280,1,105,0|8
208,280,225271,1,0
232,280,225358,1,0
256,272,225445,1,0
272,256,225532,6,0,B|304:192|376:160,2,105,0|0|8
408,344,226056,2,0,B|384:288|344:240,1,105
354,253,226317,1,0
354,253,226404,1,0
354,253,226492,1,0
352,256,226579,2,0,B|322:221|298:165,1,105,8|0
112,72,226928,5,0
168,248,227102,1,0
240,72,227277,1,8
80,176,227451,1,0
272,176,227625,1,0
408,336,227800,1,0
424,304,227887,1,0
408,272,227974,1,8
248,272,228149,6,0,B|320:192|432:168,1,210
272,120,228672,2,0,B|232:176|184:192,2,105,8|0|0
64,96,229195,1,0
152,288,229370,1,8
360,288,229544,1,0
448,96,229719,1,0
256,184,229893,6,0,B|256:320,1,105,0|8
256,184,230242,2,0,B|256:72,1,105
152,136,230590,1,0
256,280,230765,1,8
360,136,230939,1,0
456,288,231114,1,0
280,336,231288,6,0,B|320:280|280:224,1,105,0|8
288,237,231550,1,0
288,237,231637,1,0
224,72,231811,2,0,B|176:104|144:152,1,105
48,104,232160,2,0,B|22:155|18:213,1,105,8|0
56,216,232422,1,0
80,240,232509,2,0,B|136:256|176:296,1,105
320,136,232858,5,8
320,136,233032,1,4
320,248,233207,2,0,B|320:112,1,105,0|4
120,88,233556,1,12
120,296,233730,1,0
320,248,233904,1,4
