osu file format v9

[General]
AudioFilename: iroha uta.mp3
AudioLeadIn: 0
PreviewTime: 133090
Countdown: 0
SampleSet: Normal
StackLeniency: 0.7
Mode: 0
LetterboxInBreaks: 1

[Editor]
DistanceSpacing: 1.2
BeatDivisor: 2
GridSize: 8

[Metadata]
Title:Iroha uta
Artist:Gurutamin
Creator:Strawberry
Version:Hard
Source:Nico Nico Douga
Tags:Twice niconico vocaloid kagamine rin

[Difficulty]
HPDrainRate:4
CircleSize:4
OverallDifficulty:4
ApproachRate:7
SliderMultiplier:1.7
SliderTickRate:1

[Events]
//Background and Video events
0,0,"moe 171793 sample.jpg"
//Break Periods
2,80616,87888
2,122477,126958
2,154220,162714
2,184046,185563
//Storyboard Layer 0 (Background)
//Storyboard Layer 1 (Fail)
//Storyboard Layer 2 (Pass)
//Storyboard Layer 3 (Foreground)
//Storyboard Sound Samples
//Background Colour Transformations
3,100,163,162,255

[TimingPoints]
2277,348.837209302326,4,1,0,40,1,0
21724,-100,4,1,0,30,0,0
24515,-100,4,2,0,60,0,0
31317,-133.333333333333,4,2,0,70,0,0
32015,-100,4,1,0,40,0,0
35678,-100,4,2,0,70,0,0
44660,-200,4,1,0,40,0,0
47451,-133.333333333333,4,1,0,30,0,0
52335,-100,4,1,0,40,0,0
55300,-100,4,1,0,40,0,1
80416,-100,4,1,0,40,0,0
88701,-100,4,1,1,40,0,0
99079,-100,4,2,0,50,0,0
108236,-200,4,1,0,20,0,0
110067,-100,4,1,1,30,0,0
120620,-133.333333333333,4,1,0,30,0,0
122189,-100,4,2,0,70,0,0
127945,-133.333333333333,4,1,0,40,0,0
130736,-100,4,1,0,40,0,0
133439,-100,4,2,0,70,0,1
133527,-100,4,1,0,40,0,1
143294,-133.333333333333,4,1,0,40,0,1
143992,-100,4,1,0,40,0,1
151840,-133.333333333333,4,1,0,30,0,1
153410,-133.333333333333,4,1,0,20,0,1
154021,-133.333333333333,4,1,0,20,0,0
163439,-133.333333333333,4,2,0,50,0,0
166579,-200,4,2,0,30,0,0
169370,-200,4,1,0,20,0,0
170067,-200,4,1,0,30,0,0
170765,-200,4,1,0,40,0,0
173294,-100,4,1,1,40,0,0
183672,-200,4,2,0,60,0,0
188730,-100,4,2,0,60,0,0
189253,-83.3333333333333,4,1,1,50,0,1
217160,-83.3333333333333,4,1,1,20,0,0

[Colours]
Combo1 : 128,255,255
Combo2 : 242,168,247
Combo3 : 130,255,130

[HitObjects]
256,192,6463,12,0,9602
128,272,9951,6,0,B|224:240,1,85
192,144,10300,2,0,B|288:176,1,85
368,208,10649,5,0
368,208,10823,1,0
160,208,11172,2,0,B|64:192|24:96,2,170
336,312,12218,1,0
440,312,12393,1,0
384,112,12742,6,0,B|352:72|304:64,2,85
183,74,13439,2,0,B|146:69|114:29,1,85
11,27,13788,1,0
73,107,13963,2,0,B|161:155|201:283,1,170
80,243,14486,2,0,B|112:291|160:315,1,85
224,360,14835,2,0,B|166:363|142:381,2,85
360,208,15532,6,0,B|376:152|368:96,1,85
368,24,15881,1,0
184,112,16230,5,0
184,216,16404,1,0
360,320,16753,2,0,B|160:320,1,170
353,192,17451,2,0,B|448:160|456:48,1,170
352,88,17974,1,0
152,80,18323,6,0,B|184:112|192:176,3,85
88,160,19021,2,0,B|56:192|48:256,1,85
152,224,19370,1,0
128,320,19544,2,0,B|240:304|312:208,1,170
272,144,20067,2,0,B|328:144|384:192,1,85
440,216,20416,5,0
448,112,20590,1,0
376,40,20765,1,0
272,48,20939,1,0
184,104,21114,2,0,B|280:152,3,85
184,208,21811,6,0,B|80:208,1,85
160,288,22160,2,0,B|264:288,1,85
336,232,22509,2,0,B|248:208|216:72,1,170
320,64,23032,2,0,B|408:40|496:72,1,170
416,144,23556,2,0,B|408:168|408:168|424:168|424:168|408:184|408:184|424:184|424:184|408:200|408:200|424:200|424:200|408:216|408:216|424:216|424:216|408:232|408:232|424:232|424:232|408:248|408:248|424:248|424:248|408:264|408:264|424:264|424:264|408:280|408:280|424:280|424:280|416:312,1,340
256,184,24602,5,0
256,112,24777,1,0
192,144,24951,1,2
256,184,25125,2,0,B|352:184|424:128,1,170
424,200,25649,2,0,B|424:320,1,85,2|0
424,352,25997,2,0,B|328:352|248:256,3,170,0|2|0|2
272,208,27218,5,0
272,128,27393,2,0,B|176:128,1,85,0|2
96,248,27916,1,0
96,328,28090,2,0,B|200:328,1,85,0|2
336,336,28614,1,0
416,336,28788,2,0,B|416:232,1,85
336,176,29311,2,0,B|312:160|312:160|288:216|288:216|264:144|264:144|176:160,1,255,2|0
112,112,30009,5,0
80,184,30183,2,0,B|144:240,3,85,0|0|2|0
208,280,30881,2,0,B|184:320|120:320,2,85,0|0|2
232,208,31404,2,0,B|432:208,1,191.249994300306,0|2
376,120,32102,2,0,B|296:48|216:128,1,170
304,184,32625,2,0,B|304:280,1,85,0|0
208,232,32974,6,0,B|128:144|216:72,1,170
304,80,33497,2,0,B|400:80,1,85
424,280,34021,2,0,B|424:176,1,85
216,192,34544,1,0
288,264,34718,2,0,B|152:256|16:368,1,255
48,216,35416,2,0,B|96:216|136:168,1,85
216,80,35765,6,0,B|128:80,1,85,2|0
200,160,36114,2,0,B|288:160,1,85,2|0
216,240,36463,1,0
288,312,36637,2,0,B|368:272|472:336,1,170,2|0
464,120,37335,2,0,B|416:120|360:88,1,85,0|2
288,56,37683,2,0,B|256:144|296:224,2,170
200,104,38556,6,0,B|200:200,1,85,0|2
352,328,39079,1,0
256,352,39253,2,0,B|256:264,1,85,0|2
312,72,39777,2,0,B|312:157,1,85,0|2
408,133,40125,1,0
376,232,40300,1,2
272,232,40474,2,0,B|88:232,1,170,2|0
184,168,40997,6,0,B|216:216|208:280,1,85,2|0
120,288,41346,2,0,B|130:318|182:344,1,85
209,248,41695,2,0,B|265:242|290:263,1,85,2|0
368,328,42044,2,0,B|393:348|449:343,2,85,2|0|2
416,240,42567,2,0,B|272:224|208:88,1,255,0|2
280,24,43265,1,2
376,0,43439,1,0
368,104,43614,6,0,B|288:168,1,85,2|2
208,128,43963,2,0,B|192:224,1,85,2|4
368,320,44835,6,0,B|368:216,1,85
288,168,45532,2,0,B|288:256,3,85
200,208,46928,2,0,B|152:240|104:240,1,85
56,104,47625,5,0
200,56,47974,1,0
200,208,48323,1,0
344,160,48672,1,0
352,312,49021,2,0,B|480:312,2,127.499996200204
48,264,50416,6,0,B|184:240|264:80,1,254.999992400408
96,168,51463,2,0,B|216:264,1,127.499996200204
376,96,52509,5,4
376,96,52683,1,0
168,96,53032,1,0
248,152,53207,2,0,B|280:184|296:248,1,85
88,264,53730,6,0,B|160:328|288:344,1,170
320,272,54253,2,0,B|424:272,1,85
416,168,54602,1,0
392,72,54777,1,0
288,88,54951,1,0
320,184,55125,1,0
216,160,55300,6,0,B|120:160,1,85,4|0
64,240,55649,2,0,B|160:240,1,85,8|0
216,312,55997,2,0,B|408:312,1,170,0|8
416,216,56521,2,0,B|336:216|272:120,1,170
336,48,57044,2,0,B|224:48,1,85,8|0
152,48,57393,1,0
152,48,57567,1,8
64,104,57742,6,0,B|112:120|128:176,1,85,8|0
64,240,58090,2,0,B|74:281|122:297,1,85,4|0
184,216,58439,2,0,B|232:206|262:236,1,85,8|0
312,328,58788,2,0,B|416:328,2,85,0|0|8
368,240,59311,2,0,B|440:160|352:64,1,170
304,168,59835,2,0,B|248:128|208:224|144:160,1,170,8|0
64,256,60532,6,0,B|64:152,1,85,0|0
120,88,60881,2,0,B|176:208|328:272,1,255,4|0
376,192,61579,2,0,B|328:104|376:24,1,170,0|8
448,96,62102,1,0
480,192,62277,1,0
424,280,62451,2,0,B|352:328|224:320,1,170
160,312,62974,1,0
144,112,63323,5,8
144,112,63497,1,0
192,200,63672,2,0,B|240:184|264:144,2,85,0|0|0
256,192,64195,12,0,65765
208,120,66114,6,0,B|192:176|128:192,1,85,0|0
80,256,66463,2,0,B|184:256|288:336,1,170,4|8
336,336,66986,2,0,B|384:320|424:280,1,85
328,104,67509,1,8
248,152,67683,2,0,B|296:224|400:256,1,170
424,160,68207,2,0,B|424:64,1,85,8|0
328,104,68556,1,0
328,104,68730,1,8
248,56,68904,2,0,B|160:56,1,85,8|0
96,128,69253,6,0,B|144:144|168:192,1,85,4|0
72,224,69602,2,0,B|106:260|105:314,1,85,8|0
200,264,69951,2,0,B|240:272|320:264,2,85,0|0|8
256,184,70474,2,0,B|336:168|448:192,1,170
352,256,70997,2,0,B|336:168|344:72,1,170,8|0
136,64,71695,5,8
136,64,71870,1,0
64,136,72044,2,0,B|120:256|256:312,1,255,4|0
224,208,72742,2,0,B|392:208,1,170,0|8
256,56,73439,5,0
104,192,73788,1,8
256,328,74137,1,0
408,192,74486,1,8
256,56,74835,6,0,B|256:160,1,85
176,328,75358,2,0,B|256:280|352:336,2,170
344,208,76404,2,0,B|256:163|260:70,1,170
176,128,76928,1,0
152,224,77102,1,0
176,320,77277,2,0,B|216:352|288:352,1,85
256,192,77625,12,0,80416
256,96,88788,5,0
256,200,88963,1,0
56,192,89311,6,0,B|112:264|216:304,1,170
384,232,90009,2,0,B|432:248|472:304,1,85
360,328,90358,1,0
256,328,90532,2,0,B|240:272|256:224,1,85,8|0
280,144,90881,2,0,B|244:130|195:145,3,85,0|0|8|0
104,112,91579,6,0,B|104:216,1,85
104,197,91928,1,8
48,280,92102,2,0,B|144:320|256:304,1,170
216,208,92625,2,0,B|288:216|336:248,1,85,8|0
320,328,92974,6,0,B|376:320|408:296,2,85,0|0|8
192,56,93672,2,0,B|136:64|104:88,2,85,0|0|8
384,136,94370,5,0
296,192,94544,1,0
128,136,94893,2,0,B|208:200|248:288,1,170
136,256,95416,1,8
200,336,95590,2,0,B|266:361|368:350,1,170
432,264,96114,2,0,B|443:162|417:96,1,170,8|0
320,128,96637,5,0
320,232,96811,1,8
216,232,96986,1,0
208,128,97160,2,0,B|160:88|120:96,1,85
48,152,97509,1,8
48,256,97683,2,0,B|144:256|248:376,1,170
256,240,98207,2,0,B|256:136,1,85,8|0
256,88,99428,5,0
256,176,99602,2,0,B|256:272,1,85,2|0
256,344,99951,1,0
104,264,100300,2,0,B|104:168,1,85,2|0
104,96,100649,1,0
256,176,100997,2,0,B|256:80,1,85,2|0
336,128,101346,2,0,B|336:224,2,85,0|0|2
168,328,102567,5,0
248,312,102742,2,0,B|296:288|320:240,1,85
248,200,103090,2,0,B|264:149|248:98,1,85,2|0
88,72,103614,1,0
164,116,103788,1,2
253,118,103963,1,0
248,200,104137,2,0,B|320:248|424:240,1,170,0|2
488,200,104660,1,2
328,64,105358,6,0,B|240:64,2,85,0|2|0
184,152,106056,2,0,B|272:152,2,85,0|2|0
328,240,106753,2,0,B|243:240,3,85,0|0|0|2
160,240,107451,2,0,B|144:344|304:312,1,170,2|0
416,224,108149,5,0
416,176,108323,2,0,B|400:96|344:168|304:104,1,127.5
256,200,109195,2,0,B|256:264,2,42.5
256,200,110242,5,0
120,48,110590,5,0
120,152,110765,2,0,B|120:256,1,85,8|0
24,272,111114,2,0,B|88:352|208:312,1,170,0|8
256,248,111637,1,0
328,176,111811,2,0,B|416:144|452:198|478:222,1,170,0|8
384,256,112335,2,0,B|440:96,1,170
352,48,112858,2,0,B|304:128|160:152,1,170,8|0
128,80,113381,2,0,B|128:176,1,85,0|8
128,264,113730,1,0
216,320,113904,5,0
296,256,114079,1,0
256,160,114253,2,0,B|256:72,1,85,8|0
328,128,114602,1,0
256,75,114777,1,0
184,128,114951,1,8
256,160,115125,2,0,B|208:224|336:232|256:320,1,170
263,311,115649,1,8
120,216,115997,2,0,B|120:312,1,85
40,264,116346,1,8
40,264,116521,1,0
48,136,116695,6,0,B|96:144|160:120,1,85
88,56,117044,1,8
88,56,117219,1,0
200,112,117393,2,0,B|239:83|267:21,1,85
171,27,117742,1,8
171,27,117917,1,0
144,152,118090,2,0,B|144:264,1,85
384,336,118614,2,0,B|288:304|240:200,1,170
360,240,119137,2,0,B|472:240,1,85,8|0
424,136,119486,5,0
256,24,119835,1,0
256,128,120009,1,0
256,232,120183,2,0,B|256:320,2,85,8|0|0
256,232,120707,1,0
256,192,120881,12,0,122277
256,192,127858,5,2
256,88,128207,1,0
168,144,128556,2,0,B|168:280,1,127.499996200204
272,288,129253,2,0,B|344:280|368:360,2,127.499996200204
352,224,130300,2,0,B|352:64,1,127.499996200204
256,48,130823,1,0
112,192,131172,5,0
184,120,131346,1,0
256,192,131521,1,0
328,120,131695,1,0
400,192,131870,2,0,B|360:272|360:272|248:272,1,170
176,272,132393,2,0,B|216:360,1,85
112,320,132742,2,0,B|76:242,1,85
72,144,133090,1,0
112,48,133265,1,0
184,120,133439,6,0,B|216:208|336:248,1,170,6|8
320,136,133963,1,0
416,96,134137,2,0,B|416:264,1,170,0|8
320,296,134660,1,0
232,352,134835,2,0,B|184:280,2,85,0|0|8
128,344,135358,2,0,B|88:232|8:192,1,170,0|8
40,312,135881,6,0,B|128:240,1,85,8|0
144,168,136230,1,4
240,208,136404,1,0
232,104,136579,2,0,B|152:64,1,85,8|0
144,168,136928,2,0,B|256:216,1,85
320,160,137277,1,8
376,80,137451,2,0,B|432:160|376:256,1,170
280,232,137974,2,0,B|312:328|424:352,1,170,8|0
480,280,138497,1,8
400,216,138672,6,0,B|448:208|480:160,1,85,8|0
392,104,139021,2,0,B|304:96|224:192,1,170,4|8
176,96,139544,1,0
104,24,139718,2,0,B|41:86|63:209,1,170,0|8
120,264,140242,2,0,B|152:232|144:168,1,85
248,168,140590,2,0,B|344:208|376:304,1,170
264,264,141114,2,0,B|344:232|400:144,1,170,0|8
424,56,141637,5,0
320,40,141811,2,0,B|296:88|240:104,1,85
176,32,142160,1,8
168,136,142335,2,0,B|72:176|48:264,1,170
256,192,142858,12,0,143904
256,192,144253,5,0
152,192,144428,1,0
256,192,144602,2,0,B|256:312,1,85,4|0
344,224,144951,2,0,B|344:136,1,85,8|0
344,40,145300,2,0,B|272:120|168:120,1,170,0|8
120,56,145823,2,0,B|104:160|24:224,1,170
120,272,146346,2,0,B|168:272|208:328,1,85,8|0
232,216,146695,2,0,B|192:208|176:152,1,85,0|8
272,120,147044,5,8
272,120,147218,1,0
344,192,147393,2,0,B|368:248|408:272,2,85,4|0|8
376,96,147916,1,0
464,144,148090,2,0,B|488:156|512:212,2,85,0|0|8
376,96,148614,2,0,B|288:112|200:88,1,170
168,184,149137,2,0,B|248:256|272:336,1,170,8|0
360,280,149660,1,8
328,184,149835,6,0,B|384:192|448:184,1,85,8|0
368,96,150183,2,0,B|272:72|176:104,1,170,4|8
112,40,150707,1,0
104,144,150881,2,0,B|160:224|152:336,1,170,0|8
64,352,151404,1,0
160,376,151579,6,0,B|256:352,1,85,4|0
304,280,151928,2,0,B|384:272|368:232|456:216,2,127.499996200204
216,240,152800,1,0
288,176,152974,6,0,B|208:168|224:128|136:112,1,127.499996200204
80,144,153497,1,0
80,160,153585,1,0
80,176,153672,2,0,B|56:232|112:256|72:312,1,127.499996200204
256,96,163614,5,2
168,192,163788,1,0
256,288,163963,1,2
256,192,164137,12,0,165532
256,88,166928,6,0,B|256:280,3,170,2|2|2|2
160,224,169718,5,0
96,144,170416,1,0
160,64,171114,1,0
224,144,171811,1,0
160,224,172509,6,0,B|216:288|224:296|312:288,1,170
344,192,173381,1,0
416,264,173556,1,0
456,168,173730,1,0
384,96,173904,6,0,B|280:96,3,85
224,32,174602,2,0,B|168:128,1,85
80,88,174951,2,0,B|24:184,1,85
136,192,175300,5,0
184,280,175474,2,0,B|80:280,1,85,0|8
184,280,175823,5,0
281,309,175997,2,0,B|207:382,1,85
282,309,176346,5,8
372,261,176521,2,0,B|371:365,1,85
372,262,176869,5,0
402,165,177044,2,0,B|474:239,1,85,8|0
480,128,177393,6,0,B|416:64,2,85,0|0|8
288,48,178090,6,0,B|232:160|112:200,1,170,0|8
184,72,178614,2,0,B|320:184,1,170
240,256,179137,2,0,B|296:304,3,42.5,8|0|0|0
320,320,179486,6,0,B|384:320,2,56.6666666666667
368,264,179835,2,0,B|424:264,2,56.6666666666667,8|0|0
320,216,180183,1,0
320,112,180358,1,0
232,160,180532,1,8
64,48,180881,5,0
144,96,181056,1,0
64,144,181230,1,8
256,216,181579,1,0
256,120,181753,1,0
256,216,181928,1,8
448,48,182277,5,0
368,96,182452,1,0
448,144,182626,1,8
448,48,182800,1,0
368,96,182974,1,0
448,144,183149,1,0
448,48,183323,1,8
256,112,183672,1,2
256,216,183846,1,4
256,192,186463,12,0,188556
136,128,188904,6,0,B|216:224,1,85,2|0
376,256,189253,6,0,B|296:160,1,85,4|0
304,72,189602,2,0,B|224:168,1,85,8|0
264,256,189951,2,0,B|200:320|64:280,1,204.000004863739,0|8
144,216,190474,2,0,B|72:168|72:168|112:128|104:48,1,204.000004863739
24,120,190997,2,0,B|152:120,1,102.00000243187,8|0
232,120,191346,2,0,B|232:184,2,51.0000012159348,8|0|8
328,152,191695,1,8
392,232,191870,1,0
424,328,192044,6,0,B|304:328,2,102.00000243187,4|0|8
392,232,192567,1,0
288,232,192742,2,0,B|184:232,2,102.00000243187,0|0|8
328,152,193265,2,0,B|224:136|136:40,1,204.000004863739
64,112,193788,1,8
80,128,193875,1,0
96,144,193963,1,0
64,240,194137,2,0,B|112:248|184:288,3,102.00000243187,8|0|8|0
272,223,194835,6,0,B|224:143|258:16,1,204.000004863739,4|8
348,36,195358,1,0
384,120,195532,2,0,B|432:200|397:325,1,204.000004863739,0|8
296,322,196056,1,0
296,322,196143,1,0
296,322,196230,1,0
248,232,196404,6,0,B|134:234|51:146,1,204.000004863739
160,128,196928,2,0,B|274:129|341:38,1,204.000004863739,0|8
456,208,197625,1,4
392,336,197800,1,0
272,256,197974,1,8
336,128,198149,1,0
256,192,198236,12,0,199718
256,80,200067,6,0,B|256:192,1,102.00000243187
136,176,200416,6,0,B|200:256|240:360,1,204.000004863739,4|8
328,272,200939,1,0
424,352,201114,1,0
368,144,201463,5,8
256,96,201637,2,0,B|256:208,1,102.00000243187
256,198,201899,1,0
256,198,201986,1,0
136,200,202160,2,0,B|160:264|224:296,1,102.00000243187,8|0
320,280,202509,2,0,B|440:280,1,102.00000243187,8|8
432,96,202858,6,0,B|400:160|344:192,1,102.00000243187,8|0
304,72,203207,1,4
304,72,203381,1,0
240,176,203556,1,8
240,176,203730,1,0
120,184,203904,2,0,B|128:248|208:280,2,102.00000243187,0|0|8
240,176,204428,6,0,B|328:232|328:368,1,204.000004863739
224,288,204951,2,0,B|328:288|424:208,1,204.000004863739,8|0
232,56,205649,6,0,B|352:56,1,102.00000243187,8|0
232,56,205997,2,0,B|256:152|128:232,1,204.000004863739,4|8
48,144,206521,1,0
160,96,206695,2,0,B|184:208|320:240,1,204.000004863739,0|8
416,232,207218,5,0
416,232,207306,1,0
416,232,207393,2,0,B|416:368,1,102.00000243187
304,288,207742,2,0,B|208:232,1,102.00000243187,8|0
104,288,208090,2,0,B|64:160,1,102.00000243187
152,96,208439,2,0,B|240:147,1,102.00000243187,8|0
240,147,208701,5,0
240,147,208788,1,0
360,128,208963,1,0
360,160,209311,1,0
360,192,209660,1,0
360,224,210009,1,0
360,256,210358,6,0,B|296:368|160:336,1,204.000004863739
88,272,210881,1,0
152,168,211056,2,0,B|272:168,1,102.00000243187,0|4
360,104,211404,2,0,B|240:104,1,102.00000243187,0|4
256,192,211666,12,0,217160
