osu file format v13

[General]
AudioFilename: -ERROR.mp3
AudioLeadIn: 1004
PreviewTime: 111714
Countdown: 0
SampleSet: Soft
StackLeniency: 0.7
Mode: 0
LetterboxInBreaks: 0
EpilepsyWarning: 1
WidescreenStoryboard: 0

[Editor]
Bookmarks: 73914,106314,193014,223914
DistanceSpacing: 1
BeatDivisor: 4
GridSize: 4
TimelineZoom: 1

[Metadata]
Title:-ERROR
TitleUnicode:-ERROR
Artist:Guriri
ArtistUnicode:Guriri
Creator:HanzeR
Version:Insane
Source:
Tags:liiraye lily namine ritsu vocaloid niki
BeatmapID:356651
BeatmapSetID:61903

[Difficulty]
HPDrainRate:6
CircleSize:4
OverallDifficulty:9
ApproachRate:9
SliderMultiplier:1.8
SliderTickRate:2

[Events]
//Background and Video events
0,0,"-ERROR.full.jpg",0,0
//Break Periods
//Storyboard Layer 0 (Background)
//Storyboard Layer 1 (Fail)
//Storyboard Layer 2 (Pass)
//Storyboard Layer 3 (Foreground)
//Storyboard Sound Samples
//Background Colour Transformations
3,100,163,162,255

[TimingPoints]
1614,300,3,2,0,100,1,0
2514,-100,3,2,1,30,0,0
2964,-100,3,2,1,50,0,0
3414,-100,3,2,1,55,0,0
3864,-100,3,2,1,60,0,0
4014,-100,3,2,1,70,0,0
4314,-100,3,2,1,70,0,1
4614,-100,3,2,1,70,0,0
15114,-100,3,2,1,40,0,0
18114,-100,3,2,1,80,0,0
18414,-100,3,2,1,50,0,0
18714,-100,3,2,1,60,0,0
47514,-125,3,2,1,70,0,0
48414,-142.857142857143,3,2,1,50,0,0
49314,-166.666666666667,3,2,1,100,0,0
49314,-166.666666666667,3,2,1,40,0,0
50514,-200,3,2,1,100,0,0
50514,-200,3,2,1,10,0,0
51114,-100,3,2,1,70,0,1
76314,-100,3,2,1,100,0,0
79914,-100,3,2,1,50,0,0
108714,-125,3,2,1,50,0,0
109614,-142.857142857143,3,2,1,40,0,0
110214,-166.666666666667,3,2,1,80,0,0
111414,-166.666666666667,3,2,1,100,0,0
111714,-166.666666666667,3,2,1,40,0,0
112314,-100,3,2,1,70,0,1
141114,-100,3,2,1,60,0,0
142914,-100,3,2,1,60,0,0
144714,-111.111111111111,3,2,1,60,0,0
146514,-125,3,2,1,50,0,0
148314,-142.857142857143,3,2,1,50,0,0
150114,-166.666666666667,3,2,1,40,0,0
151914,-200,3,2,1,30,0,0
154614,-166.666666666667,3,2,1,50,0,0
155214,-166.666666666667,3,2,1,40,0,0
155514,-200,3,2,1,40,0,0
165414,-166.666666666667,3,2,1,50,0,0
166314,-125,3,2,1,60,0,0
168114,-100,3,2,1,60,0,0
169314,-100,3,2,1,80,0,0
169914,-100,3,2,1,70,0,1
195114,-111.111111111111,3,2,1,75,0,1
196014,-90.9090909090909,3,2,1,85,0,1
196314,-83.3333333333333,3,2,1,90,0,1
196614,-76.9230769230769,3,2,1,95,0,1
196914,-66.6666666666667,3,2,1,95,0,1
197814,-66.6666666666667,3,2,1,100,0,1
198114,-66.6666666666667,3,2,1,100,0,0
198714,-76.9230769230769,3,2,1,80,0,1
223914,-100,3,2,1,100,0,0
228414,-100,3,2,1,20,0,0
228714,-125,3,2,1,20,0,0
229614,-200,3,2,1,20,0,0
230214,-200,3,2,1,5,0,0

[Colours]
Combo1 : 125,255,158
Combo2 : 255,255,128
Combo3 : 251,132,135
Combo4 : 227,206,255

[HitObjects]
124,180,2514,6,0,P|88:164|32:176,2,90
200,228,2964,2,0,P|256:284|356:248,1,180
280,200,3414,1,0,0:0:0:0:
420,312,3564,1,0,0:0:0:0:
404,200,3714,1,0,0:0:0:0:
400,176,3789,1,0,0:0:0:0:
396,156,3864,1,0,0:0:0:0:
392,136,3939,1,0,0:0:0:0:
388,116,4014,1,0,0:0:0:0:
384,96,4089,1,8,0:0:0:0:
380,76,4164,1,8,0:0:0:0:
376,52,4239,1,8,0:0:0:0:
372,28,4314,6,0,P|288:64|208:8,1,180,4|2,0:0|0:0,0:0:0:0:
80,140,4764,1,2,0:0:0:0:
80,140,4914,1,0,0:0:0:0:
80,140,5064,1,2,0:0:0:0:
80,140,5214,2,0,P|156:204|120:296,1,180,8|2,0:0|0:0,0:0:0:0:
76,224,5664,1,0,0:0:0:0:
244,248,5814,2,0,B|352:264,1,90,0|2,0:0|0:0,0:0:0:0:
328,60,6114,6,0,P|424:40|480:120,1,180,4|2,0:0|0:0,0:0:0:0:
392,128,6564,1,2,0:0:0:0:
392,128,6714,1,0,0:0:0:0:
392,128,6864,1,2,0:0:0:0:
392,128,7014,2,0,P|296:148|240:68,1,180,8|2,0:0|0:0,0:0:0:0:
60,20,7464,2,0,L|80:208,1,180
144,256,7914,6,0,P|224:244|184:312,1,180,4|2,0:0|0:0,0:0:0:0:
120,340,8364,1,2,0:0:0:0:
120,340,8514,1,0,0:0:0:0:
120,340,8664,1,2,0:0:0:0:
152,160,8814,2,0,P|224:156|296:240,1,180,8|2,0:0|0:0,0:0:0:0:
364,340,9264,2,0,L|396:152,1,180,2|2,0:0|0:0,0:0:0:0:
168,20,9714,6,0,P|100:40|108:148,1,180,4|2,0:0|0:0,0:0:0:0:
176,180,10164,1,2,0:0:0:0:
176,180,10314,1,0,0:0:0:0:
176,180,10464,1,2,0:0:0:0:
176,180,10614,2,0,P|181:264|104:308,1,180,8|2,0:0|0:0,0:0:0:0:
112,228,11064,1,8,0:0:0:0:
244,328,11214,2,0,B|368:340,1,90,8|0,0:0|0:0,0:0:0:0:
396,252,11514,6,0,P|344:176|392:96,1,180,4|2,0:0|0:0,0:0:0:0:
448,40,11964,1,2,0:0:0:0:
448,40,12114,1,0,0:0:0:0:
448,40,12264,1,2,0:0:0:0:
448,40,12414,2,0,P|344:20|296:80,1,180,8|2,0:0|0:0,0:0:0:0:
288,152,12864,2,0,P|252:184|208:96,1,180
180,28,13314,6,0,P|116:108|124:184,1,180,4|2,0:0|0:0,0:0:0:0:
156,260,13764,1,2,0:0:0:0:
156,260,13914,1,0,0:0:0:0:
156,260,14064,1,2,0:0:0:0:
156,260,14214,2,2,P|240:252|288:328,1,180,8|2,0:0|0:0,0:0:0:0:
368,204,14664,2,0,B|384:160|384:160|336:84|408:24,1,180
480,44,15114,6,0,L|284:32,1,180,4|2,0:0|0:0,0:0:0:0:
100,104,15564,1,2,0:0:0:0:
280,32,15714,1,8,0:0:0:0:
476,200,16014,5,2,0:0:0:0:
456,232,16314,1,2,0:0:0:0:
440,264,16614,2,0,B|404:264|404:264|384:272|384:272|336:276,1,90,8|0,0:0|0:0,0:0:0:0:
208,368,16914,6,0,B|140:340|140:340|148:276|88:240,1,180,4|0,0:0|0:0,0:0:0:0:
60,320,17289,2,0,P|56:344|60:364,3,45
228,272,17814,2,0,P|276:276|316:236,1,90,8|0,0:0|0:0,0:0:0:0:
252,196,18114,2,0,P|212:160|152:172,1,90,2|0,0:0|0:0,0:0:0:0:
84,200,18414,1,2,0:0:0:0:
56,88,18714,6,0,P|152:68|196:144,1,180,4|0,0:0|0:0,0:0:0:0:
316,248,19164,2,0,P|234:273|177:210,1,180,8|0,0:0|0:0,0:0:0:0:
282,121,19614,2,0,P|282:169|244:206,1,90,8|0,0:0|0:0,0:0:0:0:
264,44,19914,2,0,P|312:44|349:82,1,90,8|0,0:0|0:0,0:0:0:0:
384,152,20214,1,8,0:0:0:0:
320,328,20364,5,8,0:0:0:0:
320,328,20439,1,8,0:0:0:0:
320,328,20514,2,0,P|244:288|248:203,1,180,2|0,0:0|0:0,0:0:0:0:
316,248,20964,2,0,B|261:262|261:262|212:296|212:296|135:317,1,180,8|0,0:0|0:0,0:0:0:0:
92,368,21414,2,0,P|68:328|96:260,1,90,8|0,0:0|0:0,0:0:0:0:
124,48,21714,2,0,P|148:88|128:160,1,90,8|0,0:0|0:0,0:0:0:0:
196,304,22014,1,8,0:0:0:0:
176,312,22089,1,8,0:0:0:0:
156,320,22164,1,8,0:0:0:0:
136,328,22239,1,8,0:0:0:0:
116,336,22314,6,0,P|88:268|172:192,1,180,4|0,0:0|0:0,0:0:0:0:
148,88,22764,2,0,P|230:110|288:47,1,180,8|0,0:0|0:0,0:0:0:0:
384,36,23214,2,0,P|416:56|432:112,1,90,8|0,0:0|0:0,0:0:0:0:
304,216,23514,2,0,P|311:179|358:144,1,90,8|0,0:0|0:0,0:0:0:0:
504,212,23814,2,0,P|466:217|418:184,1,90,8|0,0:0|0:0,0:0:0:0:
320,288,24114,6,0,P|260:284|228:220,1,135,2|0,0:0|0:0,0:0:0:0:
236,204,24414,1,0,0:0:0:0:
160,292,24564,2,0,P|120:246|143:178,1,135,8|0,0:0|0:0,0:0:0:0:
160,173,24864,1,0,0:0:0:0:
104,116,25014,6,0,P|140:91|184:95,1,90,8|0,0:0|0:0,0:0:0:0:
220,20,25314,2,0,P|255:46|266:89,1,90,8|0,0:0|0:0,0:0:0:0:
348,96,25614,2,0,P|335:138|299:163,1,90,8|0,0:0|0:0,0:0:0:0:
352,16,25914,6,0,P|412:44|396:164,1,180,4|0,0:0|0:0,0:0:0:0:
360,220,26364,2,0,P|387:301|476:308,1,180,8|0,0:0|0:0,0:0:0:0:
436,240,26814,1,8,0:0:0:0:
280,168,26964,1,0,0:0:0:0:
228,332,27114,1,8,0:0:0:0:
336,268,27264,1,0,0:0:0:0:
188,224,27414,6,0,P|136:236|120:272,1,90,8|0,0:0|0:0,0:0:0:0:
124,292,27639,1,8,0:0:0:0:
128,320,27714,2,0,L|104:124,1,180,2|0,0:0|0:0,0:0:0:0:
72,60,28164,2,0,P|152:60|192:152,1,180,8|0,0:0|0:0,0:0:0:0:
148,216,28614,2,0,P|68:216|28:124,1,180,8|8,0:0|0:0,0:0:0:0:
320,112,29214,1,8,0:0:0:0:
400,112,29364,5,8,0:0:0:0:
400,112,29439,1,8,0:0:0:0:
400,111,29514,2,0,P|356:188|268:176,1,180,4|0,0:0|0:0,0:0:0:0:
200,40,29964,2,0,P|144:29|76:124,1,180,8|0,0:0|0:0,0:0:0:0:
84,320,30414,2,0,P|120:288|124:236,1,90,8|0,0:0|0:0,0:0:0:0:
0,136,30714,2,0,P|16:180|65:202,1,90,8|0,0:0|0:0,0:0:0:0:
212,140,31014,2,0,P|165:139|127:178,1,90,8|0,0:0|0:0,0:0:0:0:
196,220,31239,5,8,0:0:0:0:
196,220,31314,2,0,L|376:288,1,180,2|0,0:0|0:0,0:0:0:0:
420,232,31764,2,0,P|440:296|344:356,1,180,8|0,0:0|0:0,0:0:0:0:
108,348,32214,2,0,P|60:336|48:260,1,135,8|0,0:0|0:0,0:0:0:0:
64,252,32514,1,8,0:0:0:0:
20,68,32664,2,0,P|68:80|80:156,1,135,8|0,0:0|0:0,0:0:0:0:
64,164,32964,1,8,0:0:0:0:
48,172,33039,1,8,0:0:0:0:
48,172,33114,6,0,L|256:184,1,180,4|0,0:0|0:0,0:0:0:0:
300,128,33564,2,0,P|296:80|324:36,2,90,8|0|0,0:0|0:0|0:0,0:0:0:0:
268,260,34014,2,0,P|272:312|244:352,1,90,8|0,0:0|0:0,0:0:0:0:
328,204,34314,2,0,B|360:200|360:200|388:212|388:212|440:208,1,90,8|0,0:0|0:0,0:0:0:0:
504,204,34614,1,8,0:0:0:0:
408,328,34764,5,8,0:0:0:0:
408,328,34839,1,8,0:0:0:0:
408,328,34914,2,0,P|356:344|276:260,1,180,2|0,0:0|0:0,0:0:0:0:
360,176,35364,2,0,P|372:232|344:280,2,90,8|0|0,0:0|0:0|0:0,0:0:0:0:
340,92,35814,2,0,P|396:99|432:142,1,90,8|0,0:0|0:0,0:0:0:0:
256,80,36114,2,0,P|282:29|335:10,1,90,8|0,0:0|0:0,0:0:0:0:
260,166,36414,5,8,0:0:0:0:
215,155,36489,1,8,0:0:0:0:
184,124,36564,1,8,0:0:0:0:
169,81,36639,1,8,0:0:0:0:
180,40,36714,2,0,P|86:63|64:156,1,180,4|0,0:0|0:0,0:0:0:0:
68,224,37164,2,0,L|72:336,1,90,8|0,0:0|0:0,0:0:0:0:
148,268,37464,1,0,0:0:0:0:
236,256,37614,2,0,P|216:204|168:184,1,90,8|0,0:0|0:0,0:0:0:0:
212,336,37914,2,0,P|267:334|302:296,1,90,8|0,0:0|0:0,0:0:0:0:
488,264,38214,6,0,L|376:248,1,90,8|8,0:0|0:0,0:0:0:0:
316,244,38439,1,8,0:0:0:0:
316,244,38514,2,0,B|328:192|360:176|360:176|408:192|456:152,1,180,2|0,0:0|0:0,0:0:0:0:
464,24,38964,2,0,B|436:80|388:100|388:100|368:48|308:44,1,180,8|0,0:0|0:0,0:0:0:0:
308,120,39414,2,0,B|276:116|276:116|240:124|240:124|208:120,1,90,8|0,0:0|0:0,0:0:0:0:
8,76,39714,2,0,B|40:80|40:80|76:72|76:72|108:76,1,90,8|0,0:0|0:0,0:0:0:0:
196,256,40014,6,0,L|92:240,1,90,8|0,0:0|0:0,0:0:0:0:
64,236,40239,1,0,0:0:0:0:
100,208,40314,2,0,P|124:288|32:348,1,180,4|0,0:0|0:0,0:0:0:0:
204,316,40764,2,0,P|243:242|351:265,1,180,8|0,0:0|0:0,0:0:0:0:
368,332,41214,2,0,P|308:332|276:292,1,90,8|0,0:0|0:0,0:0:0:0:
320,164,41514,2,0,P|340:220|313:264,1,90,8|0,0:0|0:0,0:0:0:0:
176,272,41814,2,0,P|221:233|272:243,1,90,8|8,0:0|0:0,0:0:0:0:
416,256,42039,5,8,0:0:0:0:
416,256,42114,2,0,L|448:64,1,180,2|0,0:0|0:0,0:0:0:0:
216,124,42564,2,0,P|284:136|368:40,1,180,8|0,0:0|0:0,0:0:0:0:
192,40,43014,2,0,P|120:24|40:124,1,180,8|8,0:0|0:0,0:0:0:0:
132,248,43464,1,0,0:0:0:0:
56,296,43614,5,8,0:0:0:0:
84,332,43689,1,8,0:0:0:0:
128,340,43764,1,8,0:0:0:0:
172,328,43839,1,8,0:0:0:0:
208,300,43914,2,0,P|268:236|356:256,1,180,4|0,0:0|0:0,0:0:0:0:
436,268,44364,2,0,P|376:332|292:312,1,180,8|0,0:0|0:0,0:0:0:0:
88,188,44814,6,0,P|132:224|128:276,1,90,8|0,0:0|0:0,0:0:0:0:
48,268,45114,1,8,0:0:0:0:
76,108,45264,1,0,0:0:0:0:
236,116,45414,2,0,L|352:124,1,90,8|0,0:0|0:0,0:0:0:0:
376,48,45714,6,0,P|424:116|380:196,1,180,2|0,0:0|0:0,0:0:0:0:
288,200,46164,2,0,L|484:236,1,180,8|0,0:0|0:0,0:0:0:0:
252,272,46614,2,0,P|208:256|144:288,1,90,8|0,0:0|0:0,0:0:0:0:
96,324,46914,1,8,0:0:0:0:
181,186,47064,1,8,0:0:0:0:
204,146,47139,1,8,0:0:0:0:
196,104,47214,1,8,0:0:0:0:
167,70,47289,1,8,0:0:0:0:
125,50,47364,1,8,0:0:0:0:
80,55,47439,1,8,0:0:0:0:
52,80,47514,6,8,P|94:111|186:62,1,144,6|0,0:0|0:0,0:0:0:0:
272,81,47964,6,0,P|225:78|165:175,1,144,8|0,0:0|0:0,0:0:0:0:
200,228,48414,6,0,P|247:240|226:180,1,125.999996154785,6|8,0:0|0:0,0:0:0:0:
212,320,48864,6,0,P|271:315|322:271,1,125.999996154785,0|8,0:0|0:0,0:0:0:0:
320,232,49239,5,8,0:0:0:0:
320,232,49314,2,0,L|380:256,1,53.9999983520508,12|0,0:0|0:0,0:0:0:0:
192,152,49614,2,0,L|132:128,1,53.9999983520508,0|8,0:0|0:0,0:0:0:0:
329,175,49914,2,8,L|388:149,1,53.9999983520508,8|8,0:0|0:0,0:0:0:0:
182,208,50214,2,0,L|123:234,1,53.9999983520508,10|0,0:0|0:0,0:0:0:0:
20,336,50514,1,8,0:0:0:0:
44,332,50589,1,8,0:0:0:0:
68,328,50664,1,8,0:0:0:0:
92,324,50739,1,8,0:0:0:0:
116,320,50814,1,2,0:0:0:0:
140,316,50889,1,2,0:0:0:0:
164,312,50964,1,0,0:0:0:0:
188,308,51039,1,2,0:0:0:0:
268,296,51114,6,0,B|336:284|336:284|452:336,1,180,0|2,0:0|0:0,0:0:0:0:
474,251,51564,2,0,B|372:206|372:206|336:148,1,180,2|2,0:0|0:0,0:0:0:0:
300,64,52014,1,8,0:0:0:0:
268,208,52164,1,0,0:0:0:0:
424,136,52314,2,0,L|440:48,1,90
272,180,52614,2,0,L|256:268,1,90
75,315,52914,6,0,P|40:237|91:169,1,180,4|2,0:0|0:0,0:0:0:0:
277,188,53364,2,0,L|188:176,1,90,2|0,0:0|0:0,0:0:0:0:
376,200,53664,1,2,0:0:0:0:
196,288,53814,2,0,P|140:272|128:232,1,90,8|0,0:0|0:0,0:0:0:0:
104,28,54114,2,0,L|116:140,1,90,2|0,0:0|0:0,0:0:0:0:
129,247,54414,5,8,0:0:0:0:
132,272,54489,1,8,0:0:0:0:
136,300,54564,1,8,0:0:0:0:
140,328,54639,1,8,0:0:0:0:
144,356,54714,2,0,P|152:296|264:256,1,180,4|2,0:0|0:0,0:0:0:0:
408,348,55164,2,0,B|192:332,1,180,2|2,0:0|0:0,0:0:0:0:
204,24,55614,6,0,L|212:132,1,90,8|0,0:0|0:0,0:0:0:0:
216,204,55914,1,0,0:0:0:0:
104,128,56064,1,2,0:0:0:0:
148,256,56214,1,2,0:0:0:0:
324,112,56364,1,0,0:0:0:0:
108,48,56514,2,0,P|36:88|56:192,1,180,4|2,0:0|0:0,0:0:0:0:
216,240,56964,2,0,P|203:158|98:141,1,180,2|2,0:0|0:0,0:0:0:0:
16,344,57414,2,0,L|140:212,1,180,8|2,0:0|0:0,0:0:0:0:
310,46,57864,5,8,0:0:0:0:
354,38,57939,1,8,0:0:0:0:
396,56,58014,1,8,0:0:0:0:
421,90,58089,1,8,0:0:0:0:
429,134,58164,1,8,0:0:0:0:
415,175,58239,1,8,0:0:0:0:
388,212,58314,6,0,P|394:296|475:334,1,180,4|2,0:0|0:0,3:0:0:0:
172,332,58764,2,0,P|87:325|49:244,1,180,2|2,0:0|0:0,0:0:0:0:
140,244,59214,1,8,0:0:0:0:
228,236,59364,1,0,0:0:0:0:
264,320,59514,1,2,0:0:0:0:
172,160,59664,1,0,0:0:0:0:
400,272,59814,2,0,L|308:252,1,90,2|0,0:0|0:0,0:0:0:0:
88,152,60114,6,0,P|140:80|236:104,1,180,4|2,0:0|0:0,0:0:0:0:
332,340,60564,2,0,P|246:315|236:217,1,180,2|2,0:0|0:0,0:0:0:0:
388,16,61014,2,0,P|394:104|305:147,1,180,8|2,0:0|0:0,0:0:0:0:
248,100,61464,1,0,0:0:0:0:
416,208,61614,2,0,L|432:320,1,90,0|0,0:0|0:0,0:0:0:0:
240,336,61914,6,0,P|168:348|120:288,1,135,4|0,0:0|0:0,0:0:0:0:
132,284,62214,1,2,0:0:0:0:
32,136,62364,2,0,P|104:124|152:184,1,135,2|0,0:0|0:0,0:0:0:0:
140,188,62664,1,2,0:0:0:0:
196,276,62814,2,0,B|220:172,1,90,8|0,0:0|0:0,0:0:0:0:
328,52,63114,2,0,B|304:156,1,90,2|0,0:0|0:0,0:0:0:0:
212,296,63414,2,0,B|236:192,1,90,2|0,0:0|0:0,0:0:0:0:
328,52,63714,6,0,P|384:76|392:152,1,135,4|0,0:0|0:0,0:0:0:0:
388,152,64014,1,2,0:0:0:0:
216,56,64164,1,2,0:0:0:0:
392,240,64314,2,0,L|400:340,1,90,0|2,0:0|0:0,0:0:0:0:
84,360,64614,2,0,L|76:260,1,90,8|0,0:0|0:0,0:0:0:0:
60,60,64914,5,8,0:0:0:0:
72,84,64989,1,8,0:0:0:0:
96,96,65064,1,8,0:0:0:0:
124,96,65139,1,8,0:0:0:0:
144,60,65214,5,8,0:0:0:0:
172,60,65289,1,8,0:0:0:0:
196,72,65364,1,8,0:0:0:0:
208,96,65439,1,8,0:0:0:0:
160,168,65514,6,0,P|216:184|292:96,1,180,4|2,0:0|0:0,0:0:0:0:
488,132,65964,2,0,P|432:116|356:204,1,180,2|2,0:0|0:0,0:0:0:0:
440,200,66414,1,8,0:0:0:0:
344,44,66564,1,0,0:0:0:0:
420,288,66714,2,0,P|480:284|504:260,1,90,2|0,0:0|0:0,0:0:0:0:
256,252,67014,2,0,P|196:256|172:280,1,90,2|0,0:0|0:0,0:0:0:0:
276,336,67314,6,0,P|335:285|308:183,1,180,4|2,0:0|0:0,0:0:0:0:
232,164,67764,1,2,0:0:0:0:
88,124,67914,1,0,0:0:0:0:
80,304,68064,1,2,0:0:0:0:
128,208,68214,2,0,P|176:120|112:40,1,180,8|2,0:0|0:0,0:0:0:0:
88,124,68664,1,0,0:0:0:0:
264,92,68814,2,0,L|372:80,1,90,2|0,0:0|0:0,0:0:0:0:
496,300,69114,6,0,P|400:308|352:232,1,180,4|2,0:0|0:0,0:0:0:0:
440,224,69564,1,2,0:0:0:0:
308,332,69714,2,0,B|216:340,1,90,0|2,0:0|0:0,0:0:0:0:
60,204,70014,1,8,0:0:0:0:
128,348,70164,1,0,0:0:0:0:
48,324,70314,2,0,P|72:284|124:268,1,90,2|0,0:0|0:0,0:0:0:0:
236,232,70614,2,0,P|190:223|157:179,1,90,2|0,0:0|0:0,0:0:0:0:
12,24,70914,6,0,P|92:48|104:140,1,180,4|2,0:0|0:0,0:0:0:0:
28,108,71364,1,2,0:0:0:0:
248,92,71514,2,0,L|344:100,1,90,0|2,0:0|0:0,0:0:0:0:
428,328,71814,2,0,P|348:320|328:220,1,180,8|2,0:0|0:0,0:0:0:0:
332,208,72189,5,8,0:0:0:0:
352,192,72264,1,8,0:0:0:0:
380,192,72339,1,8,0:0:0:0:
400,208,72414,1,8,0:0:0:0:
412,232,72489,1,8,0:0:0:0:
400,256,72564,1,8,0:0:0:0:
380,272,72639,1,8,0:0:0:0:
352,276,72714,2,0,P|268:244|192:320,1,180,4|2,0:0|0:0,0:0:0:0:
80,364,73164,6,0,L|96:176,1,180,2|2,0:0|0:0,0:0:0:0:
108,72,73614,2,0,P|60:92|12:88,1,90,8|0,0:0|0:0,0:0:0:0:
320,84,73914,2,0,P|368:64|416:68,1,90,2|0,0:0|0:0,0:0:0:0:
228,208,74214,2,0,P|176:200|148:160,1,90,2|0,0:0|0:0,0:0:0:0:
252,32,74514,2,0,P|312:72|300:176,1,180,4|0,0:0|0:0,0:0:0:0:
260,352,74964,2,0,P|200:312|212:208,1,180,2|2,0:0|0:0,0:0:0:0:
240,116,75414,5,8,0:0:0:0:
272,268,75564,1,0,0:0:0:0:
160,152,75714,1,0,0:0:0:0:
344,224,75864,1,0,0:0:0:0:
256,192,76014,5,2,0:0:0:0:
256,192,76089,1,8,0:0:0:0:
256,192,76164,1,8,0:0:0:0:
256,192,76239,1,8,0:0:0:0:
256,192,76314,1,4,0:0:0:0:
256,192,76389,12,0,79614,0:0:0:0:
76,32,79914,6,0,P|24:104|56:204,1,180,4|0,0:0|0:0,0:0:0:0:
96,296,80364,2,0,P|140:240|264:272,1,180,8|0,0:0|0:0,0:0:0:0:
308,304,80814,2,0,P|344:324|416:312,1,90,8|0,0:0|0:0,0:0:0:0:
241,246,81114,2,0,P|205:226|133:238,1,90,8|0,0:0|0:0,0:0:0:0:
320,216,81414,2,0,P|351:189|364:117,1,90,8|0,0:0|0:0,0:0:0:0:
176,88,81714,6,0,P|260:108|340:24,1,180,2|0,0:0|0:0,0:0:0:0:
128,20,82164,2,0,P|92:68|160:168,1,180,8|0,0:0|0:0,0:0:0:0:
241,246,82614,2,0,L|141:274,1,90,8|0,0:0|0:0,0:0:0:0:
69,294,82914,1,8,0:0:0:0:
316,304,83064,2,0,L|416:332,2,90,0|8|8,0:0|0:0|0:0,0:0:0:0:
241,246,83439,5,8,0:0:0:0:
241,246,83514,2,0,P|252:176|352:144,1,180,4|0,0:0|0:0,0:0:0:0:
496,264,83964,2,0,B|320:220,1,180,8|0,0:0|0:0,0:0:0:0:
212,332,84414,2,0,P|168:312|144:268,1,90,8|0,0:0|0:0,0:0:0:0:
60,292,84714,2,0,P|63:243|96:206,1,90,8|0,0:0|0:0,0:0:0:0:
52,132,85014,2,0,P|98:119|145:137,1,90,8|8,0:0|0:0,0:0:0:0:
204,180,85239,5,8,0:0:0:0:
204,180,85314,2,0,P|288:212|364:128,1,180,2|0,0:0|0:0,0:0:0:0:
444,48,85764,2,0,L|432:240,1,180,8|0,0:0|0:0,0:0:0:0:
176,348,86214,2,0,P|124:344|84:300,1,90,8|0,0:0|0:0,0:0:0:0:
80,232,86514,1,8,0:0:0:0:
168,56,86664,1,0,0:0:0:0:
168,156,86814,2,0,P|120:152|88:116,1,90,0|8,0:0|0:0,0:0:0:0:
240,108,87039,5,8,0:0:0:0:
240,108,87114,2,0,P|324:88|392:148,1,180,4|0,0:0|0:0,0:0:0:0:
480,304,87564,2,0,P|396:324|328:264,1,180,8|0,0:0|0:0,0:0:0:0:
248,304,88014,2,0,B|156:344,1,90,8|0,0:0|0:0,0:0:0:0:
48,296,88314,2,0,B|140:256,1,90,8|0,0:0|0:0,0:0:0:0:
184,144,88614,2,0,B|92:184,1,90,8|0,0:0|0:0,0:0:0:0:
16,204,88839,5,0,0:0:0:0:
16,204,88914,2,0,P|12:156|120:92,1,180,2|0,0:0|0:0,0:0:0:0:
279,93,89364,2,0,B|376:56|455:91,1,180,8|0,0:0|0:0,0:0:0:0:
204,50,89814,2,0,B|108:88|28:52,1,180,8|0,0:0|0:0,0:0:0:0:
48,336,90414,5,8,0:0:0:0:
76,324,90489,1,8,0:0:0:0:
104,312,90564,1,8,0:0:0:0:
132,300,90639,1,8,0:0:0:0:
160,288,90714,6,0,L|356:340,1,180,4|0,0:0|0:0,0:0:0:0:
484,180,91164,2,0,P|404:176|360:268,1,180,8|0,0:0|0:0,0:0:0:0:
452,344,91614,2,0,L|436:236,1,90
304,40,91914,2,0,L|320:148,1,90,8|0,0:0|0:0,0:0:0:0:
236,356,92214,2,0,L|220:248,1,90,8|8,0:0|0:0,0:0:0:0:
192,48,92439,5,8,0:0:0:0:
192,48,92514,2,0,P|120:36|52:128,1,180,2|0,0:0|0:0,0:0:0:0:
64,204,92964,2,0,L|80:308,1,90,8|0,0:0|0:0,0:0:0:0:
156,232,93264,1,0,0:0:0:0:
60,376,93414,2,0,P|116:368|148:324,1,90
156,232,93714,1,8,0:0:0:0:
284,192,93864,1,0,0:0:0:0:
336,312,94014,1,8,0:0:0:0:
340,320,94089,1,8,0:0:0:0:
344,328,94164,1,8,0:0:0:0:
348,336,94239,1,8,0:0:0:0:
352,344,94314,6,0,P|376:292|312:196,1,180,4|0,0:0|0:0,0:0:0:0:
228,220,94764,2,0,L|424:168,1,180,8|0,0:0|0:0,0:0:0:0:
192,128,95214,2,0,L|104:108,1,90,8|0,0:0|0:0,0:0:0:0:
16,92,95514,1,8,0:0:0:0:
272,72,95664,2,0,L|388:44,2,90,0|8|0,0:0|0:0|0:0,0:0:0:0:
48,284,96114,6,0,P|116:288|160:188,1,180,2|0,0:0|0:0,0:0:0:0:
84,208,96564,2,0,B|168:372,1,180,8|0,0:0|0:0,0:0:0:0:
248,328,97014,2,0,P|284:304|348:308,1,90,8|0,0:0|0:0,0:0:0:0:
400,348,97314,2,0,P|415:307|398:246,1,90,8|0,0:0|0:0,0:0:0:0:
348,208,97614,2,0,L|364:96,1,90,8|8,0:0|0:0,0:0:0:0:
368,36,97839,5,8,0:0:0:0:
368,36,97914,2,0,P|308:40|280:160,1,180,4|0,0:0|0:0,0:0:0:0:
272,232,98364,2,0,L|84:192,1,180,8|0,0:0|0:0,0:0:0:0:
32,132,98814,1,8,0:0:0:0:
116,96,98964,1,0,0:0:0:0:
84,284,99114,1,8,0:0:0:0:
16,220,99264,1,0,0:0:0:0:
180,36,99414,2,0,P|200:76|192:124,1,90,0|8,0:0|0:0,0:0:0:0:
168,316,99639,5,8,0:0:0:0:
168,316,99714,2,0,P|240:356|328:312,1,180,2|0,0:0|0:0,0:0:0:0:
376,248,100164,2,0,P|363:166|434:99,1,180,8|0,0:0|0:0,0:0:0:0:
444,192,100614,2,0,P|476:232|472:304,1,90,8|0,0:0|0:0,0:0:0:0:
272,228,100914,2,0,P|298:184|367:163,1,90,8|0,0:0|0:0,0:0:0:0:
345,333,101214,2,0,L|381:237,1,90,8|8,0:0|0:0,0:0:0:0:
404,108,101439,5,8,0:0:0:0:
404,108,101514,2,0,P|316:72|236:136,1,180,4|0,0:0|0:0,0:0:0:0:
124,216,101964,2,0,P|64:218|2:117,1,180,8|0,0:0|0:0,0:0:0:0:
92,132,102414,2,0,P|168:140|200:208,1,135,8|0,0:0|0:0,0:0:0:0:
220,212,102714,2,0,L|188:296,1,90
276,144,103014,1,8,0:0:0:0:
276,144,103089,1,8,0:0:0:0:
276,144,103164,1,8,0:0:0:0:
276,144,103239,1,8,0:0:0:0:
276,144,103314,6,0,P|372:144|404:60,1,180,4|0,0:0|0:0,0:0:0:0:
384,168,103764,2,0,L|357:373,1,180,8|0,0:0|0:0,0:0:0:0:
280,272,104214,2,0,P|224:228|156:264,1,135,8|0,0:0|0:0,0:0:0:0:
164,264,104514,1,8,0:0:0:0:
120,344,104664,2,0,P|80:300|84:252,1,90,0|8,0:0|0:0,0:0:0:0:
88,200,104964,1,8,0:0:0:0:
108,192,105039,1,8,0:0:0:0:
128,184,105114,6,0,P|120:104|28:88,1,180,4|0,0:0|0:0,0:0:0:0:
184,48,105564,2,0,P|252:96|356:60,1,180,8|0,0:0|0:0,0:0:0:0:
428,40,106014,1,8,0:0:0:0:
402,246,106164,1,0,0:0:0:0:
388,140,106314,2,0,P|336:160|316:216,1,90,8|0,0:0|0:0,0:0:0:0:
96,348,106614,2,0,L|80:232,1,90,8|8,0:0|0:0,0:0:0:0:
72,168,106839,1,8,0:0:0:0:
72,168,106914,6,0,P|152:192|168:280,1,180,2|0,0:0|0:0,0:0:0:0:
220,148,107364,2,0,P|215:64|292:19,1,180,8|0,0:0|0:0,0:0:0:0:
452,117,107814,2,0,P|372:137|280:93,2,180,8|8|0,0:0|0:0|0:0,0:0:0:0:
288,304,108564,1,8,0:0:0:0:
268,308,108639,1,8,0:0:0:0:
252,312,108714,2,0,L|148:296,1,72,4|0,0:0|0:0,0:0:0:0:
320,232,109014,2,0,L|424:216,1,72,0|8,0:0|0:0,0:0:0:0:
184,212,109314,5,0,0:0:0:0:
184,212,109464,1,0,0:0:0:0:
184,212,109614,2,0,L|120:204,1,62.9999980773926,8|0,0:0|0:0,0:0:0:0:
360,140,109914,2,0,L|440:124,1,62.9999980773926,8|0,0:0|0:0,0:0:0:0:
152,128,110214,2,0,L|80:116,1,53.9999983520508,8|0,0:0|0:0,0:0:0:0:
164,86,110514,6,0,L|64:128,1,107.999996704102,2|0,0:0|0:0,0:0:0:0:
349,297,110964,2,0,L|448:256,1,107.999996704102,8|0,0:0|0:0,0:0:0:0:
256,36,111414,1,4,0:0:0:0:
256,336,111714,5,8,0:0:0:0:
256,324,111789,1,8,0:0:0:0:
256,312,111864,1,8,0:0:0:0:
256,300,111939,1,8,0:0:0:0:
256,288,112014,1,8,0:0:0:0:
256,276,112089,1,8,0:0:0:0:
256,264,112164,1,8,0:0:0:0:
256,252,112239,1,8,0:0:0:0:
256,152,112314,6,0,P|324:164|352:268,1,180,2|2,0:0|0:0,0:0:0:0:
428,316,112764,2,0,P|360:260|264:304,1,180,2|0,0:0|0:0,0:0:0:0:
124,336,113214,1,8,0:0:0:0:
56,276,113364,1,0,0:0:0:0:
140,248,113514,1,2,0:0:0:0:
24,123,113664,1,0,0:0:0:0:
112,107,113814,1,2,0:0:0:0:
80,192,113964,1,0,0:0:0:0:
96,24,114114,6,0,P|184:64|160:168,1,180,4|2,0:0|0:0,0:0:0:0:
300,164,114564,2,0,P|240:156|192:264,1,180,2|2,0:0|0:0,0:0:0:0:
448,244,115014,2,2,B|384:236|384:236|332:252|332:252|268:244,1,180,8|0,0:0|0:0,0:0:0:0:
72,324,115464,1,0,0:0:0:0:
100,144,115614,5,8,0:0:0:0:
96,168,115689,1,8,0:0:0:0:
92,192,115764,1,8,0:0:0:0:
88,216,115839,1,8,0:0:0:0:
84,240,115914,2,0,L|56:44,1,180,4|2,0:0|0:0,0:0:0:0:
352,32,116364,2,0,P|416:84|384:184,1,180,2|2,0:0|0:0,0:0:0:0:
308,184,116814,6,0,L|188:196,1,90,8|0,0:0|0:0,0:0:0:0:
132,168,117114,1,2,0:0:0:0:
192,104,117264,1,0,0:0:0:0:
368,240,117414,1,2,0:0:0:0:
308,304,117564,1,0,0:0:0:0:
80,352,117714,6,0,P|40:300|112:200,1,180,4|2,0:0|0:0,0:0:0:0:
192,52,118164,2,0,P|232:104|160:204,1,180,0|2,0:0|0:0,0:0:0:0:
124,280,118614,1,8,0:0:0:0:
156,120,118764,1,0,0:0:0:0:
124,280,118914,1,2,0:0:0:0:
76,88,119064,5,8,0:0:0:0:
104,52,119139,1,8,0:0:0:0:
148,36,119214,1,8,0:0:0:0:
192,44,119289,1,8,0:0:0:0:
228,72,119364,1,8,0:0:0:0:
240,116,119439,1,8,0:0:0:0:
183,183,119514,6,0,P|267:198|318:130,1,180,4|2,0:0|0:0,0:0:0:0:
416,356,119964,2,0,P|364:284|264:324,1,180,2|2,0:0|0:0,0:0:0:0:
200,332,120414,2,0,P|160:356|84:336,1,90,8|0,0:0|0:0,0:0:0:0:
132,268,120714,2,0,P|95:238|88:160,1,90,2|0,0:0|0:0,0:0:0:0:
172,184,121014,2,0,P|187:139|258:106,1,90,2|0,0:0|0:0,0:0:0:0:
452,268,121314,6,0,L|333:115,1,180,4|0,0:0|0:0,0:0:0:0:
376,60,121764,2,0,P|416:128|336:200,1,180,0|2,0:0|0:0,0:0:0:0:
60,312,122214,2,0,P|43:249|113:196,1,135,8|0,0:0|0:0,0:0:0:0:
168,204,122514,2,0,L|268:220,1,90,0|0,0:0|0:0,0:0:0:0:
476,308,122814,5,8,0:0:0:0:
432,320,122889,1,8,0:0:0:0:
388,304,122964,1,8,0:0:0:0:
368,264,123039,1,8,0:0:0:0:
372,220,123114,2,0,P|408:292|328:344,1,180,0|0,0:0|0:0,0:0:0:0:
272,288,123564,1,0,0:0:0:0:
184,272,123714,1,0,0:0:0:0:
132,348,123864,1,2,0:0:0:0:
192,188,124014,2,0,P|148:196|112:260,1,90,8|0,0:0|0:0,0:0:0:0:
36,264,124314,5,2,0:0:0:0:
192,188,124464,1,0,0:0:0:0:
44,84,124614,1,2,0:0:0:0:
84,176,124764,1,0,0:0:0:0:
180,96,124914,6,0,L|304:72,1,90,4|0,0:0|0:0,0:0:0:0:
356,56,125214,1,2,0:0:0:0:
440,88,125364,1,2,0:0:0:0:
452,176,125514,1,0,0:0:0:0:
388,240,125664,1,2,0:0:0:0:
228,184,125814,2,0,P|272:184|320:228,1,90,8|0,0:0|0:0,0:0:0:0:
312,300,126114,5,8,0:0:0:0:
280,332,126189,1,8,0:0:0:0:
240,348,126264,1,8,0:0:0:0:
196,344,126339,1,8,0:0:0:0:
180,304,126414,1,8,0:0:0:0:
148,272,126489,1,8,0:0:0:0:
104,256,126564,1,8,0:0:0:0:
60,268,126639,1,8,0:0:0:0:
24,296,126714,6,0,P|-16:220|44:152,1,180,4|2,0:0|0:0,0:0:0:0:
260,128,127164,2,0,P|202:191|117:158,1,180,2|2,0:0|0:0,0:0:0:0:
176,24,127614,2,0,L|184:120,1,90,8|0,0:0|0:0,0:0:0:0:
304,320,127914,2,0,L|296:224,1,90,2|0,0:0|0:0,0:0:0:0:
392,40,128214,2,0,L|400:136,1,90,2|0,0:0|0:0,0:0:0:0:
408,308,128514,6,0,P|364:332|264:264,1,180,4|2,0:0|0:0,0:0:0:0:
348,236,128964,1,2,0:0:0:0:
208,332,129114,2,0,L|96:304,1,90,0|2,0:0|0:0,0:0:0:0:
56,172,129414,2,0,P|104:200|112:256,1,90,8|0,0:0|0:0,0:0:0:0:
128,36,129714,2,0,P|142:90|108:135,1,90,2|0,0:0|0:0,0:0:0:0:
284,48,130014,2,0,P|256:96|200:104,1,90,2|0,0:0|0:0,0:0:0:0:
476,196,130314,6,0,P|405:215|348:130,1,180,4|2,0:0|0:0,0:0:0:0:
432,108,130764,2,0,L|380:300,1,180,2|2,0:0|0:0,0:0:0:0:
284,336,131214,2,0,B|296:304|296:304|296:284|296:284|320:220,1,90,8|0,0:0|0:0,0:0:0:0:
220,48,131514,2,0,B|208:80|208:80|208:100|208:100|184:164,1,90,2|0,0:0|0:0,0:0:0:0:
28,312,131814,2,0,B|40:280|40:280|40:260|40:260|64:196,1,90,2|0,0:0|0:0,0:0:0:0:
244,208,132114,2,0,P|168:224|112:128,1,180,4|2,0:0|0:0,0:0:0:0:
284,120,132564,2,0,P|360:104|416:200,1,180,2|2,0:0|0:0,0:0:0:0:
336,188,133014,1,8,0:0:0:0:
460,56,133164,1,0,0:0:0:0:
452,304,133314,5,2,0:0:0:0:
424,332,133389,1,0,0:0:0:0:
380,344,133464,1,8,0:0:0:0:
336,332,133539,1,8,0:0:0:0:
312,296,133614,1,8,0:0:0:0:
284,260,133689,1,8,0:0:0:0:
240,248,133764,1,8,0:0:0:0:
196,256,133839,1,8,0:0:0:0:
152,272,133914,6,0,P|80:292|16:216,1,180,4|2,0:0|0:0,0:0:0:0:
128,36,134364,2,0,B|112:88|112:88|116:152|116:152|96:220,1,180,2|2,0:0|0:0,0:0:0:0:
32,148,134814,2,0,P|64:120|136:128,1,90,8|0,0:0|0:0,0:0:0:0:
296,140,135114,2,0,B|256:160|256:160|216:140,1,90,2|0,0:0|0:0,0:0:0:0:
402,115,135414,2,0,P|446:119|480:148,1,90,2|0,0:0|0:0,0:0:0:0:
452,328,135714,2,0,P|396:292|416:192,1,180,4|2,0:0|0:0,0:0:0:0:
468,252,136164,1,0,0:0:0:0:
308,328,136314,2,0,L|192:320,1,90,0|2,0:0|0:0,0:0:0:0:
48,320,136614,5,8,0:0:0:0:
168,144,136764,1,0,0:0:0:0:
72,212,136914,2,0,L|84:112,1,90,2|0,0:0|0:0,0:0:0:0:
292,124,137214,1,8,0:0:0:0:
328,148,137289,1,8,0:0:0:0:
344,192,137364,1,8,0:0:0:0:
328,236,137439,1,8,0:0:0:0:
292,260,137514,1,12,0:0:0:0:
256,192,137589,12,0,140214,0:0:0:0:
140,196,140514,6,8,P|165:215|171:232,3,45,8|8|8|8,0:0|0:0|0:0|0:0,0:0:0:0:
36,212,140814,2,8,P|10:192|4:175,3,45,8|0|0|0,0:0|0:0|0:0|0:0,0:0:0:0:
72,143,141114,6,0,B|67:87|98:47,1,90,8|2,0:0|0:0,0:0:0:0:
155,120,141414,1,2,0:0:0:0:
156,209,141564,2,0,B|188:254|181:305,1,90,8|2,0:0|0:0,0:0:0:0:
94,273,141864,1,2,0:0:0:0:
156,208,142014,2,0,B|186:174|234:167,1,90,8|0,0:0|0:0,0:0:0:0:
308,217,142314,2,0,B|329:177|319:129,1,90,8|0,0:0|0:0,0:0:0:0:
251,71,142614,2,0,B|294:58|321:17,1,90,8|0,0:0|0:0,0:0:0:0:
383,175,142914,6,0,B|402:227|382:274,1,90,12|2,0:0|0:0,0:0:0:0:
308,218,143214,1,2,0:0:0:0:
283,132,143364,2,0,B|239:95|233:45,1,90,8|2,0:0|0:0,0:0:0:0:
327,55,143664,1,2,0:0:0:0:
284,132,143814,2,0,B|263:172|218:191,1,90,8|0,0:0|0:0,0:0:0:0:
134,164,144114,2,0,B|123:208|145:251,1,90,8|0,0:0|0:0,0:0:0:0:
228,291,144414,2,0,B|189:314|174:361,1,90,8|0,0:0|0:0,0:0:0:0:
307,298,144714,6,0,B|338:275|348:220,1,80.9999975280763,8|2,0:0|0:0,0:0:0:0:
261,219,145014,1,2,0:0:0:0:
284,132,145164,2,0,B|264:79|284:32,1,80.9999975280763,8|2,0:0|0:0,0:0:0:0:
359,88,145464,1,2,0:0:0:0:
284,132,145614,2,0,B|246:157|197:151,1,80.9999975280763,8|0,0:0|0:0,0:0:0:0:
137,85,145914,2,0,B|105:117|103:166,1,80.9999975280763,8|0,0:0|0:0,0:0:0:0:
155,242,146214,2,0,B|109:243|73:275,1,80.9999975280763,8|0,0:0|0:0,0:0:0:0:
267,47,146514,6,0,B|305:51|340:88,1,80.9999975280763,8|2,0:0|0:0,0:0:0:0:
284,132,146814,1,2,0:0:0:0:
332,180,146964,2,0,B|341:235|376:256,1,80.9999975280763,8|2,0:0|0:0,0:0:0:0:
404,188,147264,1,2,0:0:0:0:
332,180,147414,2,0,B|286:177|257:202,1,80.9999975280763,8|0,0:0|0:0,0:0:0:0:
248,268,147714,2,0,B|204:255|182:223,1,80.9999975280763,8|0,0:0|0:0,0:0:0:0:
184,160,148014,2,0,B|144:181|101:172,1,80.9999975280763,8|0,0:0|0:0,0:0:0:0:
256,51,148314,6,0,B|282:24|320:20,1,62.9999980773926,8|2,0:0|0:0,0:0:0:0:
307,105,148614,1,2,0:0:0:0:
255,153,148764,2,0,B|246:208|211:229,1,62.9999980773926,8|2,0:0|0:0,0:0:0:0:
183,161,149064,1,2,0:0:0:0:
255,153,149214,2,0,B|301:150|330:175,1,62.9999980773926,8|0,0:0|0:0,0:0:0:0:
339,241,149514,2,0,B|383:228|405:196,1,62.9999980773926,8|0,0:0|0:0,0:0:0:0:
403,133,149814,2,0,B|443:154|486:145,1,62.9999980773926,8|0,0:0|0:0,0:0:0:0:
254,253,150114,6,0,B|228:280|200:288,1,53.9999983520508,8|2,0:0|0:0,0:0:0:0:
200,224,150414,1,2,0:0:0:0:
252,188,150564,2,0,B|256:144|289:125,1,53.9999983520508,8|2,0:0|0:0,0:0:0:0:
312,168,150864,1,2,0:0:0:0:
252,188,151014,2,0,B|212:192|184:168,1,53.9999983520508,8|0,0:0|0:0,0:0:0:0:
188,116,151314,2,0,B|148:128|136:160,1,53.9999983520508,8|0,0:0|0:0,0:0:0:0:
46,193,151614,2,0,B|76:187|108:204,1,53.9999983520508,8|0,0:0|0:0,0:0:0:0:
223,280,151914,6,0,B|196:300|177:302,1,45,8|2,0:0|0:0,0:0:0:0:
188,252,152214,1,2,0:0:0:0:
231,231,152364,2,0,B|238:199|263:181,1,45,8|2,0:0|0:0,0:0:0:0:
280,227,152664,1,2,0:0:0:0:
231,231,152814,2,0,B|199:227|177:202,1,45,8|0,0:0|0:0,0:0:0:0:
188,163,153114,2,0,B|159:163|131:188,1,45,8|0,0:0|0:0,0:0:0:0:
111,217,153414,2,0,B|92:195|53:192,1,45,8|0,0:0|0:0,0:0:0:0:
140,48,153714,6,0,B|157:43|193:53,1,53.9999983520508,8|2,0:0|0:0,0:0:0:0:
166,97,154014,1,2,0:0:0:0:
219,103,154164,2,0,B|248:112|271:143,1,53.9999983520508,8|2,0:0|0:0,0:0:0:0:
272,188,154464,1,2,0:0:0:0:
320,164,154614,5,8,0:0:0:0:
320,164,154689,1,8,0:0:0:0:
320,164,154764,1,8,0:0:0:0:
320,164,154839,1,8,0:0:0:0:
320,164,154914,1,8,0:0:0:0:
254,305,155214,1,8,0:0:0:0:
254,305,155289,1,8,0:0:0:0:
254,305,155364,1,8,0:0:0:0:
254,305,155439,1,8,0:0:0:0:
254,305,155514,6,0,B|220:332|213:343|213:343|167:329,1,90,4|0,0:0|0:0,0:0:0:0:
184,288,155964,2,0,B|191:226|172:186,1,90,8|0,0:0|0:0,0:0:0:0:
130,121,156414,2,0,B|184:131,1,45,8|0,0:0|0:0,0:0:0:0:
217,52,156714,2,0,B|248:97,1,45,8|0,0:0|0:0,0:0:0:0:
327,66,157014,2,0,B|317:120,1,45,8|0,0:0|0:0,0:0:0:0:
312,132,157314,6,0,B|337:127|337:127|357:162|399:147,1,90,12|2,0:0|0:0,0:0:0:0:
396,100,157764,2,0,P|436:115|444:167,1,90,8|2,0:0|0:0,0:0:0:0:
396,224,158214,2,0,B|347:251,1,45,8|0,0:0|0:0,0:0:0:0:
332,313,158514,2,0,B|278:298,1,45,8|0,0:0|0:0,0:0:0:0:
223,332,158814,2,0,B|197:283,1,45,8|0,0:0|0:0,0:0:0:0:
188,272,159114,6,0,B|141:247|101:260,1,90,12|2,0:0|0:0,0:0:0:0:
84,272,159564,2,0,B|60:243|86:212|86:212|72:191,1,90,8|2,0:0|0:0,0:0:0:0:
120,128,160014,2,0,B|81:76,1,45,8|0,0:0|0:0,0:0:0:0:
180,68,160314,2,0,B|189:3,1,45,8|0,0:0|0:0,0:0:0:0:
264,52,160614,2,0,B|315:13,1,45,8|0,0:0|0:0,0:0:0:0:
368,60,160914,6,0,B|381:107|364:149,1,90,4|2,0:0|0:0,0:0:0:0:
360,172,161364,2,0,B|331:196|300:170|300:170|279:184,1,90,8|2,0:0|0:0,0:0:0:0:
260,192,161814,2,0,B|241:234,1,45,8|0,0:0|0:0,0:0:0:0:
160,244,162114,2,0,B|176:287,1,45,8|0,0:0|0:0,0:0:0:0:
116,344,162414,2,0,B|158:363,1,45,8|0,0:0|0:0,0:0:0:0:
256,352,162714,6,0,B|267:333|267:333|304:348|340:328,1,90,12|2,0:0|0:0,0:0:0:0:
360,296,163164,2,0,B|396:261|442:269,1,90,8|2,0:0|0:0,0:0:0:0:
476,192,163614,2,0,B|428:172,1,45,8|0,0:0|0:0,0:0:0:0:
416,84,163914,2,0,B|369:103,1,45,8|0,0:0|0:0,0:0:0:0:
304,40,164214,2,0,B|284:87,1,45,8|0,0:0|0:0,0:0:0:0:
208,141,164514,6,0,B|158:119|117:154,1,90,8|2,0:0|0:0,0:0:0:0:
133,193,164964,2,0,B|155:243|120:284,1,90,8|2,0:0|0:0,0:0:0:0:
225,318,165414,2,0,B|207:276|211:257,1,53.9999983520508,8|0,0:0|0:0,0:0:0:0:
292,264,165714,2,0,B|308:221|325:210,1,53.9999983520508,8|0,0:0|0:0,0:0:0:0:
376,276,166014,2,0,B|418:258|437:262,1,53.9999983520508,8|0,0:0|0:0,0:0:0:0:
482,124,166314,6,0,B|409:107|351:47,1,144,12|2,0:0|0:0,0:0:0:0:
335,122,166764,2,0,B|268:155|185:147,1,144,8|2,0:0|0:0,0:0:0:0:
71,74,167214,2,0,B|53:152,1,72,8|0,0:0|0:0,0:0:0:0:
196,148,167514,2,0,B|178:226,1,72,8|0,0:0|0:0,0:0:0:0:
321,252,167814,2,0,B|303:330,1,72,8|0,0:0|0:0,0:0:0:0:
256,192,168114,12,0,169014,0:0:0:0:
132,188,169164,5,0,0:0:0:0:
272,100,169314,5,8,0:0:0:0:
304,104,169389,1,8,0:0:0:0:
336,136,169464,1,8,0:0:0:0:
344,180,169539,1,8,0:0:0:0:
324,220,169614,1,8,0:0:0:0:
280,232,169689,1,8,0:0:0:0:
248,264,169764,1,8,0:0:0:0:
240,308,169839,1,8,0:0:0:0:
256,348,169914,6,0,P|336:372|400:308,1,180,4|2,0:0|0:0,0:0:0:0:
192,120,170364,2,0,P|112:96|48:160,1,180,2|2,0:0|0:0,0:0:0:0:
132,188,170814,1,8,0:0:0:0:
108,276,170964,1,0,0:0:0:0:
208,240,171114,1,2,0:0:0:0:
104,112,171264,1,0,0:0:0:0:
64,344,171414,1,2,0:0:0:0:
264,168,171564,1,0,0:0:0:0:
100,24,171714,6,0,P|44:48|60:180,1,180,4|2,0:0|0:0,0:0:0:0:
84,232,172164,2,0,L|280:264,1,180,2|2,0:0|0:0,0:0:0:0:
440,264,172614,2,0,P|380:268|336:376,1,180,8|2,0:0|0:0,0:0:0:0:
416,344,173064,1,0,0:0:0:0:
364,148,173214,1,8,0:0:0:0:
357,125,173289,1,8,0:0:0:0:
351,104,173364,1,8,0:0:0:0:
344,82,173439,1,8,0:0:0:0:
336,64,173514,6,0,P|307:145|360:213,1,180,12|2,0:0|0:0,0:0:0:0:
224,192,173964,2,0,L|40:160,1,180,2|2,0:0|0:0,0:0:0:0:
32,72,174414,1,8,0:0:0:0:
104,264,174564,1,0,0:0:0:0:
309,225,174714,2,0,P|281:191|232:184,1,90,2|0,0:0|0:0,0:0:0:0:
92,348,175014,2,0,P|136:346|171:312,1,90,2|0,0:0|3:0,0:0:0:0:
24,208,175314,6,0,P|104:216|160:120,1,180,4|2,0:0|0:0,0:0:0:0:
428,60,175764,2,0,P|348:52|292:148,1,180,2|2,0:0|0:0,0:0:0:0:
212,328,176214,2,0,B|291:277|323:374|414:313,1,180,8|2,0:0|0:0,0:0:0:0:
456,272,176664,2,0,P|428:252|404:248,1,45,8|8,0:0|0:0,0:0:0:0:
416,156,176814,2,0,P|382:161|362:175,1,45,8|8,0:0|0:0,0:0:0:0:
304,112,176964,2,0,P|283:139|280:163,1,45,8|8,0:0|0:0,0:0:0:0:
84,324,177114,6,0,P|168:336|232:240,1,180,2|2,0:0|0:0,0:0:0:0:
140,104,177564,2,0,P|99:178|168:271,1,180,2|2,0:0|0:0,0:0:0:0:
364,200,178014,2,0,L|172:180,1,180,8|2,0:0|0:0,0:0:0:0:
4,164,178464,1,0,0:0:0:0:
176,28,178614,2,0,P|208:56|216:116,1,90,2|0,0:0|0:0,0:0:0:0:
172,308,178914,6,0,P|212:352|332:324,1,180,4|2,0:0|0:0,0:0:0:0:
272,196,179364,2,0,L|252:304,2,90,2|0|2,0:0|0:0|0:0,0:0:0:0:
311,43,179814,2,0,P|387:83|397:169,1,180,8|2,0:0|0:0,0:0:0:0:
372,256,180264,1,0,0:0:0:0:
304,136,180414,1,2,0:0:0:0:
488,176,180564,1,0,0:0:0:0:
272,340,180714,6,0,P|192:368|104:296,1,180,4|2,0:0|0:0,0:0:0:0:
72,128,181164,2,0,P|124:180|100:256,1,135,2|0,0:0|0:0,0:0:0:0:
100,244,181464,1,2,0:0:0:0:
60,40,181614,2,0,P|108:40|152:96,1,90,8|0,0:0|0:0,0:0:0:0:
188,220,181914,2,0,P|171:174|209:114,1,90,2|0,0:0|0:0,0:0:0:0:
300,28,182214,2,0,P|263:58|193:44,1,90,2|0,0:0|0:0,0:0:0:0:
436,124,182514,6,0,P|476:180|412:272,1,180,4|2,0:0|0:0,0:0:0:0:
256,236,182964,2,0,P|294:179|403:207,1,180,0|2,0:0|0:0,0:0:0:0:
336,256,183414,2,0,B|308:372,1,90,8|0,0:0|0:0,0:0:0:0:
72,328,183714,2,8,P|40:304|36:276,1,45
100,252,183864,2,8,P|81:216|89:189,1,45
160,200,184014,2,8,P|157:160|176:138,1,45
236,176,184164,2,8,P|250:138|276:127,1,45
448,76,184314,6,0,P|364:104|304:36,1,180,4|2,0:0|0:0,0:0:0:0:
32,88,184764,2,0,P|116:60|176:128,1,180,2|2,0:0|0:0,0:0:0:0:
160,200,185214,2,0,B|134:296,1,90,8|0,0:0|0:0,0:0:0:0:
74,350,185514,2,0,P|47:309|67:248,1,90,2|0,0:0|0:0,0:0:0:0:
216,314,185814,2,0,P|197:353|157:372,1,90,2|0,0:0|0:0,0:0:0:0:
232,236,186114,6,0,P|304:216|372:288,1,180,4|2,0:0|0:0,0:0:0:0:
340,368,186564,2,0,L|408:192,1,180,2|2,0:0|0:0,0:0:0:0:
340,32,187014,2,0,P|308:73|336:136,1,90,8|0,0:0|0:0,0:0:0:0:
484,84,187314,2,0,L|388:96,1,90,2|0,0:0|0:0,0:0:0:0:
80,36,187614,1,2,0:0:0:0:
224,120,187764,1,0,0:0:0:0:
136,108,187914,6,0,P|56:156|80:260,1,180,4|0,0:0|0:0,0:0:0:0:
308,240,188364,2,0,L|103:185,1,180,2|2,0:0|0:0,0:0:0:0:
45,215,188814,1,8,0:0:0:0:
108,278,188964,1,0,0:0:0:0:
151,115,189114,1,2,0:0:0:0:
66,138,189264,1,0,0:0:0:0:
196,308,189414,2,0,L|288:328,1,90,2|0,0:0|0:0,0:0:0:0:
456,184,189714,6,0,P|376:196|356:308,1,180,0|2,0:0|0:0,0:0:0:0:
464,336,190164,2,0,P|428:296|428:254,1,90,2|0,0:0|0:0,0:0:0:0:
408,104,190464,1,2,0:0:0:0:
464,32,190614,2,0,P|500:72|500:114,1,90,8|0,0:0|0:0,0:0:0:0:
456,184,190839,5,8,0:0:0:0:
412,188,190914,1,8,0:0:0:0:
368,180,190989,1,8,0:0:0:0:
336,148,191064,1,8,0:0:0:0:
328,104,191139,1,8,0:0:0:0:
403,62,191214,2,8,P|411:94|395:126,1,45
248,68,191364,2,8,P|264:39|298:28,1,45
260,160,191514,6,0,P|200:144|168:36,1,180,2|2,0:0|0:0,0:0:0:0:
164,132,191964,2,0,L|144:312,1,180,2|2,0:0|0:0,0:0:0:0:
60,276,192414,2,0,P|92:240|140:232,1,90,8|0,0:0|0:0,0:0:0:0:
212,363,192714,2,0,P|167:345|143:302,1,90,2|0,0:0|0:0,0:0:0:0:
244,180,193014,2,0,P|242:228|210:265,1,90,2|0,0:0|0:0,0:0:0:0:
264,76,193314,2,0,P|320:100|328:224,1,180,4|2,0:0|0:0,0:0:0:0:
444,280,193764,6,0,B|428:264|404:276|404:276|344:320|260:272,1,180,2|2,0:0|0:0,0:0:0:0:
232,348,194214,2,0,P|180:348|144:320,1,90,8|0,0:0|0:0,0:0:0:0:
24,40,194514,2,0,P|76:40|112:68,1,90,2|0,0:0|0:0,0:0:0:0:
232,133,194814,5,2,0:0:0:0:
236,178,194889,1,8,0:0:0:0:
214,217,194964,1,8,0:0:0:0:
173,233,195039,1,8,0:0:0:0:
133,222,195114,6,0,P|96:181|162:199,1,161.999995056153,0|0,0:0|0:0,0:0:0:0:
379,162,195564,2,0,P|415:202|349:184,1,161.999995056153,8|0,0:0|0:0,0:0:0:0:
147,320,196014,6,0,B|133:223,1,99.0000030212403,8|0,0:0|0:0,0:0:0:0:
248,149,196314,6,0,B|264:256,1,107.999996704102,8|0,0:0|0:0,0:0:0:0:
379,162,196614,6,0,B|359:47,1,116.999994644165,8|0,0:0|0:0,0:0:0:0:
160,236,196914,6,0,P|104:276|208:272,1,270.000010299683,8|0,0:0|0:0,0:0:0:0:
265,86,197364,6,0,P|203:4|201:108,1,270.000010299683,8|0,0:0|0:0,0:0:0:0:
342,253,197813,6,0,P|444:239|355:187,1,270.000010299683,8|0,0:0|0:0,0:0:0:0:
106,112,198264,2,8,L|178:128,1,67.5000025749208
190,208,198414,2,8,L|262:224,1,67.5000025749208
306,304,198564,2,8,L|378:320,1,67.5000025749208
460,204,198714,6,0,P|402:188|408:332,1,233.999989288331,4|2,0:0|0:0,0:0:0:0:
416,260,199164,2,0,L|184:288,1,233.999989288331,2|2,0:0|0:0,0:0:0:0:
76,244,199614,1,8,0:0:0:0:
116,356,199764,1,0,0:0:0:0:
136,184,199914,2,0,L|116:60,1,116.999994644165,2|0,0:0|0:0,0:0:0:0:
236,96,200214,2,0,P|280:124|368:96,1,116.999994644165,2|0,0:0|0:0,0:0:0:0:
480,20,200514,6,0,B|436:8|408:40|408:40|468:104|416:188,1,233.999989288331,4|2,0:0|0:0,0:0:0:0:
360,116,200964,2,0,P|340:208|460:260,1,233.999989288331,2|2,0:0|0:0,0:0:0:0:
296,300,201414,2,0,L|176:332,1,116.999994644165,8|0,0:0|0:0,0:0:0:0:
32,236,201714,2,0,L|152:204,1,116.999994644165,2|0,0:0|0:0,0:0:0:0:
260,176,202014,1,2,0:0:0:0:
112,20,202164,1,0,0:0:0:0:
56,112,202314,6,0,P|156:120|216:12,1,233.999989288331,2|2,0:0|0:0,0:0:0:0:
332,24,202764,2,0,B|292:64|304:104|304:104|396:76|440:164,1,233.999989288331,2|2,0:0|0:0,0:0:0:0:
444,240,203214,2,0,P|384:236|352:184,1,116.999994644165,8|0,0:0|0:0,0:0:0:0:
444,44,203514,1,2,0:0:0:0:
352,316,203664,2,0,L|220:328,1,116.999994644165,0|2,0:0|0:0,0:0:0:0:
72,232,203964,1,0,0:0:0:0:
216,148,204114,6,0,B|168:112|116:156|116:156|180:204|140:300,1,233.999989288331,4|2,0:0|0:0,0:0:0:0:
24,100,204564,2,0,P|120:120|212:16,1,233.999989288331,2|2,0:0|0:0,0:0:0:0:
280,88,205014,2,0,L|420:104,1,116.999994644165,8|0,0:0|0:0,0:0:0:0:
496,44,205314,1,2,0:0:0:0:
304,172,205464,2,8,P|284:196|288:236,1,58.4999973220826
368,224,205614,2,8,P|383:251|422:260,1,58.4999973220826
436,184,205764,2,8,P|466:178|489:145,1,58.4999973220826,0|0,0:0|0:0,3:0:0:0:
283,221,205914,6,0,P|276:329|170:347,1,233.999989288331,4|0,0:0|0:0,0:0:0:0:
64,188,206364,2,0,B|112:256|211:272|211:272|185:228|208:188,1,233.999989288331,2|2,0:0|0:0,0:0:0:0:
124,128,206814,2,0,P|112:60|160:16,1,116.999994644165,8|0,0:0|0:0,0:0:0:0:
224,96,207114,2,0,P|263:39|328:42,1,116.999994644165,2|0,0:0|0:0,0:0:0:0:
324,148,207414,2,0,P|391:135|435:183,1,116.999994644165,2|0,0:0|0:0,0:0:0:0:
468,324,207714,6,0,P|392:340|388:204,1,233.999989288331,4|2,0:0|0:0,0:0:0:0:
420,268,208164,2,0,B|396:296|360:296|360:296|280:236|192:296,1,233.999989288331,2|2,0:0|0:0,0:0:0:0:
32,288,208614,1,8,0:0:0:0:
140,356,208764,1,0,0:0:0:0:
124,228,208914,1,2,0:0:0:0:
88,56,209064,1,0,0:0:0:0:
28,160,209214,1,2,0:0:0:0:
180,68,209364,1,0,0:0:0:0:
128,136,209514,6,0,P|192:164|328:80,1,233.999989288331,4|2,0:0|0:0,0:0:0:0:
420,32,209964,2,0,L|404:172,1,116.999994644165,2|0,0:0|0:0,0:0:0:0:
308,292,210264,1,2,0:0:0:0:
488,316,210414,2,0,B|436:336|396:304|396:304|392:208|296:204,1,233.999989288331,8|2,0:0|0:0,0:0:0:0:
308,292,210864,1,0,0:0:0:0:
240,232,211014,2,0,P|216:292|248:348,1,116.999994644165,2|0,0:0|0:0,0:0:0:0:
235,337,211239,1,0,0:0:0:0:
235,337,211314,6,0,P|172:352|104:212,1,233.999989288331,4|2,0:0|0:0,0:0:0:0:
208,72,211764,1,2,0:0:0:0:
148,172,211914,1,0,0:0:0:0:
100,68,212064,1,2,0:0:0:0:
256,156,212214,2,0,P|328:172|404:104,1,175.499991966248,8|0,0:0|0:0,0:0:0:0:
361,32,212514,2,0,P|386:5|418:2,1,58.4999973220826,2|8,0:0|0:0,0:0:0:0:
428,92,212664,2,8,P|464:91|489:112,1,58.4999973220826,8|0,0:0|0:0,0:0:0:0:
440,180,212814,2,8,P|466:205|469:237,1,58.4999973220826,8|0,0:0|0:0,0:0:0:0:
384,248,212964,2,8,P|384:284|363:309,1,58.4999973220826,8|0,0:0|0:0,0:0:0:0:
148,172,213114,6,0,P|216:148|304:268,1,233.999989288331,4|2,0:0|0:0,0:0:0:0:
200,268,213564,2,0,P|132:292|44:172,1,233.999989288331,2|2,0:0|0:0,0:0:0:0:
68,68,214014,1,8,0:0:0:0:
180,32,214164,1,0,0:0:0:0:
296,52,214314,1,2,0:0:0:0:
384,132,214464,1,0,0:0:0:0:
272,156,214614,1,2,0:0:0:0:
400,24,214764,1,0,0:0:0:0:
416,144,214914,6,0,B|464:216|432:316|432:316|368:268,1,233.999989288331,4|2,0:0|0:0,0:0:0:0:
284,232,215364,2,0,P|204:216|112:344,1,233.999989288331,2|2,0:0|0:0,0:0:0:0:
220,320,215814,2,0,P|272:352|328:340,1,116.999994644165,8|0,0:0|0:0,0:0:0:0:
148,92,216114,2,0,P|96:60|40:72,1,116.999994644165,2|0,0:0|0:0,0:0:0:0:
76,180,216414,1,2,0:0:0:0:
236,32,216564,1,0,0:0:0:0:
192,168,216714,6,0,L|432:152,1,233.999989288331,4|2,0:0|0:0,0:0:0:0:
348,240,217164,2,0,B|316:288|316:288|328:360,1,116.999994644165,2|0,0:0|0:0,0:0:0:0:
436,308,217464,1,2,0:0:0:0:
504,192,217614,2,0,P|512:152|476:84,1,116.999994644165,8|0,0:0|0:0,0:0:0:0:
192,168,217914,1,2,0:0:0:0:
348,240,218064,1,0,0:0:0:0:
316,88,218214,1,2,0:0:0:0:
248,260,218364,1,0,0:0:0:0:
228,64,218514,6,0,P|132:56|84:176,1,233.999989288331,4|2,0:0|0:0,0:0:0:0:
108,360,218964,1,2,0:0:0:0:
144,248,219114,2,0,L|176:100,1,116.999994644165,0|2,0:0|0:0,0:0:0:0:
412,20,219414,2,0,L|380:168,1,116.999994644165,8|0,0:0|0:0,0:0:0:0:
336,240,219714,2,8,P|368:256|416:236,1,58.4999973220826
456,168,219864,2,8,P|489:156|509:108,1,58.4999973220826,8|8,0:0|0:0,0:0:0:0:
228,64,220014,2,8,P|196:48|148:68,1,58.4999973220826
108,136,220164,2,8,P|74:147|54:195,1,58.4999973220826,8|8,0:0|0:0,0:0:0:0:
192,292,220314,6,0,P|228:228|128:256,1,233.999989288331,4|2,0:0|0:0,0:0:0:0:
288,336,220764,2,0,P|352:352|440:228,1,233.999989288331,2|2,0:0|0:0,0:0:0:0:
336,240,221214,1,8,0:0:0:0:
412,76,221364,1,0,0:0:0:0:
348,201,221514,1,2,0:0:0:0:
348,20,221664,1,0,0:0:0:0:
344,161,221814,1,2,0:0:0:0:
267,0,221964,1,0,0:0:0:0:
124,200,222114,6,0,B|168:204|184:244|184:244|264:168|200:88,1,233.999989288331,4|2,0:0|0:0,0:0:0:0:
104,108,222564,2,0,P|52:148|128:292,1,233.999989288331,2|2,0:0|0:0,0:0:0:0:
208,328,223014,1,8,0:0:0:0:
428,364,223164,1,2,0:0:0:0:
344,160,223314,1,0,0:0:0:0:
328,276,223464,1,0,0:0:0:0:
424,144,223614,5,8,0:0:0:0:
405,104,223689,1,8,0:0:0:0:
369,80,223764,1,8,0:0:0:0:
326,77,223839,1,8,0:0:0:0:
287,96,223914,1,0,0:0:0:0:
256,192,223989,12,0,228414,0:0:0:0:
175,228,228714,38,0,B|205:184|266:159|266:159|277:144|288:104|256:79|223:104|234:144|245:159|245:159|306:184|336:228,1,360
324,308,229614,2,0,P|256:356|188:304,1,180
