osu file format v5

[General]
AudioFilename: Gunther - Suntrip (Summer Holiday).mp3
AudioLeadIn: 0
PreviewTime: -1
Countdown: 1
SampleSet: Normal
StackLeniency: 0.7
Mode: 0
LetterboxInBreaks: 1
EditorBookmarks: 15700,50245,118427,200245
EditorDistanceSpacing: 1

[Metadata]
Title:Sun Trip (Summer Holiday)
Artist:Gunther
Creator:osuplayer111
Version:Hard
Source:
Tags:Novelty

[Difficulty]
HPDrainRate:3
CircleSize:4
OverallDifficulty:3
SliderMultiplier:1.4
SliderTickRate:1

[Events]
//Background and Video events
Video,0,"Gunther And The Sunshine Girls- Sun Trip (Summer Holiday).avi"
0,0,"301939184_1152294249_414253a8ee84fa66da75831a91700f8c15f99812.jpg"
//Break Periods
2,49990,52214
2,117263,119487
//Storyboard Layer 0 (Background)
//Storyboard Layer 1 (Fail)
//Storyboard Layer 2 (Pass)
//Storyboard Layer 3 (Foreground)
//Storyboard Sound Samples
//Background Colour Transformations
3,100,163,162,255

[TimingPoints]
700,454.545454545455,4,1,1,100,1,0
66950,-100,4,1,1,65,0,0
68768,-100,4,1,1,100,0,0

[Colours]
Combo1 : 255,0,128
Combo2 : 255,0,0
Combo3 : 255,255,0
Combo4 : 0,128,255
Combo5 : 255,128,64

[HitObjects]
48,328,16154,1,4
184,328,16609,2,0,B|224:344|256:328,1,70
264,256,17063,1,0
336,256,17290,1,0
336,328,17518,1,8
408,328,17745,1,8
408,256,17972,2,0,B|480:208,1,70
472,144,18427,2,0,B|472:64,1,70
408,40,18881,1,0
200,48,19563,5,0
200,48,19790,1,4
360,272,20700,5,2
304,224,20927,1,0
240,192,21154,2,0,B|208:128|144:120|112:128,2,140,0|2|0
200,248,22290,1,0
56,248,22745,1,2
120,368,23200,1,0
256,368,23654,5,8
256,368,23881,5,8
384,312,24336,5,2
424,256,24563,1,0
464,200,24790,1,2
408,72,25245,1,0
272,40,25700,1,2
208,64,25927,2,0,B|112:40,1,70
112,112,26381,2,0,B|16:112,1,70
40,184,26836,1,2
40,320,27290,1,0
112,320,27518,5,0
112,320,27745,5,0
176,288,27972,5,2
248,288,28200,1,0
312,320,28427,2,0,B|376:344|472:304,2,140,0|2|0
312,248,29563,1,0
440,192,30018,1,2
312,136,30472,1,0
208,40,30927,5,2
208,40,31154,5,8
112,144,31609,5,2
48,176,31836,1,0
48,248,32063,1,8
160,328,32518,1,0
288,272,32972,1,2
352,240,33200,2,0,B|400:248|312:344|432:352,2,140
304,184,34336,1,4
232,184,34563,1,2
264,120,34790,1,2
144,40,35245,5,0
216,40,35472,1,2
288,40,35700,2,0,B|360:80,1,70
408,40,36154,1,2
336,160,36609,2,0,B|376:152|400:192,1,70
464,184,37063,1,2
368,288,37518,2,0,B|360:336|304:344,1,70
288,280,37972,1,2
160,216,38427,6,0,B|72:216,1,70,8|0
56,152,38881,1,0
104,96,39109,1,0
168,64,39336,1,2
232,40,39563,2,0,B|256:80|304:80,1,70,0|2
416,136,40245,1,0
456,192,40472,1,0
408,248,40700,2,0,B|320:248,2,70,2|0|2
408,320,41381,1,0
336,336,41609,1,0
264,336,41836,5,0
192,336,42063,1,8
96,232,42518,6,0,B|96:136,1,70,2|0
128,96,42972,2,0,B|216:40,1,70,2|0
256,56,43427,1,4
392,56,43881,1,0
392,56,44109,1,0
392,56,44336,1,2
472,168,44790,1,0
472,168,45018,1,0
472,168,45245,1,2
376,272,45700,6,0,B|336:272|320:320,1,70,8|0
256,288,46154,1,0
192,312,46381,1,0
128,280,46609,1,2
80,224,46836,2,0,B|24:152,1,70,0|2
128,64,47518,1,0
200,64,47745,1,0
272,64,47972,1,2
392,128,48427,1,0
392,128,48654,1,0
392,128,48881,2,0,B|344:136|320:88|280:160|232:144,2,140,2|8|4
80,104,53654,5,8
136,144,53881,1,0
80,184,54109,1,8
144,216,54336,2,0,B|184:192|232:216|248:248|280:200,1,140
448,88,55472,1,8
448,160,55699,1,0
448,232,55927,1,8
384,200,56154,2,0,B|344:184|328:144|360:104,1,105
40,56,57518,5,8
64,120,57745,1,0
128,96,57972,2,0,B|176:88|168:144|232:88,2,105,0|8|0
128,224,59109,1,8
200,224,59336,2,0,B|288:224,1,70
296,288,59790,1,0
384,224,60131,1,8
216,40,60927,5,8
144,40,61154,2,0,B|112:24|72:56,1,70
77,51,61609,1,0
48,152,61949,1,8
48,256,62290,1,0
176,320,62745,1,0
248,320,62972,1,8
320,320,63199,1,0
288,256,63427,2,0,B|288:216|224:224|240:152,2,105,0|8|0
416,88,64790,5,0
352,120,65018,1,8
288,88,65245,2,0,B|216:88|192:40,1,105,0|8
88,184,66154,1,8
48,240,66381,1,0
48,312,66609,1,8
120,312,66836,1,0
192,312,67063,5,0
192,312,67290,5,0
192,312,67518,5,0
264,312,67745,5,0
264,312,67972,5,0
264,312,68199,5,0
336,312,68427,5,0
336,312,68654,5,0
336,312,68881,5,4
256,200,69336,6,0,B|256:96,1,70,2|0
256,56,69790,1,0
328,56,70018,1,2
400,56,70245,1,0
472,56,70472,1,2
472,128,70699,1,0
472,200,70927,2,0,B|432:208|424:256,1,70,2|0
352,256,71381,2,0,B|352:312|400:320,1,70,2|0
456,336,71836,1,0
456,336,72063,1,2
456,336,72290,1,0
296,192,72972,5,2
232,224,73200,2,0,B|168:232|176:144|96:216,1,140,0|2
56,256,73881,1,0
96,312,74109,1,2
96,312,74336,2,0,B|200:312,1,70
232,280,74790,1,0
296,312,75018,1,0
360,280,75245,1,2
424,312,75472,1,0
424,312,75700,1,0
472,184,76154,5,4
432,128,76381,1,2
360,104,76609,2,0,B|328:80|328:24,1,70
256,48,77063,1,0
256,48,77290,2,0,B|168:56|168:112|112:56,2,140,2|2|2
264,120,78427,1,0
224,176,78654,1,2
152,176,78881,1,0
80,176,79109,1,0
80,248,79336,2,0,B|128:320,1,70,0|2
328,312,80245,5,0
328,312,80472,1,2
400,192,80927,1,2
256,32,81609,1,0
120,72,82063,1,0
120,72,82290,1,2
120,208,82745,1,0
120,208,82972,1,2
120,208,83200,5,0
120,208,83427,5,4
232,288,83881,6,0,B|240:240|240:240|288:232,1,70,8|0
328,216,84336,1,0
376,264,84563,1,0
424,216,84790,1,8
456,152,85018,1,8
440,80,85245,2,0,B|352:64,1,70,8|0
304,40,85700,2,0,B|216:88,1,70,8|0
176,48,86154,1,0
112,72,86381,5,0
112,72,86609,5,0
64,128,86836,5,0
64,128,87063,5,4
216,336,87972,5,2
272,288,88199,1,0
328,240,88427,2,0,B|392:240|400:256,1,70
416,320,88881,1,2
456,184,89336,1,0
456,184,89563,1,2
360,80,90018,1,0
224,48,90472,1,2
80,48,90927,5,8
80,48,91154,5,8
48,184,91609,6,0,B|80:216|120:192,1,70,2|0
176,160,92063,1,0
256,272,92518,1,2
344,160,92972,1,0
344,160,93200,1,2
256,48,93654,1,0
392,48,94109,1,2
480,160,94563,1,0
480,232,94790,5,0
480,232,95018,5,0
424,280,95245,6,0,B|352:280,1,70,2|0
353,280,95700,1,0
224,328,96154,1,2
112,248,96609,1,0
40,248,96836,1,2
72,112,97290,1,0
192,32,97745,1,2
328,32,98200,5,0
328,32,98427,5,0
328,32,98654,5,0
328,32,98881,6,0,B|320:72|352:96,2,70,2|0|2
216,120,99790,1,0
288,240,100245,1,2
248,184,100472,2,0,B|192:184|176:232|224:264|136:264,3,140,0|0|0|2
48,64,102518,5,0
128,64,102745,1,2
88,128,102972,1,0
88,200,103200,1,2
88,200,103427,5,4
224,200,103881,1,0
296,200,104109,1,0
256,136,104336,1,0
376,64,104790,1,0
448,64,105018,1,0
416,128,105245,1,0
448,264,105700,5,8
400,320,105927,1,8
360,264,106154,1,0
320,320,106381,1,2
280,264,106609,1,0
232,320,106836,1,2
232,320,107063,5,4
160,200,107518,1,0
160,128,107745,1,0
160,56,107972,2,0,B|240:56,1,70,2|0
296,56,108427,1,0
368,56,108654,1,0
440,56,108881,1,0
376,184,109336,5,8
376,320,109790,1,2
304,320,110018,1,0
232,320,110245,1,2
160,320,110472,1,0
232,320,110700,1,4
208,184,111154,1,0
136,184,111381,1,0
64,184,111609,1,2
112,56,112063,1,0
184,56,112290,1,0
256,56,112518,2,0,B|352:56,1,70,2|0
376,104,112972,5,8
424,152,113200,1,8
472,208,113427,1,0
424,256,113654,1,2
368,296,113881,1,0
304,328,114109,1,2
232,328,114336,5,4
128,232,114790,1,0
128,232,115018,1,0
128,232,115245,1,2
136,88,115700,1,0
136,88,115927,1,0
136,88,116154,1,2
256,152,116609,6,0,B|312:200|352:168|352:104,1,140,0|8
256,48,120927,5,0
256,48,121154,1,8
256,48,121381,1,0
256,48,121609,2,0,B|296:48|320:88|376:64,1,105,8|0
456,296,122745,2,0,B|384:256,1,70,8|0
320,256,123200,2,0,B|280:208|352:184,1,70,8|0
216,192,123768,1,0
40,32,124790,5,8
40,104,125018,1,0
40,104,125245,2,0,B|40:152|80:168|32:208,2,105,0|8|0
176,104,126381,1,8
222,43,126609,1,0
264,104,126836,1,0
341,104,127063,2,0,B|477:104,1,105,0|8
288,288,128200,5,0
216,272,128427,1,8
144,256,128654,1,0
80,216,128881,2,0,B|112:176|144:176,1,70,0|8
200,152,129336,1,0
264,120,129563,1,0
392,72,130018,1,8
456,104,130245,1,0
456,176,130472,1,0
408,232,130700,2,0,B|392:200|336:232|336:152,1,105,0|8
296,264,131381,1,0
168,96,132063,5,8
168,24,132290,1,0
168,96,132518,1,0
168,24,132745,1,8
40,192,133427,1,8
88,240,133654,1,0
136,192,133881,1,0
184,240,134109,1,0
232,192,134336,2,0,B|312:192,1,70,0|8
440,192,135018,5,0
440,192,135245,5,0
336,192,135586,5,0
336,88,135927,5,4
200,48,136381,5,2
128,48,136609,1,0
64,80,136836,2,0,B|40:160,1,70,0|2
96,192,137290,1,0
48,248,137518,1,0
112,280,137745,1,2
240,336,138200,5,0
312,336,138427,1,2
280,272,138654,1,0
352,272,138881,1,2
384,336,139109,1,0
456,336,139336,1,0
456,336,139563,1,2
472,128,140245,5,0
472,128,140472,1,2
352,48,140927,1,0
280,48,141154,1,2
208,32,141381,2,0,B|160:40|136:80|144:96,1,70
149,69,141836,1,0
120,136,142063,1,0
48,136,142290,1,2
48,272,142745,1,0
120,272,142972,1,0
192,272,143200,5,0
192,344,143427,5,4
264,344,143654,5,2
336,344,143881,1,0
336,272,144109,1,2
368,208,144336,1,0
368,208,144563,2,0,B|368:264|480:288,1,140,0|2
472,144,145472,1,0
432,88,145700,1,2
384,32,145927,1,0
312,32,146154,1,0
248,64,146381,2,0,B|216:96|192:88|160:120|144:8,1,140,0|2
120,240,147518,5,0
120,240,147745,1,2
256,240,148199,1,2
464,240,148881,1,2
368,136,149336,1,0
320,80,149563,1,2
280,136,149790,1,0
240,80,150018,1,0
200,136,150245,1,2
128,136,150472,5,0
56,136,150699,5,4
88,272,151154,5,8
128,328,151381,1,0
200,328,151609,1,8
240,272,151836,1,0
280,328,152063,1,8
352,328,152290,1,8
400,272,152518,1,8
472,272,152746,1,0
432,208,152973,1,8
432,136,153200,1,8
432,64,153427,1,0
360,64,153654,5,0
360,64,153881,5,0
360,64,154109,5,0
360,64,154336,5,4
88,136,155245,5,2
88,208,155472,1,0
152,176,155700,2,0,B|200:160|240:176,1,70
222,170,156154,1,2
360,200,156609,1,0
432,200,156836,1,2
392,64,157290,1,0
392,64,157745,1,2
248,64,158199,5,8
248,64,158427,5,8
112,96,158881,5,0
40,96,159109,1,0
72,160,159336,1,2
72,296,159790,1,0
208,296,160245,1,0
280,296,160472,1,2
416,296,160927,1,0
488,296,161154,1,2
416,296,161381,1,0
448,160,161836,5,0
496,112,162063,5,2
448,64,162290,5,0
400,112,162518,5,2
336,72,162745,1,0
264,72,162972,2,0,B|200:16|160:24|144:24|136:32,2,140,0|2|0
216,128,164109,1,0
104,192,164563,1,2
104,328,165018,1,0
176,328,165245,1,0
248,328,165472,1,2
320,328,165700,1,8
424,232,166154,5,0
456,168,166381,1,0
456,96,166609,1,2
328,40,167063,1,0
184,40,167518,1,0
184,40,167745,1,2
40,40,168200,1,0
112,160,168654,1,2
112,296,169109,5,0
184,296,169336,5,0
256,296,169563,5,0
328,296,169790,5,2
328,224,170018,1,0
328,152,170245,2,0,B|368:120|392:184|424:112|424:112|464:120,1,140,0|2
328,48,171154,1,0
256,48,171381,1,2
112,48,171836,1,0
184,168,172290,1,2
320,168,172745,5,8
320,168,172972,5,8
328,304,173427,5,2
328,304,173654,1,0
264,272,173881,2,0,B|176:272|176:272|176:336,1,140,0|2
216,192,174790,1,0
144,192,175018,1,2
176,56,175472,1,0
312,56,175927,1,2
424,144,176381,5,8
424,144,176609,5,8
368,272,177063,6,0,B|336:240|344:200,1,70,2|0
296,152,177518,1,0
160,192,177972,1,0
72,80,178427,1,2
72,80,178654,2,0,B|80:80|80:80|80:88|80:88|72:88|72:88|72:96|72:96|80:96|80:96|80:104|80:104|72:104|72:104|72:112|72:112|80:112|80:112|80:120|80:120|72:120|72:120|72:128|72:128|80:128|80:128|80:136|80:136|72:136|72:136|72:144|72:144|80:144|80:144|80:152|80:152|72:152,2,140
208,48,180017,5,2
280,48,180245,5,2
352,48,180472,5,2
352,120,180700,5,0
392,176,180927,1,0
360,240,181154,1,2
256,336,181609,1,0
112,336,182063,1,0
112,336,182290,1,2
48,208,182745,1,0
48,64,183199,1,2
48,208,183654,1,0
240,128,184336,5,2
168,128,184563,1,0
204,188,184790,1,0
240,248,185018,1,0
168,248,185245,1,6
256,360,185699,5,0
320,328,185927,1,0
392,328,186154,1,2
448,200,186609,1,0
448,200,186836,1,0
448,200,187063,1,6
416,64,187518,5,0
344,64,187745,1,8
272,64,187972,1,2
128,64,188427,1,0
56,64,188654,1,0
56,136,188881,1,2
56,272,189336,5,0
56,344,189563,1,0
128,344,189790,1,2
264,344,190245,1,2
264,272,190472,1,0
336,269,190700,2,0,B|362:322|419:324|448:267,2,140,6|0|2
336,200,191836,5,0
384,144,192063,1,0
328,96,192290,1,0
376,40,192518,1,6
232,40,192972,1,0
160,40,193199,1,0
160,40,193427,1,2
88,160,193881,1,0
88,160,194109,1,0
88,232,194336,1,6
256,192,194790,12,0,199790
