osu file format v8

[General]
AudioFilename: [08] One Night Stand.mp3
AudioLeadIn: 0
PreviewTime: 54153
Countdown: 0
SampleSet: Normal
StackLeniency: 0.5
Mode: 0
LetterboxInBreaks: 1

[Editor]
DistanceSpacing: 0.8
BeatDivisor: 6
GridSize: 8

[Metadata]
Title:One Night Stand
Artist:Gunther
Creator:osuplayer111
Version:Hard
Source:
Tags:Mustache Sexy Man The Sunshine Girls

[Difficulty]
HPDrainRate:7
CircleSize:4
OverallDifficulty:8
ApproachRate:8
SliderMultiplier:1.8
SliderTickRate:1

[Events]
//Background and Video events
0,0,"In the night.png"
//Break Periods
2,81662,87333
//Storyboard Layer 0 (Background)
//Storyboard Layer 1 (Fail)
//Storyboard Layer 2 (Pass)
//Storyboard Layer 3 (Foreground)
//Storyboard Sound Samples
//Background Colour Transformations
3,100,163,162,255

[TimingPoints]
360,413.793103448276,4,1,1,100,1,0
33463,-100,4,1,1,100,0,1
33566,-100,4,1,1,100,0,0
54980,-100,4,1,1,100,0,1
55084,-100,4,1,1,100,0,0
55601,-100,4,2,1,100,0,0
55911,-100,4,1,1,100,0,0
58911,-100,4,2,1,100,0,0
59222,-100,4,1,1,100,0,0
62222,-100,4,2,1,100,0,0
62428,-100,4,1,1,100,0,0
68222,-100,4,1,1,100,0,1
68325,-100,4,1,1,100,0,0
68842,-100,4,2,1,100,0,0
69153,-100,4,1,1,100,0,0
72153,-100,4,2,1,100,0,0
72463,-100,4,1,1,100,0,0
75463,-100,4,2,1,100,0,0
75670,-100,4,1,1,100,0,0
81463,-100,4,1,1,100,0,1
81566,-100,4,1,1,100,0,0
89739,-100,4,1,1,100,0,1
89842,-100,4,1,1,100,0,0
111256,-100,4,1,1,100,0,1
111360,-100,4,1,1,100,0,0
111877,-100,4,2,1,100,0,0
112187,-100,4,1,1,100,0,0
115187,-100,4,2,1,100,0,0
115497,-100,4,1,1,100,0,0
118497,-100,4,2,1,100,0,0
118704,-100,4,1,1,100,0,0
124497,-100,4,1,1,100,0,1
124601,-100,4,1,1,100,0,0
125118,-100,4,2,1,100,0,0
125428,-100,4,1,1,100,0,0
128428,-100,4,2,1,100,0,0
128739,-100,4,1,1,100,0,0
131739,-100,4,2,1,100,0,0
131946,-100,4,1,1,100,0,0
137739,-100,4,1,1,100,0,1
137842,-100,4,1,1,100,0,0

[Colours]
Combo1 : 0,0,255
Combo2 : 255,0,255
Combo3 : 128,0,255
Combo4 : 255,0,0

[HitObjects]
224,296,18565,2,0,B|184:352,2,60
224,232,18979,2,0,B|168:192,2,60
288,232,19393,2,0,B|344:192,2,60
288,296,19807,2,0,B|328:352,2,60
288,296,20221,1,0
256,120,20634,5,8
392,72,21048,1,0
472,192,21462,1,8
456,288,21738,2,0,B|376:288,1,60
256,264,22290,1,8
168,296,22565,2,0,B|128:288|128:240,1,60
48,128,23117,5,8
104,48,23393,1,0
104,48,23531,1,0
256,48,23945,2,0,B|368:48|368:168,1,180,8|0
256,336,24772,2,0,B|144:336|144:216,1,180,8|0
256,192,25600,1,8
368,280,26014,5,0
400,192,26290,1,0
400,192,26427,1,8
368,104,26703,1,0
368,280,27255,2,0,B|328:352|256:352,1,120,8|2
88,328,28083,5,8
48,192,28496,1,0
89,56,28910,2,0,B|265:128,1,180,8|0
422,56,29738,2,0,B|246:128,1,180,8|0
344,232,30565,1,8
256,344,30979,1,0
168,232,31393,1,8
256,112,31807,6,0,B|184:112,1,60
144,112,32083,2,0,B|64:112,1,60
80,48,32359,2,0,B|160:48,1,60
200,48,32634,2,0,B|264:48,1,60
324,48,32910,2,0,B|384:48,1,60
387,112,33187,2,0,B|323:112,1,60
256,112,33462,1,4
256,272,33876,6,0,B|304:192|424:192,2,180,8|0|8
192,344,34979,1,0
192,344,35117,2,0,B|96:312|96:200,1,180,0|8
152,72,35945,1,0
256,168,36359,1,8
320,96,36634,1,0
320,96,36772,2,0,B|416:120|456:224,2,180,0|8|0
320,240,38014,5,8
216,344,38427,1,0
128,304,38703,1,0
128,304,38841,2,0,B|32:240|64:128,2,180,8|0|8
216,256,39945,1,0
216,256,40083,1,0
256,120,40496,6,0,B|320:40|416:40,2,180,8|0|8
320,192,41600,1,0
320,192,41738,2,0,B|392:272|328:360,2,180,0|8|0
176,192,42979,1,8
128,272,43255,1,0
128,272,43393,2,0,B|48:192|136:96,1,180,0|8
256,48,44221,1,0
392,80,44634,5,8
456,152,44910,1,0
456,152,45048,1,0
392,224,45324,1,0
392,224,45462,1,8
456,296,45738,1,0
456,296,45876,1,0
376,344,46152,1,0
376,344,46290,1,0
376,344,46427,2,0,B|312:320|320:368|240:336,1,120,0|4
136,272,47117,5,8
136,128,47531,1,0
256,40,47945,1,8
352,64,48221,1,0
352,64,48359,2,0,B|456:96|456:208,2,180,0|8|0
256,40,49462,1,0
256,40,49600,1,8
256,184,50014,1,0
256,328,50427,6,0,B|320:328,2,60,8|0|0
316,328,50841,1,0
432,240,51255,1,8
432,144,51531,1,0
432,144,51669,2,0,B|352:48,1,120
355,51,52083,1,8
256,48,52359,1,0
256,48,52496,2,0,B|128:48,1,120
136,48,52910,1,8
80,128,53186,6,0,B|120:200,1,60
96,224,53462,2,0,B|80:288,1,60
112,320,53738,2,0,B|192:352,1,60
208,320,54014,2,0,B|272:280,1,60
304,304,54290,2,0,B|376:320,1,60
392,280,54565,2,0,B|440:240,1,60
448,192,54841,2,0,B|408:128,1,60,0|4
304,48,55393,5,8
256,128,55669,1,2
256,128,55807,1,0
208,48,56083,1,0
208,48,56221,1,8
96,136,56634,1,0
24,200,56910,1,0
24,200,57048,2,0,B|24:280|96:280,1,120,8|0
240,280,57738,5,0
240,280,57876,1,8
328,320,58152,2,0,B|416:256|360:152,1,180
280,48,58979,1,2
280,48,59117,1,0
272,144,59393,5,0
272,144,59531,1,8
192,88,59807,1,0
192,88,59945,2,0,B|152:136|192:224,1,120
183,201,60359,1,8
240,280,60634,1,0
376,336,61048,5,0
376,336,61186,2,0,B|424:224,1,120,8|0
464,88,61876,1,0
464,88,62014,2,0,B|336:40,1,120,8|2
160,40,62841,5,8
72,88,63117,1,0
72,88,63255,1,0
160,136,63531,1,0
160,136,63669,1,8
72,184,63945,2,0,B|72:288|184:336,1,180
164,326,64496,1,8
256,296,64772,5,0
256,296,64910,2,0,B|344:360|448:280,1,180,0|8
464,208,65600,1,0
464,208,65738,2,0,B|440:120|336:88,1,180,0|8
192,88,66565,6,0,B|112:88,1,60
80,88,66841,2,0,B|48:152,1,60
48,192,67117,2,0,B|120:192,1,60
160,192,67393,2,0,B|208:248,1,60
224,280,67669,2,0,B|168:304,1,60
120,320,67945,2,0,B|64:288,1,60
67,290,68221,1,4
160,192,68634,5,8
256,192,68910,1,2
256,192,69048,1,0
352,192,69324,1,0
352,192,69462,1,8
256,80,69877,1,0
344,40,70153,1,0
344,40,70290,2,0,B|416:40|440:104,1,120,8|0
440,248,70979,5,0
440,248,71117,1,8
376,320,71393,2,0,B|288:368|192:312,2,180,0|0|2
376,320,72359,1,0
344,232,72634,6,0,B|320:160,1,60,0|8
280,168,72910,1,0
312,136,73048,1,0
360,144,73186,1,0
408,64,73462,1,0
408,64,73600,2,0,B|344:32|272:40,1,120,8|0
144,40,74291,5,0
144,40,74427,2,0,B|80:72|80:144,1,120,8|0
80,280,75117,1,0
80,280,75255,2,0,B|192:328,1,120,8|2
384,328,76084,5,8
456,264,76360,1,0
456,264,76496,1,0
392,192,76772,1,0
392,192,76910,1,8
464,128,77186,1,0
352,40,77600,1,0
352,40,77739,1,8
256,72,78014,5,0
256,72,78152,2,0,B|168:96|160:216,1,180,0|8
256,312,78841,1,0
256,312,78979,2,0,B|344:288|352:168,1,180,0|8
256,72,79807,6,0,B|200:112,1,60
184,144,80083,2,0,B|184:224,1,60
184,248,80359,2,0,B|224:304,1,60
256,312,80634,2,0,B|304:256,1,60
344,232,80910,2,0,B|344:152,1,60
336,120,81186,2,0,B|304:56,1,60
256,72,81462,1,4
256,192,88083,12,4,89738
256,112,90152,6,0,B|304:192|424:192,2,180,8|0|8
192,40,91255,1,0
192,40,91393,2,0,B|96:72|96:184,1,180,0|8
152,312,92221,1,0
256,216,92635,1,8
320,288,92910,1,0
320,288,93048,2,0,B|416:264|456:160,2,180,0|8|0
320,144,94290,5,8
216,40,94703,1,0
128,80,94979,1,0
128,80,95117,2,0,B|32:144|64:256,2,180,8|0|8
216,128,96221,1,0
216,128,96359,1,0
256,264,96772,6,0,B|320:344|416:344,2,180,8|0|8
320,192,97876,1,0
320,192,98014,2,0,B|392:112|328:24,2,180,0|8|0
176,192,99255,1,8
128,112,99531,1,0
128,112,99669,2,0,B|56:192|136:280,1,180,0|8
256,336,100497,1,0
392,304,100910,5,8
456,232,101186,1,0
456,232,101324,1,0
392,160,101600,1,0
392,160,101738,1,8
456,88,102014,1,0
456,88,102152,1,0
376,40,102428,1,0
376,40,102566,1,0
376,40,102703,2,0,B|312:64|320:16|240:48,1,120,0|4
136,112,103393,5,8
136,256,103807,1,0
256,344,104221,1,8
352,320,104497,1,0
352,320,104635,2,0,B|456:288|456:176,2,180,0|8|0
256,344,105738,1,0
256,344,105876,1,8
256,200,106290,1,0
256,56,106703,6,0,B|320:56,2,60,8|0|0
316,56,107117,1,0
432,144,107531,1,8
432,240,107807,1,0
432,240,107945,2,0,B|352:336,1,120
355,333,108359,1,8
256,336,108635,1,0
256,336,108772,2,0,B|128:336,1,120
136,336,109186,1,8
80,256,109462,6,0,B|120:184,1,60
96,160,109738,2,0,B|80:96,1,60
112,64,110014,2,0,B|192:32,1,60
208,64,110290,2,0,B|272:104,1,60
304,80,110566,2,0,B|376:64,1,60
392,104,110841,2,0,B|440:144,1,60
448,192,111117,2,0,B|408:256,1,60,0|4
304,336,111669,5,8
256,256,111945,1,2
256,256,112083,1,0
208,336,112359,1,0
208,336,112497,1,8
96,248,112910,1,0
24,184,113186,1,0
24,184,113324,2,0,B|24:104|96:104,1,120,8|0
240,104,114014,5,0
240,104,114152,1,8
328,64,114428,2,0,B|416:128|360:232,1,180
280,336,115255,1,2
280,336,115393,1,0
272,240,115669,5,0
272,240,115807,1,8
192,296,116083,1,0
192,296,116221,2,0,B|152:248|192:160,1,120
183,183,116635,1,8
240,104,116910,1,0
376,48,117324,5,0
376,48,117462,2,0,B|424:160,1,120,8|0
464,296,118152,1,0
464,296,118290,2,0,B|336:344,1,120,8|2
160,344,119117,5,8
72,296,119393,1,0
72,296,119531,1,0
160,248,119807,1,0
160,248,119945,1,8
72,200,120221,2,0,B|72:96|184:48,1,180
164,58,120772,1,8
256,88,121048,5,0
256,88,121186,2,0,B|344:24|448:104,1,180,0|8
464,176,121876,1,0
464,176,122014,2,0,B|440:264|336:296,1,180,0|8
192,296,122841,6,0,B|112:296,1,60
80,296,123117,2,0,B|48:232,1,60
48,192,123393,2,0,B|120:192,1,60
160,192,123669,2,0,B|208:136,1,60
224,104,123945,2,0,B|168:80,1,60
120,64,124221,2,0,B|64:96,1,60
67,94,124497,1,4
160,192,124910,5,8
256,192,125186,1,2
256,192,125324,1,0
352,192,125600,1,0
352,192,125738,1,8
256,304,126153,1,0
344,344,126427,1,0
344,344,126566,2,0,B|416:344|440:280,1,120,8|0
440,136,127255,5,0
440,136,127393,1,8
376,64,127669,2,0,B|288:16|192:72,2,180,0|0|2
376,64,128635,1,0
344,152,128910,6,0,B|320:224,1,60,0|8
280,216,129186,1,0
312,248,129324,1,0
360,240,129462,1,0
408,320,129738,1,0
408,320,129876,2,0,B|344:352|272:344,1,120,8|0
144,344,130565,5,0
144,344,130703,2,0,B|80:312|80:240,1,120,8|0
80,104,131393,1,0
80,104,131531,2,0,B|192:56,1,120,8|2
384,56,132360,5,8
456,120,132634,1,0
456,120,132772,1,0
392,192,133048,1,0
392,192,133186,1,8
464,256,133462,1,0
352,344,133876,1,0
352,344,134015,1,8
256,312,134290,5,0
256,312,134428,2,0,B|168:288|160:168,1,180,0|8
256,72,135117,1,0
256,72,135255,2,0,B|344:96|352:216,1,180,0|8
256,312,136083,6,0,B|200:272,1,60
184,240,136359,2,0,B|184:160,1,60
184,136,136635,2,0,B|224:80,1,60
256,72,136910,2,0,B|304:128,1,60
344,152,137186,2,0,B|344:232,1,60
336,264,137462,2,0,B|304:328,1,60
256,312,137738,1,4
