osu file format v8

[General]
AudioFilename: [11] Enormous Emotion (I Love You).mp3
AudioLeadIn: 0
PreviewTime: 60501
Countdown: 0
SampleSet: Soft
StackLeniency: 0.5
Mode: 0
LetterboxInBreaks: 1

[Editor]
DistanceSpacing: 0.6
BeatDivisor: 4
GridSize: 8

[Metadata]
Title:Enormous Emotion (I Love You)
Artist:Gunther
Creator:osuplayer111
Version:Normal
Source:
Tags:Mustache Sexy Man The Sunshine Girls

[Difficulty]
HPDrainRate:6
CircleSize:5
OverallDifficulty:7
ApproachRate:7
SliderMultiplier:1.5
SliderTickRate:2

[Events]
//Background and Video events
0,0,"I love you.jpg"
//Break Periods
2,85451,101601
//Storyboard Layer 0 (Background)
//Storyboard Layer 1 (Fail)
//Storyboard Layer 2 (Pass)
//Storyboard Layer 3 (Foreground)
//Storyboard Sound Samples
//Background Colour Transformations
3,100,163,162,255

[TimingPoints]
1251,375,4,2,1,100,1,0
25251,-100,4,2,1,100,0,1
25344,-100,4,2,1,100,0,0
28063,-100,4,1,1,80,0,0
28438,-100,4,2,1,100,0,0
31063,-100,4,1,1,80,0,0
31438,-100,4,2,1,100,0,0
34063,-100,4,1,1,80,0,0
34438,-100,4,2,1,100,0,0
37063,-100,4,1,1,80,0,0
37438,-100,4,2,1,100,0,0
40063,-100,4,1,1,80,0,0
40438,-100,4,2,1,100,0,0
43063,-100,4,1,1,80,0,0
43438,-100,4,2,1,100,0,0
46063,-100,4,1,1,80,0,0
46438,-100,4,2,1,100,0,0
47938,-100,4,1,1,80,0,0
48388,-100,4,2,1,100,0,0
48688,-100,4,1,1,80,0,0
49063,-100,4,2,1,100,0,0
49438,-100,4,2,1,0,0,0
54313,-100,4,2,0,50,0,0
54688,-100,4,2,1,0,0,0
60313,-100,4,2,1,100,0,0
61251,-100,4,2,1,100,0,1
61344,-100,4,2,1,100,0,0
64063,-100,4,1,1,80,0,0
64438,-100,4,2,1,100,0,0
67063,-100,4,1,1,80,0,0
67438,-100,4,2,1,100,0,0
70063,-100,4,1,1,80,0,0
70438,-100,4,2,1,100,0,0
73063,-100,4,1,1,80,0,0
73438,-100,4,2,1,100,0,0
76063,-100,4,1,1,80,0,0
76438,-100,4,2,1,100,0,0
79063,-100,4,1,1,80,0,0
79438,-100,4,2,1,100,0,0
82063,-100,4,1,1,80,0,0
82438,-100,4,2,1,100,0,0
83282,-100,4,1,1,80,0,0
83751,-100,4,2,1,100,0,0
84032,-100,4,1,1,80,0,0
84313,-100,4,2,1,100,0,0
85251,-100,4,2,1,100,0,1
85344,-100,4,2,1,100,0,0
107938,-100,4,1,1,80,0,0
108313,-100,4,2,1,100,0,0
109251,-100,4,2,1,100,0,1
109344,-100,4,2,1,100,0,0
112063,-100,4,1,1,80,0,0
112438,-100,4,2,1,100,0,0
115063,-100,4,1,1,80,0,0
115438,-100,4,2,1,100,0,0
118063,-100,4,1,1,80,0,0
118438,-100,4,2,1,100,0,0
121063,-100,4,1,1,80,0,0
121438,-100,4,2,1,100,0,0
124063,-100,4,1,1,80,0,0
124438,-100,4,2,1,100,0,0
127063,-100,4,1,1,80,0,0
127438,-100,4,2,1,100,0,0
130063,-100,4,1,1,80,0,0
130438,-100,4,2,1,100,0,0
131938,-100,4,1,1,80,0,0
132388,-100,4,2,1,100,0,0
132688,-100,4,1,1,80,0,0
133063,-100,4,2,1,100,0,0
133438,-100,4,2,1,0,0,0
138313,-100,4,2,0,50,0,0
138688,-100,4,2,1,0,0,0
144313,-100,4,2,1,100,0,0
145251,-100,4,2,1,100,0,1
145344,-100,4,2,1,100,0,0
148063,-100,4,1,1,80,0,0
148438,-100,4,2,1,100,0,0
151063,-100,4,1,1,80,0,0
151438,-100,4,2,1,100,0,0
154063,-100,4,1,1,80,0,0
154438,-100,4,2,1,100,0,0
157063,-100,4,1,1,80,0,0
157438,-100,4,2,1,100,0,0
160063,-100,4,1,1,80,0,0
160438,-100,4,2,1,100,0,0
163063,-100,4,1,1,80,0,0
163438,-100,4,2,1,100,0,0
166063,-100,4,1,1,80,0,0
166438,-100,4,2,1,100,0,0
167282,-100,4,1,1,80,0,0
167751,-100,4,2,1,100,0,0
168032,-100,4,1,1,80,0,0
168313,-100,4,2,1,100,0,0
169251,-100,4,2,1,100,0,1
169344,-100,4,2,1,100,0,0

[Colours]
Combo1 : 128,0,255
Combo2 : 255,0,0
Combo3 : 0,0,255
Combo4 : 0,128,64

[HitObjects]
256,40,25251,1,4
256,344,26001,1,8
384,142,26751,2,0,B|496:198|359:256,2,150,2|2|8
127,244,28251,6,0,B|16:198|128:142,2,150,0|0|8
256,344,29751,1,2
256,256,30126,1,2
192,192,30501,1,8
256,128,30876,1,0
320,192,31251,1,0
496,200,32001,6,0,B|496:104|400:24|264:40,1,300,8|2
256,128,33126,1,2
320,192,33501,1,8
168,288,34251,6,0,B|72:280|72:176,1,150
136,128,35001,1,8
208,64,35376,1,2
208,64,35563,1,0
304,64,35938,1,0
304,64,36126,1,2
376,128,36501,1,8
336,304,37251,5,0
256,360,37626,1,0
176,304,38001,1,8
256,192,38563,2,0,B|256:32,1,150,2|0
256,42,39126,1,2
256,42,39501,1,8
88,120,40251,5,0
32,192,40626,1,0
88,264,41001,1,8
256,192,41563,2,0,B|416:192,1,150,2|0
406,192,42126,1,2
448,112,42501,1,8
488,192,42876,1,0
448,272,43251,1,0
328,336,43813,5,0
328,336,44001,1,8
256,280,44376,2,0,B|256:128,2,150,0|2|0
184,336,45501,1,8
72,192,46251,5,0
256,56,47001,1,8
440,192,47751,1,2
376,256,48126,2,0,B|424:320,2,75,0|0|8
288,280,48876,1,0
256,192,49251,1,2
256,192,49438,12,0,52063
256,192,52251,12,0,54126
256,192,54501,5,8
256,192,55251,12,0,58063
256,192,58251,12,0,60126
256,192,60501,5,8
256,192,60688,1,0
256,192,60876,1,0
256,104,61251,1,4
256,280,62001,6,0,B|160:272|160:160,1,150,8|2
161,182,62563,1,0
74,182,62938,1,0
74,182,63126,1,2
108,104,63501,2,0,B|268:104,2,150,8|0|0
104,280,64813,6,0,B|160:336,1,75,0|8
256,336,65376,1,2
256,336,65563,1,0
408,280,65938,2,0,B|352:336,1,75,0|2
256,336,66501,1,8
256,248,66876,6,0,B|256:80,2,150
256,336,68001,1,8
256,248,68376,1,2
256,248,68563,1,0
256,160,68938,1,2
256,24,69501,1,8
200,96,69876,1,0
312,96,70251,1,0
256,160,70626,6,0,B|256:320,1,150,0|8
176,352,71376,1,2
176,352,71563,1,0
336,352,71938,1,0
336,352,72126,1,2
256,309,72501,1,8
176,264,72876,1,0
336,264,73251,1,0
448,120,74001,6,0,B|408:40|312:40,1,150,8|2
329,40,74563,1,0
311,123,74938,1,0
311,123,75126,1,2
256,192,75501,1,8
201,123,75876,1,0
182,40,76251,1,0
218,320,76813,6,0,B|306:320,1,75,0|8
344,248,77376,1,2
344,248,77563,1,0
256,192,77938,1,0
256,192,78126,1,2
168,248,78501,1,8
256,192,78876,1,0
256,88,79251,6,0,B|424:88,2,150,0|0|8
176,40,80376,1,2
176,40,80563,1,0
136,120,80938,1,0
136,120,81126,1,2
176,200,81501,1,8
256,360,82251,1,0
336,200,83001,5,8
336,200,83188,1,0
336,200,83376,1,0
336,200,83563,1,0
256,248,83938,1,0
256,248,84126,1,0
176,200,84501,1,8
256,248,84876,1,0
336,200,85251,1,4
256,192,102501,12,0,108126
256,256,108501,5,8
256,344,108876,1,0
256,344,109063,1,0
256,344,109251,1,4
256,40,110001,1,8
384,242,110751,2,0,B|496:186|359:128,2,150,2|2|8
127,140,112251,6,0,B|16:186|128:242,2,150,0|0|8
256,40,113751,1,2
256,128,114126,1,2
192,192,114501,1,8
256,256,114876,1,0
320,192,115251,1,0
496,184,116001,6,0,B|496:280|400:360|264:344,1,300,8|2
256,256,117126,1,2
320,192,117501,1,8
168,96,118251,6,0,B|72:104|72:208,1,150
136,256,119001,1,8
208,320,119376,1,2
208,320,119563,1,0
304,320,119938,1,0
304,320,120126,1,2
376,256,120501,1,8
336,80,121251,5,0
256,24,121626,1,0
176,80,122001,1,8
256,192,122563,2,0,B|256:352,1,150,2|0
256,342,123126,1,2
256,342,123501,1,8
88,264,124251,5,0
32,192,124626,1,0
88,120,125001,1,8
256,192,125563,2,0,B|416:192,1,150,2|0
406,192,126126,1,2
448,272,126501,1,8
488,192,126876,1,0
448,112,127251,1,0
328,48,127813,5,0
328,48,128001,1,8
256,104,128376,2,0,B|256:256,2,150,0|2|0
184,48,129501,1,8
72,192,130251,5,0
256,328,131001,1,8
440,192,131751,1,2
376,128,132126,2,0,B|424:64,2,75,0|0|8
288,104,132876,1,0
256,192,133251,1,2
256,192,133438,12,0,136063
256,192,136251,12,0,138126
256,192,138501,5,8
256,192,139251,12,0,142063
256,192,142251,12,0,144126
256,192,144501,5,8
256,192,144688,1,0
256,192,144876,1,0
256,280,145251,1,4
256,104,146001,6,0,B|160:112|160:224,1,150,8|2
161,202,146563,1,0
72,202,146938,1,0
72,202,147126,1,2
108,280,147501,2,0,B|268:280,2,150,8|0|0
104,104,148813,6,0,B|160:48,1,75,0|8
256,48,149376,1,2
256,48,149563,1,0
408,104,149938,2,0,B|352:48,1,75,0|2
256,48,150501,1,8
256,136,150876,6,0,B|256:304,2,150
256,48,152001,1,8
256,136,152376,1,2
256,136,152563,1,0
256,224,152938,1,2
256,360,153501,1,8
200,288,153876,1,0
312,288,154251,1,0
256,224,154626,6,0,B|256:64,1,150,0|8
176,32,155376,1,2
176,32,155563,1,0
336,32,155938,1,0
336,32,156126,1,2
256,75,156501,1,8
176,120,156876,1,0
336,120,157251,1,0
448,264,158001,6,0,B|408:344|312:344,1,150,8|2
329,344,158563,1,0
311,261,158938,1,0
311,261,159126,1,2
256,192,159501,1,8
201,261,159876,1,0
182,343,160251,1,0
218,64,160813,6,0,B|306:64,1,75,0|8
344,136,161376,1,2
344,136,161563,1,0
256,192,161938,1,0
256,192,162126,1,2
168,136,162501,1,8
256,192,162876,1,0
256,296,163251,6,0,B|424:296,2,150,0|0|8
176,344,164376,1,2
176,344,164563,1,0
136,264,164938,1,0
136,264,165126,1,2
176,184,165501,1,8
256,24,166251,1,0
336,184,167001,5,8
336,184,167188,1,0
336,184,167376,1,0
336,184,167563,1,0
256,136,167938,1,0
256,136,168126,1,0
176,184,168501,1,8
256,136,168876,1,0
336,184,169251,1,4
