osu file format v5

[General]
AudioFilename: Gunter - Ding Dong Song .mp3
AudioLeadIn: 0
PreviewTime: -1
Countdown: 1
SampleSet: Soft
StackLeniency: 0.7
Mode: 0
LetterboxInBreaks: 1
EditorBookmarks: 22510,42066,123928,169407

[Metadata]
Title:Ding Dong Song (You Touch My Tra La La)
Artist:Gunther
Creator:osuplayer111
Version:oSuPlaYeR mIX
Source:
Tags:

[Difficulty]
HPDrainRate:9
CircleSize:6
OverallDifficulty:7
SliderMultiplier:1.5
SliderTickRate:2

[Events]
//Background and Video events
0,0,"sin_gunther-ding_dong_song2.jpg"
//Break Periods
2,40220,41016
2,103208,122878
//Storyboard Layer 0 (Background)
//Storyboard Layer 1 (Failing)
//Storyboard Layer 2 (Passing)
//Storyboard Layer 3 (Foreground)
//Storyboard Sound Samples
//Background Colour Transformations
3,100,163,162,255

[TimingPoints]
7550,454.545454545455,4,2,0,100,1

[Colours]
Combo1 : 255,255,255
Combo2 : 255,0,0
Combo3 : 0,255,128
Combo4 : 255,128,0

[HitObjects]
136,112,22550,1,0
312,112,23231,2,8,L|312:200,1,75
312,248,23686,1,0
312,304,23913,1,0
248,304,24140,2,8,L|208:352|192:336,1,75
24,288,25050,5,8
24,232,25277,1,8
24,176,25504,1,8
80,176,25731,5,0
176,104,26186,2,8,L|176:192,1,75
176,240,26640,1,2
264,296,27095,1,2
320,296,27322,2,8,L|304:360|288:328,1,75
304,216,28004,1,2
304,160,28231,1,2
304,104,28459,1,2
248,104,28686,1,2
192,104,28913,1,2
192,160,29140,1,2
192,216,29368,1,2
424,72,29822,6,2,L|424:120|392:112,1,75
336,112,30277,1,2
216,112,30731,1,0
216,168,30959,1,0
216,224,31186,1,0
336,232,31640,2,2,L|336:320,1,75
328,368,32095,2,2,L|280:368|264:336,1,75
264,280,32550,1,2
256,216,32777,2,2,L|240:160|264:144,1,75
360,88,33459,5,2
296,88,33686,2,2,L|296:40|344:32,1,75
440,32,34368,1,0
440,88,34595,1,0
440,144,34822,1,0
48,48,35277,6,2,L|128:48,1,75
184,48,35731,2,2,L|184:104|184:48,1,75
240,88,36186,2,2,L|296:96|296:56,1,75
304,16,36640,1,2
416,48,37095,6,2,L|408:160|376:120,1,150
264,128,38004,1,2
200,136,38231,2,8,L|208:184|264:176,1,75
352,176,38913,1,2
352,232,39140,1,2
352,288,39368,1,2
296,264,39595,2,8,L|264:344|256:360,2,75
64,64,42095,5,0
184,64,42549,2,8,L|184:144,2,75
304,88,43459,1,0
344,136,43686,2,8,L|392:112,2,37.5
344,256,44368,1,0
224,256,44822,2,8,L|224:344,2,75
160,256,45504,1,0
160,200,45731,1,0
360,168,46186,6,8,L|360:216,2,37.5
240,184,46868,1,0
240,128,47095,1,0
240,72,47322,1,0
240,16,47549,1,0
352,56,48004,2,8,L|352:104,2,37.5
352,176,48686,5,0
352,232,48913,1,0
352,112,49368,1,0
232,112,49822,2,8,L|232:184,2,37.5
288,112,50277,1,2
288,232,50731,1,0
288,288,50959,1,0
288,344,51186,1,0
48,296,51640,6,8,L|128:344|184:312,1,150
232,288,52322,1,0
280,256,52549,1,0
328,224,52777,1,0
288,184,53004,1,2
96,144,53459,5,8
96,144,53572,1,8
184,144,53913,1,8
184,144,54027,1,8
184,232,54368,1,8
184,232,54481,1,8
184,320,54822,1,8
304,320,55277,5,8
304,264,55504,1,8
232,168,55959,2,8,L|312:168,1,75
368,168,56413,2,8,L|456:168,1,75
440,288,57095,1,0
384,288,57322,1,0
328,288,57549,1,0
208,288,58004,2,8,L|208:336,1,37.5
264,328,58345,1,8
264,328,58459,1,8
104,80,58913,6,8,L|72:136|96:232,1,150
152,224,59595,1,0
208,224,59822,1,0
264,224,60049,2,8,L|264:264,2,37.5
256,192,60731,12,8,63913
64,56,64368,5,0
64,112,64595,1,0
64,168,64822,1,0
184,168,65277,1,0
240,168,65504,2,8,L|240:216,2,37.5
240,288,66186,1,0
360,288,66640,2,8,L|352:352|328:360,1,75
280,352,67095,1,0
224,352,67322,1,0
224,288,67549,2,2,L|336:328|328:360,1,150
256,192,68459,12,4,71186
96,112,71640,5,2
96,168,71868,1,2
216,168,72322,2,2,L|288:224|360:200,1,150
416,40,73459,1,2
416,96,73686,1,2
304,152,74140,2,2,L|264:232|296:296,1,150
352,88,75277,6,2,L|352:136|392:136,1,75
376,256,75959,1,2
376,312,76186,1,2
320,312,76413,1,2
200,312,76868,2,2,L|112:312,4,75
256,192,78004,12,0,78686
96,128,78913,5,2
96,176,79140,1,2
192,176,79595,2,2,L|192:256|232:328,1,150
224,136,80731,1,2
224,192,80959,1,2
344,200,81413,2,2,L|416:136|384:88,1,150
272,48,82322,5,2
272,104,82549,1,2
272,224,83004,2,2,L|352:192,1,75
368,144,83459,2,2,L|376:48,1,75
256,64,84140,1,2
256,328,84595,1,2
80,64,85049,2,2,L|72:160|128:224|176:224,1,225
104,136,86186,5,4
112,264,86868,1,0
168,264,87095,1,0
168,200,87322,2,8,L|264:200,1,75
304,216,87777,2,8,L|360:256|352:296,1,75
200,104,88686,5,8
200,104,88913,1,8
200,104,89027,1,8
264,248,89368,6,2,L|352:240|344:168,1,150
288,184,90049,1,8
288,128,90277,1,8
200,232,90731,1,2
200,176,90959,1,2
256,176,91186,2,8,L|272:248|352:248,1,150
408,248,91868,1,2
408,304,92095,1,2
464,304,92322,1,2
464,360,92550,1,2
408,360,92777,1,2
352,360,93004,1,2
72,120,93459,6,8,L|72:224|136:200,1,150,8|8
232,208,94368,1,2
272,248,94595,1,2
312,296,94822,1,2
432,296,95277,2,2,L|440:360|480:360,1,75
392,352,95731,1,2
360,296,95959,1,2
336,240,96186,1,2
336,240,96300,1,2
336,240,96413,1,2
336,240,96527,1,2
336,240,96640,1,2
232,336,97095,6,8,L|320:336,1,75
264,224,97777,2,8,L|264:128,1,75
264,88,98231,1,0
320,96,98459,2,8,L|320:184,1,75
320,232,98913,1,0
256,192,99368,12,4,100277
112,64,100731,5,2
112,240,101413,1,2
112,296,101640,1,2
168,296,101868,1,2
224,296,102095,1,2
312,296,102436,5,8
312,296,102550,1,8
312,296,102663,1,8
312,296,102777,1,8
368,296,103004,1,8
56,56,123913,5,0
56,176,124368,1,0
56,176,124481,1,0
56,264,124822,1,0
176,264,125277,1,0
232,264,125504,2,8,L|232:336|216:352,1,75
352,328,126186,5,0
376,136,126640,2,8,L|440:136|432:48,1,150
256,192,127550,1,0
256,312,128004,5,0
312,312,128231,1,0
432,312,128686,1,0
432,256,128913,1,0
376,256,129140,2,8,L|376:336,1,75
256,192,129595,12,4,130731
176,112,131186,5,0
304,112,131640,2,8,L|304:168|280:184,1,75
224,184,132095,1,0
224,304,132550,1,2
280,304,132777,1,2
336,304,133004,1,2
96,72,133459,6,8,L|88:160|152:184,1,150
208,184,134140,1,0
264,184,134368,1,0
272,120,134595,2,8,L|360:120,1,75
256,328,135277,1,0
256,48,135731,1,0
112,144,136186,2,8,L|112:208|80:248|128:272,1,150
232,272,137095,1,0
288,272,137322,1,0
168,272,137777,5,0
168,216,138004,1,0
224,216,138231,2,2,L|304:216|296:224,1,75
416,216,138913,1,2
416,272,139140,1,2
256,336,139595,1,2
256,192,140050,5,8
256,192,140163,1,8
256,192,140277,1,8
256,192,140390,1,8
256,192,140504,1,8
256,192,140618,1,8
256,192,140731,1,8
312,192,140959,2,2,L|312:272|392:304,1,150
144,104,142550,5,2
144,160,142777,1,2
144,40,143231,1,2
200,40,143459,1,2
200,96,143686,2,2,L|168:144|104:152|376:352,1,450
64,64,146186,6,2,L|64:136|88:160,1,75
72,256,146868,1,2
256,192,147322,1,8
256,192,147436,1,8
256,192,147549,1,8
256,192,147663,1,8
256,192,147777,1,8
256,192,147890,1,8
256,192,148004,1,8
312,192,148231,6,2,L|312:264|232:272,1,150
96,72,149595,1,2
152,72,149822,1,2
152,192,150277,1,2
152,248,150504,1,2
208,248,150731,2,2,L|200:304|240:328,1,75
256,48,151413,1,2
336,256,151868,2,2,L|456:248|456:288,1,150
256,192,152663,12,4,153459
312,80,154140,6,8,L|312:176,1,75
312,216,154595,1,0
256,248,154822,2,8,L|304:304|312:280,1,75
352,344,155277,1,0
464,40,155959,5,8
408,40,156186,1,8
352,40,156413,1,8
312,88,156640,6,2,L|392:88|392:136|416:152,1,150
408,208,157322,1,8
408,264,157549,1,8
264,280,158004,2,2,L|264:344|296:360,1,75
336,344,158459,1,0
336,224,158913,1,0
272,224,159140,2,2,L|280:272|304:288,1,75
360,280,159595,1,0
416,280,159822,1,0
472,280,160049,2,2,L|472:320|440:352,1,75
152,232,160731,6,2,L|160:336|256:344|248:312,1,225,2|2
256,256,161640,1,8
256,192,161868,1,8
256,128,162095,1,8
48,352,163004,2,2,L|128:352,1,75
128,288,163459,2,2,L|216:288,1,75,2|2
264,288,163913,1,2
392,96,164368,1,2
72,104,164822,6,8,L|144:152|192:96,1,150
304,104,165731,1,2
304,160,165959,1,2
304,216,166186,1,2
64,192,167095,1,2
464,192,167549,1,2
256,192,168004,5,2
48,40,168686,2,2,L|48:128,1,75
96,152,169140,1,2
136,192,169368,1,2
