osu file format v9

[General]
AudioFilename: Gunther - Ding Dong Song (Soft Care).mp3
AudioLeadIn: 1000
PreviewTime: 37870
Countdown: 0
SampleSet: Soft
StackLeniency: 0.4
Mode: 0
LetterboxInBreaks: 0

[Editor]
DistanceSpacing: 0.8
BeatDivisor: 2
GridSize: 4

[Metadata]
Title:Ding Dong Song (Soft Care)
Artist:Gunther
Creator:osuplayer111
Version:Normal
Source:
Tags:Pleasureman Sexy Man The Sunshine Girls

[Difficulty]
HPDrainRate:3
CircleSize:4
OverallDifficulty:3
ApproachRate:4
SliderMultiplier:1.1
SliderTickRate:0.5

[Events]
//Background and Video events
0,0,"Ooh.jpg"
//Break Periods
//Storyboard Layer 0 (Background)
//Storyboard Layer 1 (Fail)
//Storyboard Layer 2 (Pass)
//Storyboard Layer 3 (Foreground)
//Storyboard Sound Samples
//Background Colour Transformations
3,100,0,0,0

[TimingPoints]
1620,454.545454545455,4,2,1,80,1,0
22983,-100,4,2,2,80,0,0
23438,-100,4,2,2,80,0,1
23551,-100,4,2,1,80,0,0
37529,-100,4,2,2,80,0,0
37983,-100,4,2,2,80,0,1
38097,-100,4,2,1,80,0,0
52529,-100,4,2,2,80,0,0
52983,454.545454545455,4,2,2,80,1,1
53097,-100,4,2,1,80,0,0
67301,-100,4,2,2,80,0,0
67529,-100,4,2,2,80,0,1
67642,-100,4,2,2,80,0,0

[Colours]
Combo1 : 167,79,255
Combo2 : 53,189,255

[HitObjects]
64,192,1620,1,4
112,120,2074,2,0,B|168:120,1,55,8|2
256,120,2756,1,4
368,192,3438,1,4
352,280,3892,2,0,B|296:280,1,55,8|4
80,280,5256,5,4
64,192,5710,2,0,B|96:144,1,55,8|2
144,72,6392,1,4
256,144,7074,1,4
336,104,7529,2,0,B|368:152,1,55,8|4
256,328,8892,5,4
256,192,9574,1,2
256,56,10710,5,4
256,192,11392,1,4
392,192,12529,5,4
256,192,13210,1,2
120,192,14347,5,4
256,192,15029,1,4
120,192,16165,6,0,B|48:144|48:48,1,165,4|2
392,192,17983,2,0,B|464:144|464:48,1,165,4|4
208,112,19801,6,0,B|208:296,1,165,4|2
304,112,21620,2,0,B|304:296,1,165,4|4
256,40,23438,5,4
336,72,23892,2,0,B|296:136,1,55,8|2
256,192,24574,1,4
176,296,25256,1,4
256,344,25710,1,8
256,344,25938,1,4
104,192,27074,5,4
136,112,27529,2,0,B|200:152,1,55,8|2
256,192,28210,1,4
360,272,28892,1,4
408,192,29347,1,8
408,192,29574,1,4
256,344,30710,5,4
176,312,31165,2,0,B|216:248,1,55,8|2
256,192,31847,1,4
336,88,32529,1,4
256,40,32983,1,8
256,40,33210,1,4
408,192,34347,5,4
376,272,34801,2,0,B|312:232,1,55,8|2
256,192,35483,1,4
152,112,36165,1,4
104,192,36620,1,8
104,192,36847,1,4
256,344,37983,5,4
336,312,38438,1,8
336,312,38665,2,0,B|400:312|432:256,1,110,2|4
432,128,39801,1,4
368,72,40256,2,0,B|312:72,1,55,8|4
256,344,41620,5,4
176,312,42074,1,8
176,312,42301,2,0,B|112:312|80:256,1,110,2|4
80,128,43438,1,4
144,72,43892,2,0,B|200:72,1,55,8|4
256,192,45256,6,0,B|376:192,1,110,4|8
366,192,45938,1,2
368,104,46392,1,4
464,192,47074,1,4
416,264,47529,1,8
416,264,47756,1,4
256,192,48892,6,0,B|136:192,1,110,4|8
146,192,49574,1,2
144,104,50029,1,4
48,192,50710,1,4
96,264,51165,1,8
96,264,51392,1,4
256,344,52983,5,4
256,256,53437,1,8
256,256,53664,2,0,B|256:144,1,110,2|4
256,146,54346,1,4
211,72,54801,5,2
301,72,55255,1,8
301,72,55483,1,4
256,200,56164,5,4
336,240,56619,1,2
336,328,57073,2,0,B|400:328,1,55,8|2
256,200,57983,5,4
176,240,58437,1,2
176,328,58892,2,0,B|112:328,1,55,8|4
256,200,59801,5,4
336,160,60255,1,2
336,72,60710,2,0,B|400:72,1,55,8|2
256,200,61619,5,4
176,160,62073,1,2
176,72,62528,2,0,B|112:72,1,55,8|4
48,200,63437,5,4
80,280,63892,1,2
152,328,64346,2,0,B|216:328,1,55,8|2
464,200,65255,5,4
432,280,65710,1,2
360,328,66164,2,0,B|296:328,1,55,8|4
256,104,67073,5,4
256,192,67528,1,4
