osu file format v9

[General]
AudioFilename: Gunther - Ding Dong Song (Soft Care).mp3
AudioLeadIn: 1000
PreviewTime: 37870
Countdown: 0
SampleSet: Soft
StackLeniency: 0.4
Mode: 0
LetterboxInBreaks: 0

[Editor]
DistanceSpacing: 1
BeatDivisor: 4
GridSize: 4

[Metadata]
Title:Ding Dong Song (Soft Care)
Artist:Gunther
Creator:osuplayer111
Version:Hard
Source:
Tags:Pleasureman Sexy Man The Sunshine Girls

[Difficulty]
HPDrainRate:6
CircleSize:5
OverallDifficulty:7
ApproachRate:7
SliderMultiplier:1.4
SliderTickRate:0.5

[Events]
//Background and Video events
0,0,"Ooh.jpg"
//Break Periods
//Storyboard Layer 0 (Background)
//Storyboard Layer 1 (Fail)
//Storyboard Layer 2 (Pass)
//Storyboard Layer 3 (Foreground)
//Storyboard Sound Samples
//Background Colour Transformations
3,100,0,0,0

[TimingPoints]
1620,454.545454545455,4,2,1,80,1,0
23210,-100,4,2,2,80,0,0
23438,-100,4,2,2,80,0,1
23551,-100,4,2,1,80,0,0
37870,-100,4,2,2,80,0,0
37983,-100,4,2,2,80,0,1
38097,-100,4,2,1,80,0,0
50597,-200,4,2,1,80,0,0
51279,-100,4,2,1,80,0,0
52415,-100,4,2,1,0,0,0
52642,-100,4,2,2,80,0,0
52983,454.545454545455,4,2,2,80,1,1
53097,-100,4,2,1,80,0,0
67301,-100,4,2,2,80,0,0
67529,-100,4,2,2,80,0,1
67642,-100,4,2,2,80,0,0

[Colours]
Combo1 : 167,79,255
Combo2 : 53,189,255

[HitObjects]
464,48,1620,1,4
400,136,1960,2,0,B|344:136,1,35,4|8
296,136,2301,1,2
216,248,2756,1,4
112,64,3438,1,4
48,192,3892,1,8
48,192,4120,1,4
48,336,5256,5,4
112,248,5597,2,0,B|168:248,1,35,4|8
216,248,5938,1,2
296,136,6392,1,4
400,320,7074,1,4
464,192,7529,1,8
464,192,7756,1,4
400,64,8154,6,0,B|448:64,2,35
112,64,8892,5,4
64,160,9233,1,4
64,160,9347,2,0,B|64:248,1,70,8|2
144,344,10029,2,0,B|272:344|272:208,1,210,4|4
280,72,11165,1,8
280,72,11392,1,4
400,320,12529,5,4
448,224,12870,1,4
448,224,12983,2,0,B|448:136,1,70,8|2
368,40,13665,2,0,B|240:40|240:176,1,210,4|4
232,312,14801,1,8
232,312,15029,1,4
64,280,16165,5,4
88,176,16506,2,0,B|96:136,1,35,4|8
112,72,16847,1,2
184,192,17301,1,4
352,312,17983,2,0,B|432:312|472:240,1,140,4|8
468,246,18665,1,4
448,104,19801,5,4
424,208,20142,2,0,B|416:248,1,35,4|8
400,312,20483,1,2
328,192,20938,1,4
160,72,21620,2,0,B|80:72|40:144,1,140,4|8
44,138,22301,1,4
120,256,22756,6,0,B|152:296,2,35
256,192,23438,6,0,B|284:224,1,35,4|0
328,272,23779,2,0,B|360:248,1,35,4|8
408,208,24120,2,0,B|384:176,1,35,2|0
352,120,24460,2,0,B|304:120,1,35,0|4
256,80,24801,2,0,B|256:8,2,70,0|0|4
256,304,25710,1,8
256,304,25938,1,4
256,192,27074,6,0,B|228:160,1,35,4|0
184,112,27415,2,0,B|152:136,1,35,4|8
104,176,27756,2,0,B|128:208,1,35,2|0
160,264,28097,2,0,B|208:264,1,35,0|4
256,304,28438,2,0,B|256:376,2,70,0|0|4
256,80,29347,1,8
256,80,29574,1,4
136,160,30710,5,4
136,160,30824,1,0
104,224,31051,1,4
104,224,31165,1,8
168,248,31392,1,2
168,248,31506,1,0
200,184,31733,1,0
200,184,31847,1,4
232,120,32074,5,0
208,56,32301,1,0
152,96,32529,1,4
96,320,32983,1,8
96,320,33210,1,4
376,224,34347,5,4
376,224,34460,1,0
408,160,34688,1,4
408,160,34801,1,8
344,136,35029,1,2
344,136,35142,1,0
312,200,35370,1,0
312,200,35483,1,4
280,264,35710,5,0
304,328,35938,1,0
360,288,36165,1,4
416,64,36619,1,8
416,64,36847,1,4
256,192,37074,12,4,37983
256,56,38438,5,8
256,56,38665,2,0,B|256:200,1,140,2|4
192,224,39347,1,0
176,288,39574,1,0
224,336,39801,1,4
288,336,40029,1,0
336,288,40256,1,8
320,224,40483,1,4
256,48,41619,6,0,B|208:48,1,35,4|0
152,48,41960,2,0,B|128:80,1,35,4|8
88,128,42301,1,2
168,240,42756,1,4
219,289,42983,1,0
293,289,43210,1,0
344,240,43438,1,4
424,128,43892,1,8
424,128,44119,1,4
256,341,45256,6,0,B|256:296,1,35,4|0
256,237,45597,2,0,B|256:184,1,35,4|8
320,168,45938,2,0,B|320:88,1,70,2|0
256,64,46392,2,0,B|256:144,1,70,4|0
192,168,46847,2,0,B|192:98,1,70,0|4
192,32,47301,1,0
256,0,47529,1,8
320,32,47756,1,4
416,304,48892,6,0,B|368:304,1,35,4|0
336,248,49233,2,0,B|288:248,1,35,4|8
256,192,49574,1,2
152,104,50029,2,0,B|104:104|88:144,1,70,4|0
56,192,50483,1,0
92,249,50710,2,0,B|104:280|152:280,1,70,4|8
150,279,51392,1,4
256,192,51619,12,0,52529
256,192,52983,6,0,B|256:152,1,35,4|0
256,88,53323,2,0,B|208:88,1,35,4|8
160,120,53664,1,2
105,159,53892,1,4
105,225,54119,1,4
160,264,54346,1,4
256,368,54801,5,2
352,264,55255,1,8
352,264,55482,2,0,B|440:264|472:176,1,140,4|4
424,136,56164,2,0,B|336:136|304:224,1,140,4|2
256,296,56960,2,0,B|216:296,1,35,4|8
184,232,57301,1,2
144,296,57528,1,4
184,360,57755,1,4
144,296,57982,6,0,B|64:304|24:224,1,140,4|2
144,88,58892,1,8
144,88,59119,1,4
144,88,59346,2,0,B|64:80|24:160,1,140,4|4
152,192,60255,6,0,B|200:192,1,35,2|0
256,192,60596,1,4
256,192,60710,1,8
312,152,60937,2,0,B|392:152,1,70,2|4
382,232,61392,2,0,B|312:232,1,70,4|4
256,360,62073,5,2
256,360,62528,1,8
220,304,62755,1,4
292,304,62982,1,4
326,192,63437,2,0,B|182:192,1,140,4|2
128,104,64232,6,0,B|144:72,1,35,4|8
208,48,64573,1,2
256,104,64801,1,4
304,48,65028,1,4
368,88,65255,1,4
416,216,65710,5,2
320,312,66164,1,8
256,280,66392,1,4
192,312,66619,1,4
96,216,67073,1,4
256,192,67528,1,4
